osu file format v14

[General]
AudioFilename: audio.mp3
AudioLeadIn: 0
PreviewTime: 53267
Countdown: 0
SampleSet: Drum
StackLeniency: 0.7
Mode: 0
LetterboxInBreaks: 0
WidescreenStoryboard: 1

[Editor]
Bookmarks: 54017,78017,102017,126017,138017,150017,162017
DistanceSpacing: 1
BeatDivisor: 4
GridSize: 8
TimelineZoom: 1.9

[Metadata]
Title:Labyrinth -Black Trance Mix- v2.0
TitleUnicode:Labyrinth -Black Trance Mix- v2.0
Artist:Lix
ArtistUnicode:Lix
Creator:Matrix
Version:Normal
Source:Ragnarök Online
Tags:reflex levo lution instrumental electronic trance mithew lmt rrtyui ラグナロクオンライン video game
BeatmapID:2252032
BeatmapSetID:1075788

[Difficulty]
HPDrainRate:3
CircleSize:3
OverallDifficulty:5
ApproachRate:5
SliderMultiplier:1.1
SliderTickRate:1

[Events]
//Background and Video events
0,0,"amazing-dark-background-1.jpg",0,0
//Break Periods
//Storyboard Layer 0 (Background)
//Storyboard Layer 1 (Fail)
//Storyboard Layer 2 (Pass)
//Storyboard Layer 3 (Foreground)
//Storyboard Layer 4 (Overlay)
//Storyboard Sound Samples

[TimingPoints]
1517,375,4,1,1,48,1,0
54017,-100,4,1,1,80,0,0
54392,-100,4,1,1,70,0,0
54767,-100,4,1,1,60,0,0
55142,-100,4,1,1,50,0,0
55517,-100,4,1,1,48,0,0
78017,-90.9090909090909,4,3,1,65,0,0
81017,-90.9090909090909,4,3,1,48,0,0
84017,-90.9090909090909,4,3,1,65,0,0
87017,-90.9090909090909,4,3,1,48,0,0
90017,-90.9090909090909,4,3,1,65,0,0
93017,-90.9090909090909,4,3,1,48,0,0
96017,-90.9090909090909,4,3,1,65,0,0
99017,-90.9090909090909,4,3,1,70,0,0
100517,-90.9090909090909,4,3,1,75,0,0
102017,-83.3333333333333,4,3,1,80,0,0
125454,-83.3333333333333,4,2,1,80,0,0
126017,-83.3333333333333,4,3,1,80,0,1
138017,-83.3333333333333,4,2,1,80,0,0
150017,-90.9090909090909,4,2,1,80,0,0
156017,-90.9090909090909,4,3,1,80,0,0
157517,-90.9090909090909,4,3,1,80,0,0
158079,-90.9090909090909,4,3,1,70,0,0
158642,-90.9090909090909,4,3,1,80,0,0
160517,-90.9090909090909,4,3,1,80,0,0
161267,-90.9090909090909,4,3,1,85,0,0
162017,-90.9090909090909,4,3,1,90,0,0
163798,-90.9090909090909,4,3,1,5,0,0

[Colours]
Combo1 : 0,121,210
Combo2 : 128,128,255
Combo3 : 124,0,249
Combo4 : 0,128,128

[HitObjects]
154,293,54017,5,4,0:2:0:0:
112,191,54392,1,8,0:2:0:0:
154,90,54767,1,0,0:2:0:0:
256,48,55142,1,8,0:2:0:0:
357,90,55517,1,0,0:2:0:0:
399,192,55892,1,8,0:2:0:0:
357,293,56267,1,0,0:2:0:0:
256,335,56642,1,8,0:2:0:0:
168,264,57017,6,0,L|96:248,2,55,0|2|8,1:2|2:2|2:2,0:0:0:0:
256,192,57767,1,0,1:2:0:0:
344,264,58142,2,0,L|416:248,2,55,8|0|0,2:2|2:2|1:2,0:0:0:0:
256,328,58892,2,0,L|256:384,2,55,8|0|0,2:2|2:2|1:2,0:0:0:0:
256,216,59642,1,8,2:2:0:0:
256,216,59829,1,2,2:2:0:0:
256,216,60017,5,4,0:2:0:0:
152,184,60392,1,8,0:2:0:0:
48,152,60767,1,0,0:2:0:0:
72,264,61142,1,8,0:2:0:0:
96,368,61517,1,0,0:2:0:0:
178,294,61892,1,8,0:2:0:0:
256,216,62267,1,0,0:2:0:0:
285,321,62642,1,8,0:2:0:0:
360,241,63017,6,0,L|416:265,2,55,0|2|8,1:2|2:2|2:2,0:0:0:0:
330,135,63767,1,0,1:2:0:0:
220,147,64142,2,0,L|171:183,2,55,8|0|0,2:2|2:2|1:2,0:0:0:0:
259,44,64892,2,0,L|308:8,2,55,8|0|0,2:2|2:2|1:2,0:0:0:0:
333,125,65642,1,8,2:2:0:0:
333,125,65829,1,2,2:2:0:0:
333,125,66017,6,0,L|325:245,1,110,4|8,0:2|0:2,0:0:0:0:
426,190,66767,2,0,L|419:299,1,110,0|8,0:2|0:2,0:0:0:0:
316,339,67517,2,0,L|196:363,1,110,0|8,0:2|0:2,0:0:0:0:
243,256,68267,2,0,L|134:276,1,110,0|8,0:2|0:2,0:0:0:0:
37,224,69017,5,0,1:2:0:0:
37,224,69204,1,2,2:2:0:0:
37,224,69392,2,0,L|29:344,1,110,8|0,2:2|1:2,0:0:0:0:
133,369,70142,2,0,L|189:385,2,55,8|0|0,2:2|2:2|1:2,0:0:0:0:
204,285,70892,2,0,L|148:269,2,55,8|0|0,2:2|2:2|1:2,0:0:0:0:
285,211,71642,1,8,2:2:0:0:
285,211,71829,1,2,2:2:0:0:
285,211,72017,5,4,0:2:0:0:
365,283,72392,1,8,0:2:0:0:
445,203,72767,1,0,0:2:0:0:
365,123,73142,1,8,0:2:0:0:
285,51,73517,1,0,0:2:0:0:
213,131,73892,1,8,0:2:0:0:
141,211,74267,1,0,0:2:0:0:
221,283,74642,1,8,0:2:0:0:
301,363,75017,6,0,L|237:387,2,55,0|2|8,1:2|2:2|2:2,0:0:0:0:
354,350,75579,1,2,2:2:0:0:
354,350,75767,2,0,B|410:326|410:326|418:270,1,110,0|8,1:2|2:2,0:0:0:0:
424,167,76517,1,0,1:2:0:0:
343,91,76892,1,8,2:2:0:0:
343,91,77079,1,0,2:2:0:0:
343,91,77267,6,0,B|305:101|305:101|289:141,1,82.5,6|2,1:2|2:2,0:0:0:0:
231,200,77829,1,2,2:2:0:0:
231,200,78017,6,0,L|156:159,1,60.5000018463135,4|0,1:2|3:2,0:0:0:0:
120,189,78392,2,0,B|79:183|79:183|45:129,1,90.7500027694703,8|0,3:2|3:2,0:0:0:0:
8,62,78954,1,0,3:2:0:0:
128,51,79329,1,0,3:2:0:0:
128,51,79517,2,0,L|172:-5,2,60.5000018463135,0|0|0,0:0|0:0|0:0,0:0:0:0:
244,56,80267,6,0,P|248:100|278:133,1,90.7500027694703,2|2,0:2|3:2,0:0:0:0:
369,132,80829,1,2,3:2:0:0:
369,132,81017,6,0,L|315:256,1,121.000003692627,0|8,1:2|2:2,0:0:0:0:
261,227,81579,1,2,2:2:0:0:
261,227,81767,2,0,P|296:270|303:336,1,121.000003692627,0|8,1:2|2:2,0:0:0:0:
268,382,82329,1,0,2:2:0:0:
268,382,82517,2,0,B|129:365,1,121.000003692627,0|8,1:2|2:2,0:0:0:0:
174,255,83267,6,0,L|283:219,1,90.7500027694703,2|2,1:2|2:2,0:0:0:0:
346,199,83829,1,2,2:2:0:0:
346,199,84017,6,0,P|315:154|307:127,1,60.5000018463135,4|0,1:2|3:2,0:0:0:0:
291,92,84392,1,8,3:2:0:0:
381,95,84673,2,0,P|386:40|412:0,1,90.7500027694703,0|0,3:2|3:2,0:0:0:0:
497,85,85329,1,0,3:2:0:0:
497,85,85517,2,0,L|509:153,2,60.5000018463135,0|0|8,0:0|3:2|3:2,0:0:0:0:
384,39,86267,5,0,1:2:0:0:
384,39,86454,1,2,3:2:0:0:
384,39,86642,2,0,P|316:53|304:49,1,60.5000018463135,8|2,2:2|3:2,0:0:0:0:
266,52,87017,1,0,1:2:0:0:
145,43,87392,6,0,L|96:92,2,60.5000018463135,8|2|0,2:2|2:2|1:2,0:0:0:0:
202,148,88142,1,8,2:2:0:0:
202,148,88329,1,0,2:2:0:0:
202,148,88517,2,0,B|247:139|247:139|329:178,1,121.000003692627,0|8,1:2|2:2,0:0:0:0:
419,109,89267,6,0,L|481:178,1,90.7500027694703,2|2,2:2|2:2,0:0:0:0:
416,241,89829,1,2,2:2:0:0:
416,241,90017,6,0,L|396:324,1,60.5000018463135,4|0,1:2|0:2,0:0:0:0:
387,358,90392,1,8,0:2:0:0:
306,315,90673,2,0,P|267:284|205:279,1,90.7500027694703,0|0,0:2|0:2,0:0:0:0:
159,375,91329,2,0,P|115:364|80:336,1,90.7500027694703,0|0,0:2|0:2,0:0:0:0:
33,257,91892,2,0,L|0:164,2,90.7500027694703,8|0|0,0:2|0:2|0:2,0:0:0:0:
125,179,92829,6,0,L|164:109,1,60.5000018463135,2|0,0:2|1:2,0:0:0:0:
186,74,93204,1,2,2:2:0:0:
186,74,93392,2,0,P|237:81|303:50,1,121.000003692627,8|0,2:2|1:2,0:0:0:0:
418,34,94142,5,8,2:2:0:0:
418,34,94329,1,0,2:2:0:0:
418,34,94517,2,0,L|433:165,1,121.000003692627,0|8,1:2|2:2,0:0:0:0:
439,214,95079,1,0,2:2:0:0:
439,214,95267,6,0,B|399:226|399:226|377:294,1,90.7500027694703,2|2,1:2|2:2,0:0:0:0:
366,361,95829,1,2,2:2:0:0:
366,361,96017,2,0,L|298:329,1,60.5000018463135,4|0,1:2|0:2,0:0:0:0:
251,346,96392,6,0,B|212:328|212:328|144:350,2,90.7500027694703,8|0|0,0:2|0:2|0:2,0:0:0:0:
219,229,97329,2,0,B|182:203|182:203|173:154,1,90.7500027694703,0|0,0:2|0:2,0:0:0:0:
156,68,97892,1,8,0:2:0:0:
88,128,98173,2,0,B|50:153|50:153|5:146,1,90.7500027694703,0|0,0:2|0:2,0:0:0:0:
104,227,98829,1,2,0:2:0:0:
104,227,99017,6,0,L|155:281,1,60.5000018463135,0|2,1:2|0:2,0:0:0:0:
204,255,99392,2,0,L|255:309,1,60.5000018463135,8|2,0:2|0:2,0:0:0:0:
287,342,99767,1,0,1:2:0:0:
407,336,100142,5,8,0:2:0:0:
407,336,100329,1,0,0:2:0:0:
407,336,100517,2,0,B|426:277|426:277|488:242,1,121.000003692627,0|8,1:2|0:2,0:0:0:0:
428,142,101267,2,0,B|372:170|372:170|304:151,1,121.000003692627,0|8,1:2|0:0,0:0:0:0:
196,97,102017,5,4,1:2:0:0:
196,97,102204,2,0,L|126:67,2,65.9999979858399,2|8|2,0:2|0:2|0:2,0:0:0:0:
204,162,102767,1,2,1:2:0:0:
83,215,103142,1,8,0:2:0:0:
83,215,103329,1,2,0:2:0:0:
83,215,103517,2,0,B|126:237|126:237|161:339,1,131.99999597168,2|8,1:2|0:2,0:0:0:0:
175,378,104079,2,0,L|269:369,1,65.9999979858399,2|2,0:2|1:2,0:0:0:0:
372,358,104642,1,10,0:2:0:0:
476,276,105017,5,4,1:2:0:0:
476,276,105204,1,2,0:2:0:0:
476,276,105392,2,0,B|516:337,2,65.9999979858399,8|2|2,0:2|0:2|1:2,0:0:0:0:
357,218,106142,1,8,0:2:0:0:
357,218,106329,1,2,0:2:0:0:
357,218,106517,2,0,B|387:172|387:172|342:96,1,131.99999597168,2|8,1:2|0:2,0:0:0:0:
312,49,107079,2,0,L|222:71,1,65.9999979858399,2|2,0:2|1:2,0:0:0:0:
118,94,107642,1,10,1:2:0:0:
78,219,108017,6,0,P|43:222|-4:245,2,65.9999979858399,4|2|8,1:2|0:2|0:2,0:0:0:0:
111,276,108579,2,0,P|151:271|201:245,1,65.9999979858399,2|2,0:2|1:2,0:0:0:0:
246,153,109142,1,8,0:2:0:0:
246,153,109329,1,2,0:2:0:0:
246,153,109517,2,0,L|294:220,1,65.9999979858399,2|0,1:2|0:2,0:0:0:0:
328,255,109892,1,8,0:2:0:0:
328,255,110079,1,2,0:2:0:0:
328,255,110267,2,0,B|346:190|346:190|410:131,1,131.99999597168,2|10,1:2|0:2,0:0:0:0:
505,71,111017,5,4,1:2:0:0:
505,71,111204,1,2,0:2:0:0:
505,71,111392,2,0,L|514:148,2,65.9999979858399,8|2|2,0:2|0:2|1:2,0:0:0:0:
382,60,112142,1,8,0:2:0:0:
382,60,112329,1,2,0:2:0:0:
382,60,112517,2,0,L|308:28,1,65.9999979858399,2|0,1:2|0:2,0:0:0:0:
286,90,112892,2,0,B|220:101|220:101|138:63,1,131.99999597168,8|2,0:2|1:2,0:0:0:0:
41,17,113642,1,10,0:2:0:0:
5,149,114017,5,4,1:2:0:0:
5,149,114204,1,0,3:2:0:0:
5,149,114392,2,0,L|22:239,1,65.9999979858399,8|0,3:2|0:0,0:0:0:0:
29,278,114767,1,0,1:2:0:0:
138,204,115142,1,8,3:2:0:0:
138,204,115329,1,0,3:2:0:0:
138,204,115517,1,0,0:0:0:0:
164,333,115892,1,8,3:2:0:0:
164,333,116079,1,0,0:0:0:0:
164,333,116267,2,0,L|303:341,1,131.99999597168,0|8,1:2|3:2,0:0:0:0:
427,348,117017,6,0,L|407:282,1,65.9999979858399,4|0,1:2|3:2,0:0:0:0:
388,221,117392,2,0,L|479:224,2,65.9999979858399,8|0|0,3:2|0:0|1:2,0:0:0:0:
256,216,118142,1,8,3:2:0:0:
256,216,118329,1,0,3:2:0:0:
256,216,118517,2,0,B|177:211|177:211|127:158,1,131.99999597168,0|8,0:0|3:2,0:0:0:0:
169,112,119079,2,0,L|92:70,1,65.9999979858399,0|0,0:0|1:2,0:0:0:0:
1,6,119642,1,8,3:2:0:0:
3,137,120017,5,4,1:2:0:0:
3,137,120204,1,0,3:2:0:0:
3,137,120392,2,0,L|12:219,1,65.9999979858399,8|0,3:2|0:0,0:0:0:0:
16,268,120767,1,0,1:2:0:0:
116,353,121142,2,0,P|66:363|32:389,2,65.9999979858399,8|0|0,3:2|3:2|1:2,0:0:0:0:
248,350,121892,1,8,3:2:0:0:
248,350,122079,1,0,0:0:0:0:
248,350,122267,2,0,P|305:351|385:314,1,131.99999597168,0|8,1:2|3:2,0:0:0:0:
497,367,123017,6,0,L|481:293,1,65.9999979858399,4|0,1:2|3:2,0:0:0:0:
511,242,123392,2,0,L|493:164,1,65.9999979858399,8|0,3:2|0:0,0:0:0:0:
480,113,123767,1,0,1:2:0:0:
368,65,124142,5,8,3:2:0:0:
368,65,124329,1,0,3:2:0:0:
368,65,124517,2,0,P|297:89|223:83,1,131.99999597168,0|8,0:0|3:2,0:0:0:0:
184,63,125079,1,0,0:0:0:0:
184,63,125267,2,0,L|131:124,2,65.9999979858399,0|2|0,1:2|3:3|0:0,0:0:0:0:
265,181,126017,5,4,1:2:0:0:
265,181,126204,1,0,3:2:0:0:
265,181,126392,2,0,L|337:168,2,65.9999979858399,8|0|0,3:2|3:2|1:2,0:0:0:0:
187,289,127142,1,8,0:2:0:0:
187,289,127329,1,2,0:2:0:0:
187,289,127517,2,0,P|137:274|101:280,1,65.9999979858399,2|0,1:2|0:0,0:0:0:0:
58,286,127892,2,0,P|75:312|83:356,2,65.9999979858399,8|2|2,0:2|0:2|1:2,0:0:0:0:
35,153,128642,1,8,0:2:0:0:
107,42,129017,6,0,L|193:47,1,65.9999979858399,4|0,1:2|3:2,0:0:0:0:
192,109,129392,2,0,L|255:135,1,65.9999979858399,8|0,2:2|3:2,0:0:0:0:
288,191,129767,1,0,1:2:0:0:
333,315,130142,5,8,0:2:0:0:
333,315,130329,1,2,0:2:0:0:
333,315,130517,2,0,P|380:296|401:266,1,65.9999979858399,2|0,1:2|0:0,0:0:0:0:
450,259,130892,2,0,L|441:354,2,65.9999979858399,8|2|2,0:2|0:2|1:2,0:0:0:0:
459,127,131642,1,8,0:2:0:0:
341,67,132017,6,0,P|372:42|386:16,2,65.9999979858399,4|0|8,1:2|3:2|3:2,0:0:0:0:
285,101,132579,1,0,3:2:0:0:
285,101,132767,1,2,1:2:0:0:
162,51,133142,1,8,0:2:0:0:
162,51,133329,1,2,0:2:0:0:
162,51,133517,2,0,B|172:93|172:93|103:181,1,131.99999597168,2|8,1:2|0:2,0:0:0:0:
81,218,134079,1,2,0:2:0:0:
81,218,134267,2,0,P|116:243|134:334,1,131.99999597168,2|8,1:2|0:2,0:0:0:0:
267,336,135017,6,0,L|322:271,1,65.9999979858399,4|0,1:2|3:2,0:0:0:0:
371,309,135392,2,0,L|390:220,1,65.9999979858399,8|0,3:2|3:2,0:0:0:0:
396,179,135767,1,0,1:2:0:0:
470,70,136142,5,8,0:2:0:0:
470,70,136329,1,2,0:2:0:0:
470,70,136517,2,0,B|422:86|422:86|321:57,1,131.99999597168,2|8,1:2|0:2,0:0:0:0:
279,46,137079,1,2,0:2:0:0:
279,46,137267,2,0,L|295:126,2,65.9999979858399,2|4|8,0:2|0:0|0:3,0:0:0:0:
155,93,138017,5,4,1:2:0:0:
155,93,138204,2,0,P|143:57|106:15,2,65.9999979858399,2|8|2,0:2|0:2|0:2,0:0:0:0:
155,159,138767,2,0,P|130:193|87:219,1,65.9999979858399,2|0,1:2|0:2,0:0:0:0:
45,215,139142,6,0,L|64:295,1,65.9999979858399,8|0,1:2|1:0,0:0:0:0:
77,342,139517,1,2,1:2:0:0:
205,309,139892,1,8,0:2:0:0:
327,359,140267,1,2,1:2:0:0:
448,306,140642,6,0,P|413:266|412:225,1,65.9999979858399,10|0,1:0|0:2,0:0:0:0:
447,199,141017,2,0,B|386:169|386:169|359:95,1,131.99999597168,6|8,1:0|0:2,0:0:0:0:
273,12,141767,2,0,B|243:73|243:73|169:100,1,131.99999597168,2|8,1:0|0:2,0:0:0:0:
80,178,142517,2,0,B|141:208|141:208|168:282,1,131.99999597168,2|8,1:0|0:2,0:0:0:0:
256,362,143267,2,0,B|286:301|286:301|360:274,1,131.99999597168,2|8,1:0|0:2,0:0:0:0:
476,299,144017,6,0,B|509:247|509:247|480:192|480:192|413:192|413:192|383:132|383:132|436:74,1,329.9999899292,6|0,1:1|0:2,0:0:0:0:
470,25,145142,2,0,L|402:25,1,65.9999979858399,10|2,1:1|0:2,0:0:0:0:
337,25,145517,2,0,B|254:25|254:25|195:84|195:84|97:84,1,263.99999194336,2|2,1:1|1:1,0:0:0:0:
7,180,146642,2,0,P|38:194|59:228,1,65.9999979858399,10|2,1:1|1:1,0:0:0:0:
86,278,147017,1,6,1:1:0:0:
86,278,147204,1,2,0:2:0:0:
86,278,147392,2,0,P|114:298|162:306,2,65.9999979858399,8|2|2,0:2|0:2|1:2,0:0:0:0:
181,186,148142,5,10,0:2:0:0:
181,186,148329,1,2,0:2:0:0:
181,186,148517,1,2,1:2:0:0:
298,246,148892,1,10,0:2:0:0:
298,246,149079,1,2,0:2:0:0:
298,246,149267,2,0,L|324:321,1,65.9999979858399,2|0,1:2|0:2,0:0:0:0:
339,371,149642,1,10,0:2:0:0:
219,353,150017,6,0,L|88:324,1,121.000003692627,6|8,1:1|1:2,0:0:0:0:
81,207,150767,2,0,L|199:233,1,121.000003692627,2|8,1:1|1:2,0:0:0:0:
318,212,151517,6,0,B|274:174|274:174|291:94,1,121.000003692627,2|0,1:0|0:0,0:0:0:0:
318,60,152079,2,0,L|368:122,1,60.5000018463135,2|0,3:2|0:0,0:0:0:0:
434,199,152642,1,10,3:2:0:0:
438,318,153017,6,0,P|391:340|355:340,1,60.5000018463135,6|0,1:1|0:2,0:0:0:0:
327,316,153392,2,0,P|280:322|247:343,1,60.5000018463135,10|0,1:0|0:2,0:0:0:0:
216,358,153767,1,2,1:0:0:0:
100,322,154142,1,10,1:0:0:0:
184,235,154517,2,0,B|219:204|264:200|264:200|257:129|257:129|302:126|345:90,1,242.000007385254,2|2,1:0|1:0,0:0:0:0:
434,35,155642,2,0,P|451:63|458:90,1,60.5000018463135,8|2,1:0|1:0,0:0:0:0:
473,148,156017,5,4,1:2:0:0:
473,148,156204,1,2,0:2:0:0:
473,148,156392,2,0,L|473:221,2,60.5000018463135,0|2|2,0:2|0:2|1:2,0:0:0:0:
359,191,157142,1,2,1:2:0:0:
400,304,157517,2,0,B|344:315|311:286|282:257|208:275,1,181.500005538941,6|2,1:2|1:1,0:0:0:0:
44,296,158642,6,0,L|71:242,1,60.5000018463135,2|2,1:1|0:2,0:0:0:0:
100,188,159017,1,6,1:1:0:0:
100,188,159204,1,0,0:2:0:0:
100,188,159392,2,0,L|29:188,2,60.5000018463135,0|0|4,0:2|0:2|1:2,0:0:0:0:
221,193,160142,5,0,0:2:0:0:
221,193,160329,1,0,0:2:0:0:
221,193,160517,2,0,L|296:193,1,60.5000018463135,4|0,1:2|0:2,0:0:0:0:
341,199,160892,1,4,1:2:0:0:
341,199,161079,1,0,0:2:0:0:
341,199,161267,1,4,1:2:0:0:
462,193,161642,5,4,1:2:0:0:
462,193,161829,1,4,1:2:0:0:
256,192,162017,12,0,163892,0:2:0:0:
