osu file format v14

[General]
AudioFilename: audio.mp3
AudioLeadIn: 0
PreviewTime: 53267
Countdown: 0
SampleSet: Drum
StackLeniency: 0.7
Mode: 0
LetterboxInBreaks: 0
WidescreenStoryboard: 1

[Editor]
Bookmarks: 54017,78017,102017,114017,126017,138017,150017,162017
DistanceSpacing: 1.8
BeatDivisor: 4
GridSize: 8
TimelineZoom: 1.9

[Metadata]
Title:Labyrinth -Black Trance Mix- v2.0
TitleUnicode:Labyrinth -Black Trance Mix- v2.0
Artist:Lix
ArtistUnicode:Lix
Creator:Matrix
Version:LMT's Hard
Source:Ragnarök Online
Tags:reflex levo lution instrumental electronic trance mithew lmt rrtyui ラグナロクオンライン video game
BeatmapID:2337532
BeatmapSetID:1075788

[Difficulty]
HPDrainRate:5
CircleSize:4
OverallDifficulty:6
ApproachRate:7
SliderMultiplier:1.4
SliderTickRate:1

[Events]
//Background and Video events
0,0,"amazing-dark-background-1.jpg",0,0
//Break Periods
//Storyboard Layer 0 (Background)
//Storyboard Layer 1 (Fail)
//Storyboard Layer 2 (Pass)
//Storyboard Layer 3 (Foreground)
//Storyboard Layer 4 (Overlay)
//Storyboard Sound Samples

[TimingPoints]
1517,375,4,1,1,48,1,0
54017,-100,4,1,1,80,0,0
54392,-100,4,1,1,70,0,0
54767,-100,4,1,1,60,0,0
55142,-100,4,1,1,50,0,0
55517,-100,4,1,1,48,0,0
78017,-100,4,3,1,65,0,0
81017,-100,4,3,1,48,0,0
84017,-100,4,3,1,65,0,0
87017,-100,4,3,1,48,0,0
90017,-100,4,3,1,65,0,0
93017,-100,4,3,1,48,0,0
96017,-100,4,3,1,65,0,0
99017,-100,4,3,1,70,0,0
100517,-100,4,3,1,75,0,0
102017,-100,4,2,1,80,0,0
125454,-100,4,2,1,80,0,0
125829,-100,4,2,1,80,0,0
126017,-100,4,3,1,80,0,1
137454,-100,4,3,1,80,0,1
137642,-100,4,3,1,80,0,1
138017,-100,4,2,1,80,0,0
150017,-100,4,2,1,80,0,0
156017,-100,4,3,1,80,0,0
156204,-100,4,3,1,50,0,0
156767,-100,4,3,1,50,0,0
156954,-100,4,3,1,50,0,0
157517,-100,4,3,1,80,0,0
158079,-100,4,3,1,60,0,0
159767,-100,4,3,1,70,0,0
160517,-100,4,3,1,80,0,0
161267,-100,4,3,1,85,0,0
162017,-100,4,3,1,90,0,0
163798,-100,4,3,1,5,0,0

[Colours]
Combo1 : 0,121,210
Combo2 : 128,128,255
Combo3 : 124,0,249
Combo4 : 0,128,128

[HitObjects]
135,138,54017,5,4,0:2:0:0:
175,248,54392,1,8,0:2:0:0:
286,211,54767,1,0,0:2:0:0:
399,174,55142,1,8,0:2:0:0:
332,297,55517,5,0,0:2:0:0:
286,203,55892,1,8,0:2:0:0:
238,103,56267,1,0,0:2:0:0:
304,25,56642,1,8,0:2:0:0:
471,67,57017,5,0,1:2:0:0:
448,105,57204,1,2,2:2:0:0:
438,149,57392,1,8,2:2:0:0:
440,197,57579,1,2,2:2:0:0:
459,245,57767,1,0,1:2:0:0:
312,264,58142,5,8,2:2:0:0:
352,288,58329,1,0,2:2:0:0:
376,330,58517,1,0,1:2:0:0:
208,230,58892,5,8,2:2:0:0:
169,253,59079,1,0,2:2:0:0:
121,255,59267,1,0,1:2:0:0:
281,155,59642,5,8,2:2:0:0:
220,110,59829,1,2,2:2:0:0:
192,40,60017,1,4,0:2:0:0:
88,28,60392,5,8,0:2:0:0:
24,112,60767,1,0,0:2:0:0:
79,209,61142,1,8,0:2:0:0:
253,309,61517,5,0,0:2:0:0:
358,304,61892,1,8,0:2:0:0:
427,230,62267,1,0,0:2:0:0:
394,134,62642,1,8,0:2:0:0:
284,53,63017,5,0,1:2:0:0:
260,94,63204,1,2,2:2:0:0:
249,136,63392,1,8,2:2:0:0:
247,185,63579,1,2,2:2:0:0:
258,233,63767,1,0,1:2:0:0:
133,292,64142,5,8,2:2:0:0:
97,259,64329,1,0,2:2:0:0:
49,246,64517,1,0,1:2:0:0:
254,321,64892,5,8,2:2:0:0:
294,352,65079,1,0,2:2:0:0:
345,355,65267,1,0,1:2:0:0:
410,197,65642,5,8,2:2:0:0:
435,270,65829,1,2,2:2:0:0:
456,344,66017,1,4,0:2:0:0:
502,203,66392,5,8,0:2:0:0:
442,74,66767,1,0,0:2:0:0:
297,51,67142,1,8,0:2:0:0:
83,154,67517,5,0,0:2:0:0:
168,237,67892,1,8,0:2:0:0:
285,232,68267,1,0,0:2:0:0:
356,140,68642,1,8,0:2:0:0:
205,30,69017,5,0,1:2:0:0:
167,61,69204,1,2,2:2:0:0:
187,112,69392,1,8,2:2:0:0:
236,109,69579,1,2,2:2:0:0:
251,57,69767,1,0,1:2:0:0:
408,28,70142,5,8,2:2:0:0:
376,65,70329,1,0,2:2:0:0:
424,76,70517,1,0,1:2:0:0:
488,204,70892,5,8,2:2:0:0:
443,184,71079,1,0,2:2:0:0:
443,231,71267,1,0,1:2:0:0:
448,350,71642,5,8,2:2:0:0:
379,325,71829,1,2,2:2:0:0:
309,302,72017,1,4,0:2:0:0:
186,350,72392,5,8,0:2:0:0:
69,299,72767,1,0,0:2:0:0:
56,180,73142,1,8,0:2:0:0:
225,49,73517,5,0,0:2:0:0:
285,154,73892,1,8,0:2:0:0:
407,169,74267,1,0,0:2:0:0:
476,76,74642,1,8,0:2:0:0:
498,345,75017,5,0,1:2:0:0:
452,366,75204,1,2,2:2:0:0:
405,344,75392,1,8,2:2:0:0:
399,297,75579,1,2,2:2:0:0:
431,260,75767,1,0,1:2:0:0:
305,245,76142,5,8,2:2:0:0:
317,211,76329,1,0,2:2:0:0:
329,175,76517,1,0,1:2:0:0:
236,307,76892,5,8,2:2:0:0:
218,273,77079,1,0,2:2:0:0:
200,239,77267,6,0,L|219:152,1,70,6|0,1:2|2:2,0:0:0:0:
208,161,77548,2,0,L|231:43,1,105,2|2,2:2|2:2,0:0:0:0:
235,61,77923,1,2,2:2:0:0:
241,65,78017,1,4,1:2:0:0:
351,15,78392,6,0,L|363:138,1,105,8|2,3:2|3:2,0:0:0:0:
372,221,78954,2,0,L|392:377,1,140,2|2,3:2|3:2,0:0:0:0:
318,373,79517,1,4,0:0:0:0:
176,292,79892,6,0,L|130:134,1,140,8|2,3:2|0:2,0:0:0:0:
172,89,80454,2,0,B|201:108|201:108|240:224,1,140,2|2,3:2|3:2,0:0:0:0:
240,217,80923,1,2,3:2:0:0:
245,225,81017,1,0,1:2:0:0:
321,112,81392,5,8,2:2:0:0:
390,139,81579,1,2,2:2:0:0:
454,106,81767,1,0,1:2:0:0:
493,228,82142,5,8,2:2:0:0:
428,263,82329,1,0,2:2:0:0:
394,332,82517,1,0,1:2:0:0:
278,325,82892,5,8,2:2:0:0:
248,260,83079,1,0,2:2:0:0:
178,240,83267,2,0,L|102:271,1,70,2|0,1:2|2:2,0:0:0:0:
105,271,83548,2,0,B|67:199|67:199|78:147,1,105,2|2,3:2|2:2,0:0:0:0:
74,169,83923,1,2,2:2:0:0:
76,163,84017,1,4,1:2:0:0:
150,64,84392,5,8,3:2:0:0:
262,54,84673,1,2,3:2:0:0:
340,130,84954,2,0,B|361:152|361:152|341:266,1,140,2|2,3:2|3:2,0:0:0:0:
268,249,85517,1,4,0:0:0:0:
108,314,85892,6,0,B|186:355|186:355|253:333,1,140,8|0,3:2|1:2,0:0:0:0:
245,334,86360,1,2,2:2:0:0:
256,330,86454,1,2,3:2:0:0:
266,326,86548,1,2,3:2:0:0:
276,322,86642,1,8,2:2:0:0:
370,353,86829,1,2,3:2:0:0:
379,348,86923,1,2,3:2:0:0:
388,344,87017,1,0,1:2:0:0:
472,257,87392,5,8,2:2:0:0:
401,236,87579,1,2,2:2:0:0:
455,183,87767,1,0,1:2:0:0:
343,60,88142,5,8,2:2:0:0:
331,131,88329,1,0,2:2:0:0:
271,84,88517,1,0,1:2:0:0:
203,167,88892,5,8,2:2:0:0:
247,228,89079,1,0,2:2:0:0:
174,238,89267,2,0,L|162:324,1,70,2|0,3:2|0:0,0:0:0:0:
158,315,89548,2,0,L|47:329,1,105,2|2,3:2|2:2,0:0:0:0:
48,330,89923,1,2,2:2:0:0:
42,332,90017,1,4,1:2:0:0:
9,171,90392,5,8,0:2:0:0:
84,96,90673,1,2,0:2:0:0:
191,75,90954,2,0,B|242:111|242:111|333:95,1,140,2|2,0:2|0:2,0:0:0:0:
389,77,91517,1,4,0:0:0:0:
497,198,91892,5,10,0:2:0:0:
428,281,92173,1,2,0:2:0:0:
321,296,92454,1,2,0:2:0:0:
155,311,92829,5,2,0:2:0:0:
149,317,92923,1,2,0:2:0:0:
143,322,93017,1,0,1:2:0:0:
76,152,93392,5,8,2:2:0:0:
144,123,93579,1,2,2:2:0:0:
212,94,93767,2,0,L|292:126,1,70,0|0,1:2|2:2,0:0:0:0:
365,170,94142,5,8,2:2:0:0:
431,203,94329,1,0,2:2:0:0:
495,163,94517,2,0,L|508:87,1,70,0|2,1:2|2:2,0:0:0:0:
364,181,94892,5,8,2:2:0:0:
296,210,95079,1,0,2:2:0:0:
229,243,95267,2,0,L|142:220,1,70,2|0,1:2|0:0,0:0:0:0:
158,218,95548,2,0,L|129:98,1,105,2|2,3:2|2:2,0:0:0:0:
131,108,95923,1,2,2:2:0:0:
128,100,96017,1,4,1:2:0:0:
42,202,96392,5,8,0:2:0:0:
86,317,96673,1,2,0:2:0:0:
208,353,96954,2,0,B|253:363|253:363|343:304,1,140,2|2,0:2|0:2,0:0:0:0:
368,249,97517,1,0,0:0:0:0:
472,105,97892,6,0,B|365:76|365:76|307:91,1,140,8|2,0:2|0:2,0:0:0:0:
283,135,98454,2,0,L|127:92,1,140,2|2,0:2|0:2,0:0:0:0:
146,91,98923,1,2,0:2:0:0:
142,84,99017,1,0,1:2:0:0:
36,169,99392,5,8,0:2:0:0:
106,196,99579,1,2,0:2:0:0:
176,219,99767,2,0,L|185:263,2,35,0|0|0,1:2|0:2|0:2,0:0:0:0:
205,326,100142,5,8,0:2:0:0:
278,309,100329,1,0,0:2:0:0:
349,288,100517,2,0,L|355:251,2,35,0|0|0,1:2|0:2|0:2,0:0:0:0:
335,182,100892,5,8,0:2:0:0:
407,161,101079,1,0,0:2:0:0:
480,139,101267,1,0,1:2:0:0:
481,133,101360,1,0,0:2:0:0:
483,127,101454,2,0,B|494:76|494:76|479:36,1,70,4|8,0:2|0:0,0:0:0:0:
255,35,102017,5,4,1:2:0:0:
252,43,102110,1,0,1:3:0:0:
207,138,102392,1,8,0:2:0:0:
247,237,102673,1,2,0:3:0:0:
347,273,102954,2,0,B|430:261|430:261|477:203,1,140,2|2,0:3|0:2,0:0:0:0:
335,167,103517,5,2,1:2:0:0:
340,161,103610,1,0,1:3:0:0:
243,224,103892,1,8,0:2:0:0:
208,330,104173,1,2,0:3:0:0:
97,351,104454,2,0,B|61:336|61:336|30:218,1,140,2|2,0:3|0:2,0:0:0:0:
125,181,105017,5,4,1:2:0:0:
131,192,105110,1,0,1:3:0:0:
43,122,105392,1,8,0:2:0:0:
82,34,105673,1,2,0:3:0:0:
183,34,105954,2,0,B|222:47|222:47|326:18,1,140,2|2,0:3|0:2,0:0:0:0:
334,199,106517,5,2,1:2:0:0:
323,193,106610,1,0,1:3:0:0:
391,273,106892,1,8,0:2:0:0:
492,232,107173,1,2,0:3:0:0:
479,134,107454,2,0,B|446:104|446:104|342:96,1,140,2|2,0:3|0:3,0:0:0:0:
245,116,108017,5,4,1:2:0:0:
255,108,108110,1,0,1:3:0:0:
146,62,108392,1,8,0:2:0:0:
35,101,108673,1,2,0:3:0:0:
23,199,108954,2,0,B|75:216|75:216|165:182,1,140,2|2,0:3|0:2,0:0:0:0:
188,262,109517,5,2,1:2:0:0:
193,274,109610,1,0,1:3:0:0:
297,246,109892,1,8,0:2:0:0:
399,217,110173,1,2,0:3:0:0:
491,274,110454,2,0,B|458:368|458:368|401:379,1,140,0|2,0:2|0:2,0:0:0:0:
316,358,111017,5,4,1:2:0:0:
313,348,111110,1,0,1:0:0:0:
311,339,111204,1,0,1:2:0:0:
240,308,111392,1,8,0:2:0:0:
138,292,111673,1,2,0:3:0:0:
35,274,111954,2,0,L|14:120,1,140,2|2,0:3|0:2,0:0:0:0:
133,26,112517,5,2,1:2:0:0:
136,36,112610,1,0,1:0:0:0:
138,45,112704,1,0,1:2:0:0:
209,76,112892,1,8,0:2:0:0:
311,92,113173,1,2,0:3:0:0:
416,106,113454,2,0,L|437:260,1,140,2|2,0:3|0:2,0:0:0:0:
395,347,114017,5,4,1:2:0:0:
391,338,114110,1,0,1:2:0:0:
280,354,114392,1,8,3:2:0:0:
216,261,114673,1,0,3:2:0:0:
220,254,114767,1,0,1:2:0:0:
223,248,114860,1,0,3:0:0:0:
227,241,114954,2,0,B|284:156|284:156|271:97,1,140,0|0,3:2|3:2,0:0:0:0:
236,46,115517,5,0,0:0:0:0:
232,55,115610,1,0,1:2:0:0:
121,45,115892,1,8,3:2:0:0:
63,134,116173,1,0,3:2:0:0:
60,141,116267,1,0,1:2:0:0:
56,147,116360,1,0,3:0:0:0:
54,154,116454,2,0,B|84:200|84:200|111:307,1,140,0|0,3:2|3:2,0:0:0:0:
203,322,117017,5,4,1:2:0:0:
203,332,117110,1,0,1:2:0:0:
300,267,117392,1,8,3:2:0:0:
417,311,117673,1,0,3:2:0:0:
417,300,117767,1,0,1:2:0:0:
419,289,117860,1,0,3:0:0:0:
419,278,117954,2,0,L|400:125,1,140,0|0,3:2|3:2,0:0:0:0:
334,85,118517,5,0,0:0:0:0:
329,95,118610,1,0,1:2:0:0:
223,71,118892,1,8,3:2:0:0:
135,129,119173,1,0,3:2:0:0:
141,137,119267,1,0,1:2:0:0:
147,143,119360,1,0,3:0:0:0:
153,149,119454,2,0,B|130:262|130:262|94:277,1,140,0|0,3:2|3:2,0:0:0:0:
169,329,120017,5,4,1:2:0:0:
173,337,120110,1,0,1:0:0:0:
280,307,120392,1,8,3:2:0:0:
377,355,120673,1,0,3:2:0:0:
379,345,120767,1,0,1:2:0:0:
381,337,120860,1,0,3:0:0:0:
384,329,120954,1,0,3:2:0:0:
372,135,121329,1,0,3:2:0:0:
441,170,121517,5,0,0:2:0:0:
436,177,121610,1,0,1:2:0:0:
326,204,121892,1,8,3:2:0:0:
242,134,122173,1,0,3:2:0:0:
236,141,122267,1,0,1:2:0:0:
231,147,122360,1,0,3:0:0:0:
226,153,122454,1,0,3:2:0:0:
73,334,122829,1,0,3:2:0:0:
33,266,123017,5,4,1:2:0:0:
39,261,123110,1,0,1:2:0:0:
44,257,123204,1,0,1:2:0:0:
119,272,123392,1,8,3:2:0:0:
225,356,123673,1,0,3:2:0:0:
234,358,123767,1,0,1:2:0:0:
243,360,123860,1,0,3:0:0:0:
250,362,123954,1,0,3:2:0:0:
476,263,124329,1,0,3:2:0:0:
497,179,124517,5,4,1:2:0:0:
500,186,124610,1,0,1:2:0:0:
504,194,124704,1,0,1:2:0:0:
431,195,124892,1,8,3:2:0:0:
318,202,125173,1,0,3:2:0:0:
316,208,125267,1,0,1:2:0:0:
314,214,125360,1,0,3:0:0:0:
313,220,125454,2,0,L|294:123,1,70,2|0,3:3|0:0,0:0:0:0:
26,160,126017,6,0,L|17:101,2,35,4|2|0,1:2|2:2|3:2,0:0:0:0:
35,231,126392,1,8,3:2:0:0:
107,244,126579,1,0,3:2:0:0:
181,254,126767,1,0,1:2:0:0:
273,344,127142,5,8,0:2:0:0:
346,355,127329,1,2,0:2:0:0:
419,368,127517,1,2,1:2:0:0:
423,359,127610,1,0,0:2:0:0:
466,257,127892,5,8,0:2:0:0:
390,262,128079,1,2,0:2:0:0:
316,268,128267,1,2,1:2:0:0:
313,261,128360,1,0,0:2:0:0:
183,220,128642,5,8,0:2:0:0:
255,203,128829,1,2,0:2:0:0:
234,329,129017,6,0,L|225:384,2,35,4|2|0,1:2|2:2|3:2,0:0:0:0:
161,308,129392,1,8,2:2:0:0:
89,295,129579,1,0,3:2:0:0:
16,283,129767,1,0,1:2:0:0:
0,180,130142,5,8,0:2:0:0:
55,132,130329,1,2,0:2:0:0:
120,168,130517,1,2,1:2:0:0:
118,178,130610,1,0,0:2:0:0:
225,134,130892,5,8,0:2:0:0:
258,67,131079,1,2,0:2:0:0:
335,70,131267,1,2,1:2:0:0:
333,78,131360,1,0,0:2:0:0:
439,191,131642,6,0,L|450:140,2,35,8|0|2,0:2|0:0|0:2,0:0:0:0:
371,209,132017,1,4,1:2:0:0:
368,200,132110,1,2,2:2:0:0:
365,190,132204,1,0,3:2:0:0:
297,219,132392,1,8,3:2:0:0:
270,287,132579,1,0,3:2:0:0:
298,357,132767,1,2,1:2:0:0:
158,296,133142,5,8,0:2:0:0:
110,240,133329,1,2,0:2:0:0:
36,239,133517,1,2,1:2:0:0:
37,247,133610,1,0,0:2:0:0:
198,193,133892,5,8,0:2:0:0:
165,130,134079,1,2,0:2:0:0:
100,87,134267,1,2,1:2:0:0:
101,98,134360,1,0,0:2:0:0:
286,112,134642,6,0,L|296:65,2,35,8|0|2,0:2|0:0|0:2,0:0:0:0:
356,139,135017,1,4,1:2:0:0:
355,147,135110,1,2,2:2:0:0:
354,155,135204,1,0,3:2:0:0:
421,190,135392,1,8,3:2:0:0:
486,150,135579,1,0,3:2:0:0:
423,114,135767,1,0,1:2:0:0:
442,338,136142,5,8,0:2:0:0:
503,299,136329,1,2,0:2:0:0:
435,262,136517,1,2,1:2:0:0:
438,267,136610,1,0,0:2:0:0:
286,348,136892,5,8,0:2:0:0:
311,277,137079,1,2,0:2:0:0:
239,279,137267,1,2,0:2:0:0:
240,284,137360,1,0,0:2:0:0:
241,290,137454,2,0,L|232:216,1,70,4|8,0:0|0:3,0:0:0:0:
104,100,138017,6,0,L|193:89,1,70,4|2,1:2|0:2,0:0:0:0:
241,128,138392,2,0,L|339:113,1,70,8|2,0:2|0:2,0:0:0:0:
361,59,138767,1,2,1:2:0:0:
366,66,138860,1,0,0:0:0:0:
435,147,139142,5,8,1:2:0:0:
437,155,139235,1,0,1:0:0:0:
440,163,139329,1,0,1:0:0:0:
443,171,139423,1,0,1:0:0:0:
447,181,139517,2,0,B|361:193|361:193|340:222|340:222|242:236|242:236|209:210|209:210|35:229,1,420,2|10,1:2|1:0,0:0:0:0:
280,95,141017,5,6,1:0:0:0:
216,127,141204,1,0,0:2:0:0:
153,92,141392,1,8,0:2:0:0:
91,56,141579,1,2,0:2:0:0:
27,92,141767,5,2,1:0:0:0:
32,101,141860,1,2,0:3:0:0:
91,186,142142,1,8,0:2:0:0:
40,283,142423,1,2,0:3:0:0:
37,291,142517,1,2,1:0:0:0:
34,300,142610,1,2,0:3:0:0:
119,371,142892,1,8,0:2:0:0:
181,280,143173,1,2,0:3:0:0:
176,271,143267,1,2,1:0:0:0:
172,263,143360,1,2,0:3:0:0:
35,161,143642,2,0,L|21:111,2,35,8|0|2,0:2|0:0|0:2,0:0:0:0:
96,197,144017,6,0,L|184:171,1,70,6|2,1:1|0:2,0:0:0:0:
305,154,144392,2,0,L|214:182,1,70,10|2,0:2|0:2,0:0:0:0:
383,157,144767,1,2,1:2:0:0:
378,167,144860,1,0,0:2:0:0:
283,267,145142,5,10,1:1:0:0:
295,359,145329,1,2,0:2:0:0:
380,328,145517,2,0,B|282:305|282:305|262:312|262:312|99:284,1,280,2|2,1:1|1:1,0:0:0:0:
49,120,146642,2,0,L|127:139,1,70,10|2,1:1|1:1,0:0:0:0:
188,158,147017,5,6,1:1:0:0:
241,105,147204,1,2,0:2:0:0:
310,129,147392,1,8,0:2:0:0:
376,162,147579,1,2,0:2:0:0:
417,99,147767,1,2,1:2:0:0:
412,93,147860,1,0,0:2:0:0:
437,240,148142,5,10,0:2:0:0:
366,269,148329,1,2,0:2:0:0:
300,237,148517,1,2,1:2:0:0:
304,230,148610,1,0,0:0:0:0:
205,302,148892,5,10,0:2:0:0:
137,265,149079,1,2,0:2:0:0:
67,289,149267,1,2,1:2:0:0:
72,297,149360,1,0,0:0:0:0:
1,200,149642,1,10,0:2:0:0:
129,79,150017,5,6,1:1:0:0:
129,71,150110,1,0,1:2:0:0:
130,64,150204,1,2,1:2:0:0:
196,24,150392,2,0,B|211:38|211:38|205:118,1,70,8|2,1:2|1:2,0:0:0:0:
296,150,150767,6,0,L|292:198,2,35,2|0|0,1:1|1:2|1:2,0:0:0:0:
358,100,151142,1,8,1:2:0:0:
366,98,151235,1,0,1:2:0:0:
375,96,151329,1,2,1:2:0:0:
383,94,151423,1,0,1:2:0:0:
392,92,151517,2,0,L|374:379,1,280,2|0,1:0|1:0,0:0:0:0:
217,369,152642,1,10,3:2:0:0:
148,234,153017,6,0,B|126:218|126:218|56:211,1,70,6|0,1:1|0:2,0:0:0:0:
112,138,153392,2,0,L|38:132,1,70,10|0,1:0|0:2,0:0:0:0:
179,67,153767,5,2,1:0:0:0:
183,76,153860,1,2,0:3:0:0:
245,152,154142,2,0,L|323:146,1,70,10|0,1:0|0:2,0:0:0:0:
372,94,154517,5,2,1:0:0:0:
380,88,154610,1,2,0:3:0:0:
466,158,154892,1,8,0:2:0:0:
400,241,155173,1,2,0:3:0:0:
404,249,155267,1,2,1:0:0:0:
408,257,155360,1,2,0:3:0:0:
474,335,155642,2,0,L|467:379,2,35,8|0|2,1:0|0:0|1:0,0:0:0:0:
326,329,156017,6,0,L|332:377,10,35,4|0|2|0|0|0|2|0|2|0|0,1:2|0:0|0:2|0:0|0:2|0:0|0:2|0:0|1:2|0:0|2:0,0:0:0:0:
252,313,157142,1,2,1:2:0:0:
180,300,157329,1,0,0:0:0:0:
113,230,157517,6,0,L|104:176,10,35,6|0|0|0|0|0|2|0|0|0|0,1:2|0:0|0:0|0:0|0:0|0:0|1:1|0:0|0:0|0:0|0:0,0:0:0:0:
187,214,158642,1,2,1:1:0:0:
260,199,158829,1,2,0:2:0:0:
297,128,159017,5,6,1:1:0:0:
372,113,159204,1,0,0:2:0:0:
448,101,159392,2,0,L|453:56,2,35,0|0|0,0:2|0:0|0:2,0:0:0:0:
479,236,159767,5,4,1:2:0:0:
407,218,159954,1,0,0:2:0:0:
334,203,160142,2,0,L|340:257,2,35,0|0|0,0:2|0:0|0:2,0:0:0:0:
321,311,160517,5,4,1:2:0:0:
248,293,160704,1,0,0:2:0:0:
175,276,160892,1,4,1:2:0:0:
173,268,160985,1,0,0:0:0:0:
172,260,161079,1,0,0:2:0:0:
166,191,161267,5,4,1:2:0:0:
79,179,161454,2,0,L|65:84,1,70,4|4,1:2|1:2,0:0:0:0:
260,76,161829,5,4,1:2:0:0:
258,85,161923,1,0,0:0:0:0:
256,93,162017,1,4,1:0:0:0:
