osu file format v14

[General]
AudioFilename: audio.mp3
AudioLeadIn: 0
PreviewTime: 44700
Countdown: 1
SampleSet: Soft
StackLeniency: 1
Mode: 0
LetterboxInBreaks: 0
WidescreenStoryboard: 1

[Editor]
Bookmarks: 111666
DistanceSpacing: 0.8
BeatDivisor: 4
GridSize: 32
TimelineZoom: 1

[Metadata]
Title:Throws
TitleUnicode:Throws
Artist:Living Suitcase
ArtistUnicode:Living Suitcase
Creator:pishifat
Version:Normal
Source:
Tags:kaifin keep going
BeatmapID:1748564
BeatmapSetID:824487

[Difficulty]
HPDrainRate:4
CircleSize:2.5
OverallDifficulty:4
ApproachRate:5
SliderMultiplier:0.9
SliderTickRate:1

[Events]
//Background and Video events
0,0,"water-damage-restoration.jpg",0,0
//Break Periods
2,74709,80736
//Storyboard Layer 0 (Background)
//Storyboard Layer 1 (Fail)
//Storyboard Layer 2 (Pass)
//Storyboard Layer 3 (Foreground)
//Storyboard Sound Samples

[TimingPoints]
282,306.122448979592,3,2,0,30,1,0
2212,306.122448979592,3,2,0,30,1,0
5969,304.568527918782,3,2,0,30,1,0
9723,306.122448979592,3,2,0,30,1,0
10641,309.278350515464,3,2,0,30,1,0
13501,307.692307692308,3,2,0,30,1,0
15347,310.880829015544,3,2,0,30,1,0
17263,310.880829015544,3,2,0,30,1,0
21084,309.278350515464,3,2,0,30,1,0
24888,310.077519379845,3,2,0,30,1,0
28686,307.692307692308,3,2,0,30,1,0
32468,313.31592689295,3,2,0,30,1,0
36292,310.880829015544,3,2,0,30,1,0
38157,307.692307692308,3,2,0,30,1,0
40104,307.692307692308,3,2,0,30,1,0
43850,309.278350515464,3,2,0,30,1,0
44159,-100,3,2,0,30,0,0
44468,-100,3,2,0,30,0,0
44777,-100,3,2,0,30,0,0
45087,-100,3,2,0,30,0,0
45396,-100,3,2,0,30,0,0
45705,300,3,2,0,40,1,0
45705,-100,3,2,0,40,0,0
46605,291.970802919708,3,2,0,30,1,0
47480,304.568527918782,3,2,0,40,1,0
47480,-100,3,2,0,40,0,0
48393,284.36018957346,3,2,0,30,1,0
49246,300,3,2,0,40,1,0
49246,-100,3,2,0,40,0,0
50146,-100,3,2,0,40,0,0
51046,-100,3,2,0,40,0,0
51946,-100,3,2,0,40,0,0
52846,306.122448979592,3,2,0,40,1,0
52846,-100,3,2,0,40,0,0
53764,289.855072463768,3,2,0,30,1,0
54633,300,3,2,0,40,1,0
54633,-100,3,2,0,40,0,0
55533,281.69014084507,3,2,0,30,1,0
56378,306.122448979592,3,2,0,40,1,0
56378,-100,3,2,0,40,0,0
57296,297.029702970297,3,2,0,30,1,0
58187,-100,3,2,0,30,0,0
59078,-100,3,2,0,30,0,0
59969,307.692307692308,3,2,0,40,1,0
59969,-100,3,2,0,40,0,0
61815,300.751879699248,3,2,0,40,1,0
61815,-100,3,2,0,40,0,0
63619,305.343511450382,3,2,0,40,1,0
63924,-100,3,2,0,40,0,0
65451,302.267002518892,3,2,0,40,1,0
65451,-100,3,2,0,40,0,0
68171,304.568527918782,3,2,0,40,1,0
68171,-100,3,2,0,40,0,0
69998,300,3,2,0,40,1,0
69998,-100,3,2,0,40,0,0
73598,303.79746835443,3,2,0,40,1,0
73749,-100,3,2,0,40,0,0
80123,302.267002518892,3,2,0,10,1,0
81936,300,3,2,0,30,1,0
83819,306.122448979592,3,2,0,30,1,0
84737,308.483290488432,3,2,0,30,1,0
87549,300,3,2,0,30,1,0
88449,310.880829015544,3,2,0,25,1,0
89381,306.122448979592,3,2,0,30,1,0
91241,306.122448979592,3,2,0,30,1,0
92159,310.880829015544,3,2,0,30,1,0
94998,312.907431551499,3,2,0,30,1,0
98788,306.122448979592,3,2,0,30,1,0
100624,304.568527918782,3,2,0,30,1,0
102498,304.568527918782,3,2,0,30,1,0
106219,303.79746835443,3,2,0,30,1,0
107130,305.343511450382,3,2,0,30,1,0
109915,304.568527918782,3,2,0,30,1,0
110219,-100,3,2,0,30,0,0
110524,-100,3,2,0,30,0,0
110828,-100,3,2,0,30,0,0
111133,-100,3,2,0,30,0,0
111437,-100,3,2,0,30,0,0
111742,300,3,2,0,40,1,0
111742,-100,3,2,0,40,0,0
112642,284.36018957346,3,2,0,30,1,0
113495,300,3,2,0,40,1,0
113495,-100,3,2,0,40,0,0
114395,284.36018957346,3,2,0,30,1,0
115248,297.029702970297,3,2,0,40,1,0
115248,-100,3,2,0,40,0,0
116139,292.682926829268,3,2,0,30,1,0
117017,309.278350515464,3,2,0,40,1,0
117017,-100,3,2,0,40,0,0
117944,289.855072463768,3,2,0,30,1,0
118813,292.682926829268,3,2,0,40,1,0
118813,-100,3,2,0,40,0,0
119691,303.030303030303,3,2,0,30,1,0
120600,298.507462686567,3,2,0,40,1,0
120600,-100,3,2,0,40,0,0
121495,-100,3,2,0,30,0,0
122391,306.122448979592,3,2,0,40,1,0
122391,-100,3,2,0,40,0,0
123309,291.26213592233,3,2,0,30,1,0
124182,300,3,2,0,40,1,0
124182,-100,3,2,0,40,0,0
125082,310.077519379845,3,2,0,30,1,0
126012,304.568527918782,3,2,0,40,1,0
126012,-100,3,2,0,40,0,0
126925,310.077519379845,3,2,0,40,1,0
126925,-100,3,2,0,40,0,0
127855,306.90537084399,3,2,0,40,1,0
127855,-100,3,2,0,40,0,0
128775,309.278350515464,3,2,0,40,1,0
128775,-100,3,2,0,40,0,0
131558,303.030303030303,3,2,0,40,1,0
131558,-100,3,2,0,40,0,0
132467,306.122448979592,3,2,0,40,1,0
132620,-100,3,2,0,40,0,0
133385,312.5,3,2,0,40,1,0
133697,-100,3,2,0,40,0,0
134322,308.483290488432,3,2,0,40,1,0
134322,-100,3,2,0,40,0,0
136172,303.79746835443,3,2,0,40,1,0
136172,-100,3,2,0,40,0,0
137083,309.278350515464,3,2,0,40,1,0
137392,-100,3,2,0,40,0,0
138938,306.122448979592,3,2,0,40,1,0
138938,-100,3,2,0,40,0,0
143639,310.880829015544,3,2,0,30,1,0

[Colours]
Combo1 : 181,111,168
Combo2 : 247,213,204
Combo3 : 174,240,216
Combo4 : 221,210,208
Combo5 : 157,223,242
Combo6 : 210,66,40
Combo7 : 123,108,191
Combo8 : 253,177,36

[HitObjects]
46,261,282,6,0,L|56:158,2,90,2|0|0,3:0|3:0|3:0,0:0:0:0:
37,359,1200,1,2,3:0:0:0:
194,102,2212,6,0,P|243:107|287:140,1,90,2|0,3:3|3:0,0:0:0:0:
301,171,2671,2,0,L|290:233,1,45,0|0,3:0|0:0,0:0:0:0:
373,273,3130,2,0,P|422:268|466:235,1,90,2|0,3:3|3:0,0:0:0:0:
484,206,3589,2,0,B|475:144,1,45,0|0,3:0|0:0,0:0:0:0:
398,102,4048,6,0,L|386:13,2,90,2|0|0,3:0|3:0|3:0,0:0:0:0:
478,162,4967,1,2,3:0:0:0:
317,379,5969,6,0,P|272:373|228:343,1,90,2|0,3:0|3:0,0:0:0:0:
197,325,6425,2,0,L|140:312,1,45,0|0,3:0|0:0,0:0:0:0:
66,366,6882,2,0,L|42:188,1,180,2|0,3:0|3:0,0:0:0:0:
106,112,7796,70,0,P|91:41|67:17,2,90,2|0|0,3:0|3:0|3:0,0:0:0:0:
43,188,8710,1,2,3:0:0:0:
249,61,9723,6,0,L|348:76,1,90,2|0,3:0|3:0,0:0:0:0:
387,80,10182,2,0,P|420:66|436:46,1,45,0|0,3:0|0:0,0:0:0:0:
443,162,10641,2,0,L|344:177,1,90,2|0,3:0|3:0,0:0:0:0:
306,188,11104,2,0,P|274:210|261:232,1,45,0|0,3:0|0:0,0:0:0:0:
353,274,11568,6,0,P|421:311|435:331,2,90,2|0|0,3:0|3:0|3:0,0:0:0:0:
261,313,12496,1,2,3:0:0:0:
56,222,13501,6,0,L|71:116,1,90,2|0,3:0|3:0,0:0:0:0:
57,84,13962,2,0,P|46:54|47:27,1,45,0|0,3:0|0:0,0:0:0:0:
145,41,14424,2,0,L|340:19,1,180,0|0,3:0|0:0,0:0:0:0:
415,60,15347,70,0,P|436:92|437:153,1,90,2|0,3:0|3:0,0:0:0:0:
418,187,15813,1,0,3:0:0:0:
418,187,15968,2,0,L|518:202,1,90,0|2,3:0|3:0,0:0:0:0:
507,200,17263,5,2,3:0:0:0:
465,289,17573,2,0,P|402:316|370:313,1,90,0|0,3:0|3:0,0:0:0:0:
306,250,18195,2,0,L|297:157,2,90,2|0|0,3:0|3:0|3:0,0:0:0:0:
214,288,19128,6,0,P|152:256|120:258,1,90,2|0,3:0|3:0,0:0:0:0:
86,271,19594,1,0,0:0:0:0:
86,271,19750,2,0,L|75:370,1,90,0|2,3:3|3:0,0:0:0:0:
205,68,21084,5,2,3:0:0:0:
119,126,21393,2,0,L|110:174,2,45,0|0|0,3:0|0:0|3:0,0:0:0:0:
213,166,22011,2,0,L|406:146,1,180,0|0,3:0|3:0,0:0:0:0:
468,82,22939,70,0,P|425:51|373:45,1,90,2|0,3:0|3:0,0:0:0:0:
341,57,23403,1,0,0:0:0:0:
341,57,23558,2,0,L|237:41,1,90,0|2,3:0|3:0,0:0:0:0:
252,43,24888,5,2,3:0:0:0:
183,114,25198,2,0,P|159:75|155:31,1,90,0|0,3:0|3:0,0:0:0:0:
58,11,25818,2,0,P|29:45|16:98,1,90,2|0,3:0|3:0,0:0:0:0:
87,157,26438,1,0,3:0:0:0:
38,243,26748,6,0,L|28:341,1,90,2|0,3:0|3:0,0:0:0:0:
59,371,27213,1,0,0:0:0:0:
59,371,27368,2,0,P|117:355|151:324,1,90,0|2,3:0|3:0,0:0:0:0:
139,337,28686,5,2,3:0:0:0:
227,293,28993,2,0,L|221:241,2,45,0|0|0,3:0|0:0|3:0,0:0:0:0:
319,330,29609,2,0,L|338:151,1,180,0|0,3:0|3:0,0:0:0:0:
433,127,30532,70,0,L|419:30,2,90,0|0|0,1:3|3:0|3:0,0:0:0:0:
445,226,31455,1,0,1:0:0:0:
79,127,32468,6,0,L|93:30,2,90,0|0|0,1:0|3:0|3:0,0:0:0:0:
67,226,33407,1,0,1:0:0:0:
134,298,33721,2,0,P|206:282|234:260,1,90,0|0,3:0|3:0,0:0:0:0:
308,232,34347,6,0,P|352:261|374:307,1,90,2|0,3:0|3:0,0:0:0:0:
378,341,34817,1,0,0:0:0:0:
378,341,34974,2,0,L|475:355,1,90,0|2,3:0|3:0,0:0:0:0:
487,151,36292,6,0,L|382:170,1,90,2|0,3:0|3:0,0:0:0:0:
350,181,36758,1,0,0:0:0:0:
350,181,36913,1,0,3:0:0:0:
276,114,37224,1,0,3:0:0:0:
179,137,37535,2,0,L|172:194,2,45,0|0|0,3:0|3:0|3:0,0:0:0:0:
131,48,38157,70,0,P|84:17|33:13,2,90,0|0|0,1:0|3:0|3:0,0:0:0:0:
179,137,39080,1,0,1:0:0:0:
381,48,40104,6,0,P|428:17|479:13,2,90,0|0|0,1:0|3:0|3:0,0:0:0:0:
333,137,41027,1,0,1:0:0:0:
416,190,41334,2,0,L|425:285,1,90,0|0,3:0|3:0,0:0:0:0:
360,355,41950,6,0,P|297:332|272:308,1,90,2|0,3:0|3:0,0:0:0:0:
253,275,42411,1,0,0:0:0:0:
253,275,42565,2,0,L|158:284,1,90,0|2,3:0|3:0,0:0:0:0:
168,288,43850,6,0,P|155:333|148:386,2,90,2|0|0,3:0|3:0|3:0,0:0:0:0:
136,194,44777,2,0,P|102:226|69:269,2,90,0|0|0,3:0|3:0|3:0,0:0:0:0:
213,127,45705,6,0,B|253:149|253:149|312:140,1,90,0|2,1:3|1:3,0:0:0:0:
345,136,46155,1,0,0:0:0:0:
345,136,46305,1,0,3:0:0:0:
364,38,46605,2,0,P|439:104|426:190,1,180,2|0,0:0|0:0,0:0:0:0:
389,261,47480,6,0,B|349:239|349:239|290:248,1,90,0|2,1:0|1:3,0:0:0:0:
259,260,47936,1,0,0:0:0:0:
259,260,48089,1,0,3:0:0:0:
198,338,48393,2,0,B|85:319|159:282|34:262,1,180,0|0,0:0|0:0,0:0:0:0:
3,169,49246,6,0,B|49:158|49:158|85:115,1,90,0|2,1:0|1:3,0:0:0:0:
110,89,49696,1,0,1:3:0:0:
231,170,50146,2,0,P|306:165|379:75,1,180,2|0,0:0|0:0,0:0:0:0:
454,32,51046,6,0,B|477:70|477:70|466:131,1,90,0|2,1:0|1:3,0:0:0:0:
459,163,51496,1,0,1:3:0:0:
506,302,51946,2,0,P|437:295|338:360,1,180,2|0,0:0|0:0,0:0:0:0:
247,368,52846,70,0,B|202:360|202:360|164:318,1,90,0|2,1:0|1:3,0:0:0:0:
142,287,53305,1,2,3:0:0:0:
142,287,53458,1,0,3:0:0:0:
232,241,53764,2,0,P|250:170|172:94,1,180,2|0,0:0|0:0,0:0:0:0:
93,134,54633,6,0,B|48:128|48:128|16:96,1,90,0|2,1:0|1:3,0:0:0:0:
3,48,55083,1,2,3:0:0:0:
3,48,55233,1,0,3:0:0:0:
102,35,55533,2,0,B|208:14|164:85|283:58,1,180,0|0,0:0|0:0,0:0:0:0:
367,18,56378,6,0,B|409:36|409:36|432:87,1,90,0|2,1:0|1:3,0:0:0:0:
426,125,56837,1,0,1:0:0:0:
286,183,57296,2,0,P|221:218|188:321,1,180,2|0,0:0|0:0,0:0:0:0:
267,371,58187,6,0,B|312:366|312:366|354:319,1,90,0|2,1:0|1:3,0:0:0:0:
367,290,58632,1,0,1:0:0:0:
504,356,59078,2,0,P|516:253|471:185,1,180,2|0,0:0|3:0,0:0:0:0:
390,143,59969,70,0,L|294:160,1,90,0|2,1:0|1:3,0:0:0:0:
252,151,60430,1,0,0:0:0:0:
252,151,60584,1,0,1:3:0:0:
178,217,60892,1,0,1:0:0:0:
101,154,61199,2,0,L|108:99,2,45,2|0|0,1:3|0:0|1:0,0:0:0:0:
31,227,61815,6,0,B|13:268|13:268|28:324,1,90,0|2,1:0|1:3,0:0:0:0:
51,353,62266,1,0,0:0:0:0:
51,353,62416,1,0,1:0:0:0:
140,311,62717,1,0,1:0:0:0:
222,366,63018,2,0,L|315:353,1,90,2|0,1:3|1:0,0:0:0:0:
361,354,63469,1,0,3:0:0:0:
361,354,63619,5,0,1:0:0:0:
431,285,63924,2,0,L|482:294,2,45,2|0|0,3:3|0:0|3:3,0:0:0:0:
345,235,64535,1,0,1:3:0:0:
261,181,64840,2,0,L|210:190,2,45,2|0|0,3:0|0:0|3:3,0:0:0:0:
351,137,65451,6,0,B|371:94|371:94|359:33,1,90,0|2,1:0|3:0,0:0:0:0:
335,11,65904,1,0,0:0:0:0:
335,11,66055,1,0,3:0:0:0:
263,78,66357,2,0,L|166:63,1,90,0|0,1:0|0:0,0:0:0:0:
124,61,66811,2,0,B|104:104|104:104|116:165,1,90,0|2,1:0|3:0,0:0:0:0:
129,192,67264,69,0,1:0:0:0:
65,267,67566,2,0,L|6:257,2,45,0|2|0,3:3|3:0|0:0,0:0:0:0:
141,329,68171,1,0,1:3:0:0:
207,256,68475,2,0,B|253:249|253:249|292:273,1,90,2|0,3:3|3:0,0:0:0:0:
330,300,68932,1,0,3:0:0:0:
330,300,69084,6,0,L|342:199,1,90,0|0,1:0|3:0,0:0:0:0:
315,114,69693,1,0,0:0:0:0:
412,137,69998,2,0,B|457:129|457:129|497:95,1,90,0|2,1:3|3:0,0:0:0:0:
508,54,70448,1,0,0:0:0:0:
508,54,70598,1,0,3:0:0:0:
409,42,70898,5,0,1:0:0:0:
310,30,71198,2,0,L|319:85,2,45,2|0|0,3:0|0:0|3:0,0:0:0:0:
214,55,71798,1,0,1:0:0:0:
118,79,72098,2,0,L|106:20,2,45,2|0|0,0:3|0:0|3:0,0:0:0:0:
56,156,72698,6,0,B|50:202|50:202|74:251,1,90,0|2,1:0|3:3,0:0:0:0:
109,270,73148,1,0,0:0:0:0:
109,270,73298,1,0,3:3:0:0:
191,217,73598,2,0,L|197:164,2,45,0|0|0,1:0|3:3|0:0,0:0:0:0:
219,257,74053,2,0,L|234:345,1,90,0|2,1:0|3:0,0:0:0:0:
195,377,74509,69,2,1:3:0:0:
105,18,81936,54,0,P|168:36|197:60,1,90,2|0,3:0|3:0,0:0:0:0:
214,91,82386,1,0,0:0:0:0:
214,91,82536,2,0,L|202:185,1,90,0|2,3:3|3:0,0:0:0:0:
202,180,83819,5,2,3:0:0:0:
249,275,84125,2,0,P|312:302|344:299,1,90,0|0,3:0|3:0,0:0:0:0:
412,239,84737,2,0,L|510:226,2,90,2|0|0,3:0|3:0|3:0,0:0:0:0:
318,200,85662,6,0,P|294:162|290:117,1,90,2|0,3:0|3:0,0:0:0:0:
307,70,86125,1,0,3:0:0:0:
307,70,86279,2,0,L|208:59,1,90,0|2,0:0|3:0,0:0:0:0:
217,60,87549,5,2,3:0:0:0:
140,122,87849,2,0,L|150:176,2,45,0|0|0,3:0|0:0|3:0,0:0:0:0:
48,93,88449,2,0,L|21:278,1,180,0|0,3:0|0:0,0:0:0:0:
95,339,89381,70,0,P|138:328|173:301,1,90,2|0,3:0|3:0,0:0:0:0:
198,258,89840,1,0,0:0:0:0:
198,258,89993,2,0,L|302:274,1,90,0|2,3:0|3:0,0:0:0:0:
286,271,91241,5,2,3:0:0:0:
261,178,91547,2,0,P|265:133|289:95,1,90,0|0,3:0|3:0,0:0:0:0:
392,87,92159,2,0,P|421:121|434:174,1,90,2|0,3:0|3:0,0:0:0:0:
420,261,92780,1,0,3:0:0:0:
323,283,93091,6,0,L|225:273,1,90,2|0,3:0|3:0,0:0:0:0:
183,270,93557,1,0,3:0:0:0:
183,270,93713,2,0,P|157:307|149:350,1,90,0|2,0:0|3:0,0:0:0:0:
149,350,94998,5,2,3:0:0:0:
59,309,95310,2,0,L|6:314,2,45,0|0|0,3:0|0:0|3:0,0:0:0:0:
144,254,95936,2,0,L|163:75,1,180,0|0,3:0|3:0,0:0:0:0:
261,60,96875,70,0,L|358:46,2,90,0|0|0,1:0|3:0|3:0,0:0:0:0:
164,75,97814,1,0,1:0:0:0:
247,328,98788,6,0,L|150:314,2,90,0|0|0,1:0|3:0|3:0,0:0:0:0:
344,343,99706,1,0,1:0:0:0:
436,307,100012,2,0,P|462:271|474:227,1,90,0|0,3:0|3:0,0:0:0:0:
457,128,100624,6,0,P|433:90|394:67,1,90,2|0,3:0|3:0,0:0:0:0:
346,76,101080,1,0,0:0:0:0:
346,76,101233,2,0,L|256:88,1,90,0|0,3:0|1:0,0:0:0:0:
14,209,102498,6,0,L|102:225,1,90,2|0,3:0|3:0,0:0:0:0:
150,236,102954,1,0,0:0:0:0:
150,236,103107,1,0,3:0:0:0:
208,315,103411,1,0,3:0:0:0:
298,275,103716,2,0,L|309:331,2,45,0|0|0,0:0|3:0|0:0,0:0:0:0:
313,177,104325,70,0,P|360:146|411:142,2,90,0|0|0,1:0|3:0|3:0,0:0:0:0:
391,240,105239,1,0,1:0:0:0:
102,75,106219,6,0,P|145:84|181:111,2,90,0|0|0,1:0|3:0|3:0,0:0:0:0:
102,175,107130,1,0,1:0:0:0:
193,213,107435,2,0,L|202:308,1,90,0|0,3:0|3:0,0:0:0:0:
285,359,108046,6,0,P|348:336|373:312,1,90,2|0,3:0|3:0,0:0:0:0:
385,276,108504,1,0,0:0:0:0:
385,276,108656,2,0,L|394:181,1,90,0|2,3:0|3:0,0:0:0:0:
398,191,109915,6,0,P|443:178|496:171,2,90,2|0|0,3:0|3:0|3:0,0:0:0:0:
304,159,110828,2,0,P|336:125|379:92,2,90,0|0|0,3:0|3:0|3:0,0:0:0:0:
219,213,111742,6,0,B|197:173|197:173|203:129,1,90,0|2,1:0|1:3,0:0:0:0:
214,80,112192,1,0,0:0:0:0:
214,80,112342,1,0,3:0:0:0:
131,16,112642,2,0,P|52:25|-4:108,1,180,2|0,0:0|0:0,0:0:0:0:
49,188,113495,6,0,B|92:196|92:196|122:231,1,90,0|2,1:0|1:3,0:0:0:0:
148,276,113945,1,0,0:0:0:0:
148,276,114095,1,0,3:0:0:0:
152,381,114395,2,0,B|265:362|191:325|316:305,1,180,0|0,0:0|0:0,0:0:0:0:
412,309,115248,6,0,B|444:281|444:281|455:235,1,90,0|2,1:0|1:3,0:0:0:0:
464,186,115693,1,0,1:0:0:0:
314,205,116139,2,0,P|243:152|228:65,1,180,2|0,0:0|0:0,0:0:0:0:
129,25,117017,6,0,B|90:46|90:46|74:89,1,90,0|2,1:0|1:3,0:0:0:0:
66,137,117480,1,0,1:0:0:0:
161,269,117944,2,0,P|222:210|322:208,1,180,2|0,0:0|0:0,0:0:0:0:
416,231,118813,70,0,B|461:223|461:223|499:181,1,90,0|0,1:0|1:3,0:0:0:0:
510,144,119252,1,2,3:0:0:0:
510,144,119398,1,0,3:0:0:0:
405,127,119691,2,0,B|297:115|357:59|249:47,1,180,2|0,0:0|0:0,0:0:0:0:
151,41,120600,6,0,B|115:68|115:68|103:112,1,90,0|2,1:0|1:3,0:0:0:0:
95,160,121047,1,2,3:3:0:0:
95,160,121197,1,0,3:0:0:0:
194,182,121495,2,0,P|262:221|285:328,1,180,0|0,0:0|0:0,0:0:0:0:
193,344,122391,6,0,B|156:316|156:316|100:322,1,90,0|2,1:0|1:3,0:0:0:0:
64,332,122850,1,0,1:0:0:0:
35,180,123309,2,0,P|59:95|133:48,1,180,2|0,0:0|0:0,0:0:0:0:
225,88,124182,6,0,B|254:121|254:121|299:126,1,90,0|2,1:0|1:3,0:0:0:0:
349,129,124632,1,0,1:0:0:0:
432,12,125082,2,0,P|484:80|481:183,1,180,2|0,0:0|3:0,0:0:0:0:
396,219,126012,70,0,L|382:335,1,90,0|2,1:0|1:3,0:0:0:0:
382,359,126468,1,0,0:0:0:0:
382,359,126621,1,0,1:0:0:0:
289,323,126925,1,0,1:0:0:0:
198,287,127235,2,0,L|205:232,2,45,2|0|0,1:3|0:0|1:0,0:0:0:0:
111,334,127855,6,0,B|66:329|66:329|25:288,1,90,0|2,1:0|1:3,0:0:0:0:
12,254,128315,1,0,0:0:0:0:
12,254,128468,1,0,1:0:0:0:
70,176,128775,1,0,1:0:0:0:
31,87,129084,2,0,L|124:74,1,90,2|0,1:3|1:0,0:0:0:0:
165,71,129548,1,0,3:0:0:0:
165,71,129702,5,0,1:0:0:0:
223,148,130012,2,0,L|214:199,2,45,2|0|0,3:0|0:0|3:0,0:0:0:0:
314,115,130630,1,0,1:0:0:0:
406,79,130939,2,0,L|398:26,2,45,2|0|0,3:0|0:0|3:0,0:0:0:0:
477,151,131558,6,0,B|485:192|485:192|465:235,1,90,0|2,1:3|3:0,0:0:0:0:
447,281,132012,1,0,0:0:0:0:
447,281,132164,1,0,3:0:0:0:
366,337,132467,2,0,L|269:322,1,90,0|0,1:0|0:0,0:0:0:0:
228,312,132926,2,0,B|208:269|208:269|216:227,1,90,0|2,1:0|3:0,0:0:0:0:
226,179,133385,69,0,1:0:0:0:
160,104,133697,2,0,L|150:45,2,45,0|2|0,3:0|3:0|0:0,0:0:0:0:
90,176,134322,1,0,1:0:0:0:
15,241,134630,2,0,B|2:349,1,90,2|0,3:3|3:0,0:0:0:0:
33,367,135093,1,0,3:0:0:0:
33,367,135247,6,0,B|72:344|72:344|134:355,1,90,0|0,1:0|3:0,0:0:0:0:
210,369,135864,1,0,0:0:0:0:
309,379,136172,2,0,L|323:247,1,90,0|2,1:0|3:0,0:0:0:0:
326,239,136627,1,0,0:0:0:0:
326,239,136779,1,0,3:0:0:0:
393,168,137083,5,0,1:0:0:0:
468,104,137392,2,0,L|521:94,2,45,2|0|0,3:0|0:0|3:0,0:0:0:0:
375,68,138010,1,0,1:0:0:0:
282,32,138320,2,0,L|220:22,2,45,2|0|0,3:0|0:0|3:0,0:0:0:0:
297,130,138938,6,0,B|268:166|268:166|217:184,1,90,0|2,1:0|3:0,0:0:0:0:
180,196,139397,1,0,0:0:0:0:
180,196,139550,1,0,3:0:0:0:
81,190,139856,2,0,L|75:243,2,45,0|0|0,1:0|3:0|0:0,0:0:0:0:
56,147,140315,2,0,L|41:59,1,90,0|2,1:0|3:0,0:0:0:0:
78,26,140774,69,2,1:3:0:0:
41,59,143949,54,0,L|56:147,1,90,2|0,3:0|0:0,0:0:0:0:
81,190,144416,1,0,3:0:0:0:
81,190,144571,1,2,3:0:0:0:
