osu file format v14

[General]
AudioFilename: audio.mp3
AudioLeadIn: 0
PreviewTime: 44700
Countdown: 1
SampleSet: Soft
StackLeniency: 0.7
Mode: 0
LetterboxInBreaks: 0
WidescreenStoryboard: 0

[Editor]
Bookmarks: 111666
DistanceSpacing: 0.8
BeatDivisor: 4
GridSize: 32
TimelineZoom: 1

[Metadata]
Title:Throws
TitleUnicode:Throws
Artist:Living Suitcase
ArtistUnicode:Living Suitcase
Creator:pishifat
Version:Insane
Source:
Tags:kaifin keep going
BeatmapID:1727756
BeatmapSetID:824487

[Difficulty]
HPDrainRate:6
CircleSize:4.3
OverallDifficulty:8
ApproachRate:9
SliderMultiplier:1
SliderTickRate:1

[Events]
//Background and Video events
0,0,"water-damage-restoration.jpg",0,0
//Break Periods
2,74709,81336
//Storyboard Layer 0 (Background)
//Storyboard Layer 1 (Fail)
//Storyboard Layer 2 (Pass)
//Storyboard Layer 3 (Foreground)
//Storyboard Sound Samples

[TimingPoints]
282,306.122448979592,3,2,0,30,1,0
282,-133.333333333333,3,2,0,30,0,0
894,-100,3,2,0,30,0,0
2212,306.122448979592,3,2,0,30,1,0
2212,-133.333333333333,3,2,0,30,0,0
2824,-100,3,2,0,30,0,0
3130,-133.333333333333,3,2,0,30,0,0
3742,-100,3,2,0,30,0,0
4354,-133.333333333333,3,2,0,30,0,0
4660,-100,3,2,0,30,0,0
5969,304.568527918782,3,2,0,30,1,0
5969,-133.333333333333,3,2,0,30,0,0
6578,-100,3,2,0,30,0,0
6882,-133.333333333333,3,2,0,30,0,0
7187,-100,3,2,0,30,0,0
7491,-80,3,2,0,30,0,0
7796,-133.333333333333,3,2,0,30,0,0
8405,-100,3,2,0,30,0,0
9723,306.122448979592,3,2,0,30,1,0
9723,-133.333333333333,3,2,0,30,0,0
10335,-100,3,2,0,30,0,0
10641,309.278350515464,3,2,0,30,1,0
10641,-133.333333333333,3,2,0,30,0,0
11259,-100,3,2,0,30,0,0
11878,-133.333333333333,3,2,0,30,0,0
12187,-100,3,2,0,30,0,0
13501,307.692307692308,3,2,0,30,1,0
13501,-133.333333333333,3,2,0,30,0,0
13962,-100,3,2,0,30,0,0
14424,-133.333333333333,3,2,0,25,0,0
14885,-200,3,2,0,20,0,0
15347,310.880829015544,3,2,0,30,1,0
15580,-100,3,2,0,5,0,0
15657,-100,3,2,0,30,0,0
15968,-80,3,2,0,30,0,0
17263,310.880829015544,3,2,0,30,1,0
17496,-100,3,2,0,5,0,0
17573,-100,3,2,0,30,0,0
17884,-80,3,2,0,30,0,0
19128,-100,3,2,0,30,0,0
19361,-100,3,2,0,5,0,0
19439,-100,3,2,0,30,0,0
19750,-80,3,2,0,30,0,0
21084,309.278350515464,3,2,0,30,1,0
21315,-100,3,2,0,5,0,0
21393,-100,3,2,0,30,0,0
21702,-80,3,2,0,30,0,0
22011,-100,3,2,0,25,0,0
22475,-133.333333333333,3,2,0,20,0,0
22939,-100,3,2,0,30,0,0
23171,-100,3,2,0,5,0,0
23248,-100,3,2,0,30,0,0
23558,-80,3,2,0,30,0,0
24888,310.077519379845,3,2,0,30,1,0
25120,-100,3,2,0,5,0,0
25198,-100,3,2,0,30,0,0
25508,-80,3,2,0,30,0,0
26748,-100,3,2,0,30,0,0
26981,-100,3,2,0,5,0,0
27058,-100,3,2,0,30,0,0
27368,-80,3,2,0,30,0,0
28686,307.692307692308,3,2,0,30,1,0
28916,-100,3,2,0,5,0,0
28993,-100,3,2,0,30,0,0
29301,-80,3,2,0,30,0,0
29609,-100,3,2,0,30,0,0
30224,-133.333333333333,3,2,0,30,0,0
30532,-100,3,2,0,30,0,0
30762,-100,3,2,0,5,0,0
30839,-80,3,2,0,30,0,0
31070,-80,3,2,0,5,0,0
31147,-66.6666666666667,3,2,0,30,0,0
31378,-66.6666666666667,3,2,0,5,0,0
31455,-66.6666666666667,3,2,0,30,0,0
32468,313.31592689295,3,2,0,30,1,0
32702,-100,3,2,0,5,0,0
32781,-80,3,2,0,30,0,0
33016,-80,3,2,0,5,0,0
33094,-66.6666666666667,3,2,0,30,0,0
33329,-66.6666666666667,3,2,0,5,0,0
33407,-66.6666666666667,3,2,0,30,0,0
34034,-80,3,2,0,30,0,0
34347,-100,3,2,0,30,0,0
34582,-100,3,2,0,5,0,0
34661,-100,3,2,0,30,0,0
34974,-80,3,2,0,30,0,0
36292,310.880829015544,3,2,0,30,1,0
36525,-100,3,2,0,5,0,0
36602,-100,3,2,0,30,0,0
36913,-80,3,2,0,30,0,0
37224,-100,3,2,0,30,0,0
37846,-133.333333333333,3,2,0,30,0,0
38157,307.692307692308,3,2,0,30,1,0
38387,-100,3,2,0,5,0,0
38464,-80,3,2,0,30,0,0
38695,-80,3,2,0,5,0,0
38772,-66.6666666666667,3,2,0,30,0,0
39003,-66.6666666666667,3,2,0,5,0,0
39080,-66.6666666666667,3,2,0,30,0,0
40104,307.692307692308,3,2,0,30,1,0
40334,-100,3,2,0,5,0,0
40411,-80,3,2,0,30,0,0
40642,-80,3,2,0,5,0,0
40719,-66.6666666666667,3,2,0,30,0,0
40950,-66.6666666666667,3,2,0,5,0,0
41027,-66.6666666666667,3,2,0,30,0,0
41642,-80,3,2,0,30,0,0
41950,-100,3,2,0,30,0,0
42180,-100,3,2,0,5,0,0
42257,-100,3,2,0,30,0,0
42565,-80,3,2,0,30,0,0
43850,309.278350515464,3,2,0,30,1,0
44081,-100,3,2,0,5,0,0
44159,-100,3,2,0,30,0,0
44468,-80,3,2,0,30,0,0
44777,-100,3,2,0,30,0,0
45087,-100,3,2,0,25,0,0
45241,-100,3,2,0,30,0,0
45396,-100,3,2,0,35,0,0
45551,-100,3,2,0,40,0,0
45705,300,3,2,0,40,1,0
45705,-80,3,2,0,40,0,0
45930,-80,3,2,0,5,0,0
46005,-66.6666666666667,3,2,0,40,0,0
46305,-133.333333333333,3,2,0,40,0,0
46455,-133.333333333333,3,2,0,30,0,0
46605,291.970802919708,3,2,0,30,1,0
46605,-133.333333333333,3,2,0,30,0,0
47480,304.568527918782,3,2,0,40,1,0
47480,-80,3,2,0,40,0,0
47708,-80,3,2,0,5,0,0
47784,-66.6666666666667,3,2,0,40,0,0
48241,-66.6666666666667,3,2,0,30,0,0
48393,284.36018957346,3,2,0,30,1,0
48393,-133.333333333333,3,2,0,30,0,0
49246,300,3,2,0,40,1,0
49246,-66.6666666666667,3,2,0,40,0,0
49471,-80,3,2,0,5,0,0
49546,-66.6666666666667,3,2,0,40,0,0
49846,-80,3,2,0,40,0,0
49996,-80,3,2,0,30,0,0
50146,-133.333333333333,3,2,0,30,0,0
51046,-66.6666666666667,3,2,0,40,0,0
51271,-80,3,2,0,5,0,0
51346,-66.6666666666667,3,2,0,40,0,0
51796,-66.6666666666667,3,2,0,30,0,0
51946,-133.333333333333,3,2,0,30,0,0
52846,306.122448979592,3,2,0,40,1,0
52846,-80,3,2,0,40,0,0
53075,-80,3,2,0,5,0,0
53152,-66.6666666666667,3,2,0,40,0,0
53611,-66.6666666666667,3,2,0,30,0,0
53764,289.855072463768,3,2,0,30,1,0
53764,-133.333333333333,3,2,0,30,0,0
54633,300,3,2,0,40,1,0
54633,-80,3,2,0,40,0,0
54858,-80,3,2,0,5,0,0
54933,-80,3,2,0,40,0,0
55383,-80,3,2,0,30,0,0
55533,281.69014084507,3,2,0,30,1,0
55533,-133.333333333333,3,2,0,30,0,0
56378,306.122448979592,3,2,0,40,1,0
56378,-66.6666666666667,3,2,0,40,0,0
56607,-80,3,2,0,5,0,0
56684,-66.6666666666667,3,2,0,40,0,0
57143,-66.6666666666667,3,2,0,30,0,0
57296,297.029702970297,3,2,0,30,1,0
57296,-133.333333333333,3,2,0,30,0,0
58187,-66.6666666666667,3,2,0,40,0,0
58409,-80,3,2,0,5,0,0
58484,-80,3,2,0,40,0,0
58632,-66.6666666666667,3,2,0,40,0,0
58929,-66.6666666666667,3,2,0,30,0,0
59078,-133.333333333333,3,2,0,30,0,0
59375,-117.647058823529,3,2,0,30,0,0
59672,-105.263157894737,3,2,0,35,0,0
59969,307.692307692308,3,2,0,40,1,0
59969,-80,3,2,0,40,0,0
60199,-80,3,2,0,5,0,0
60276,-66.6666666666667,3,2,0,40,0,0
60584,-57.1428571428571,3,2,0,40,0,0
60892,-66.6666666666667,3,2,0,40,0,0
61122,-66.6666666666667,3,2,0,5,0,0
61199,-57.1428571428571,3,2,0,40,0,0
61815,300.751879699248,3,2,0,40,1,0
61815,-57.1428571428571,3,2,0,40,0,0
62040,-57.1428571428571,3,2,0,5,0,0
62115,-50,3,2,0,40,0,0
62416,-44.4444444444445,3,2,0,40,0,0
62717,-50,3,2,0,40,0,0
62942,-50,3,2,0,5,0,0
63018,-44.4444444444445,3,2,0,40,0,0
63619,305.343511450382,3,2,0,40,1,0
63619,-66.6666666666667,3,2,0,40,0,0
63924,-57.1428571428571,3,2,0,40,0,0
64229,-66.6666666666667,3,2,0,40,0,0
64535,-57.1428571428571,3,2,0,40,0,0
65145,-66.6666666666667,3,2,0,40,0,0
65451,302.267002518892,3,2,0,40,1,0
65753,-57.1428571428571,3,2,0,40,0,0
66055,-66.6666666666667,3,2,0,40,0,0
66508,-57.1428571428571,3,2,0,40,0,0
67264,-80,3,2,0,40,0,0
67718,-66.6666666666667,3,2,0,40,0,0
68171,304.568527918782,3,2,0,40,1,0
68171,-57.1428571428571,3,2,0,40,0,0
69084,-66.6666666666667,3,2,0,40,0,0
69541,-57.1428571428571,3,2,0,40,0,0
69998,300,3,2,0,40,1,0
69998,-66.6666666666667,3,2,0,40,0,0
70298,-57.1428571428571,3,2,0,40,0,0
71198,-57.1428571428571,3,2,0,40,0,0
71498,-66.6666666666667,3,2,0,40,0,0
71798,-57.1428571428571,3,2,0,40,0,0
72398,-66.6666666666667,3,2,0,40,0,0
72998,-57.1428571428571,3,2,0,40,0,0
73298,-66.6666666666667,3,2,0,40,0,0
73598,303.79746835443,3,2,0,40,1,0
73598,-57.1428571428571,3,2,0,40,0,0
74509,-100,3,2,0,40,0,0
80123,302.267002518892,3,2,0,10,1,0
81936,300,3,2,0,30,1,0
82161,-100,3,2,0,5,0,0
82236,-100,3,2,0,30,0,0
82536,-80,3,2,0,30,0,0
83819,306.122448979592,3,2,0,30,1,0
84048,-100,3,2,0,5,0,0
84125,-100,3,2,0,30,0,0
84431,-80,3,2,0,30,0,0
84737,308.483290488432,3,2,0,30,1,0
84737,-80,3,2,0,30,0,0
85662,-100,3,2,0,30,0,0
85893,-100,3,2,0,5,0,0
85970,-100,3,2,0,30,0,0
87549,300,3,2,0,30,1,0
87774,-100,3,2,0,5,0,0
87849,-100,3,2,0,30,0,0
88149,-80,3,2,0,30,0,0
88449,310.880829015544,3,2,0,25,1,0
88915,-133.333333333333,3,2,0,20,0,0
89381,306.122448979592,3,2,0,30,1,0
89610,-100,3,2,0,5,0,0
89687,-100,3,2,0,30,0,0
89993,-80,3,2,0,30,0,0
91241,306.122448979592,3,2,0,30,1,0
91470,-100,3,2,0,5,0,0
91547,-100,3,2,0,30,0,0
91853,-80,3,2,0,30,0,0
92159,310.880829015544,3,2,0,30,1,0
92159,-80,3,2,0,30,0,0
93091,-100,3,2,0,30,0,0
93324,-100,3,2,0,5,0,0
93402,-100,3,2,0,30,0,0
94998,312.907431551499,3,2,0,30,1,0
95232,-100,3,2,0,5,0,0
95310,-100,3,2,0,30,0,0
95623,-80,3,2,0,30,0,0
95936,-100,3,2,0,30,0,0
96406,-100,3,2,0,25,0,0
96562,-133.333333333333,3,2,0,25,0,0
96875,-100,3,2,0,30,0,0
97110,-100,3,2,0,5,0,0
97188,-80,3,2,0,30,0,0
97423,-80,3,2,0,5,0,0
97501,-66.6666666666667,3,2,0,30,0,0
97735,-66.6666666666667,3,2,0,5,0,0
97814,-66.6666666666667,3,2,0,30,0,0
98788,306.122448979592,3,2,0,30,1,0
99017,-100,3,2,0,5,0,0
99094,-80,3,2,0,30,0,0
99323,-80,3,2,0,5,0,0
99400,-66.6666666666667,3,2,0,30,0,0
99629,-66.6666666666667,3,2,0,5,0,0
99706,-66.6666666666667,3,2,0,30,0,0
100318,-80,3,2,0,30,0,0
100624,304.568527918782,3,2,0,30,1,0
100852,-100,3,2,0,5,0,0
100928,-100,3,2,0,30,0,0
101233,-80,3,2,0,30,0,0
102498,304.568527918782,3,2,0,30,1,0
102726,-100,3,2,0,5,0,0
102802,-100,3,2,0,30,0,0
103107,-80,3,2,0,30,0,0
103411,-100,3,2,0,30,0,0
103868,-133.333333333333,3,2,0,25,0,0
104325,-100,3,2,0,30,0,0
104553,-100,3,2,0,5,0,0
104629,-80,3,2,0,30,0,0
104858,-80,3,2,0,5,0,0
104934,-66.6666666666667,3,2,0,30,0,0
105162,-66.6666666666667,3,2,0,5,0,0
105239,-66.6666666666667,3,2,0,30,0,0
106219,303.79746835443,3,2,0,30,1,0
106446,-100,3,2,0,5,0,0
106522,-80,3,2,0,30,0,0
106750,-80,3,2,0,5,0,0
106826,-66.6666666666667,3,2,0,30,0,0
107053,-66.6666666666667,3,2,0,5,0,0
107130,305.343511450382,3,2,0,30,1,0
107435,-66.6666666666667,3,2,0,30,0,0
107740,-80,3,2,0,30,0,0
108046,-100,3,2,0,30,0,0
108275,-100,3,2,0,5,0,0
108351,-100,3,2,0,30,0,0
108656,-80,3,2,0,30,0,0
109915,304.568527918782,3,2,0,30,1,0
110143,-100,3,2,0,5,0,0
110219,-100,3,2,0,30,0,0
110524,-80,3,2,0,30,0,0
110828,-100,3,2,0,30,0,0
111133,-100,3,2,0,25,0,0
111285,-100,3,2,0,30,0,0
111437,-100,3,2,0,35,0,0
111590,-100,3,2,0,40,0,0
111742,300,3,2,0,40,1,0
111742,-80,3,2,0,40,0,0
111967,-80,3,2,0,5,0,0
112042,-66.6666666666667,3,2,0,40,0,0
112492,-66.6666666666667,3,2,0,30,0,0
112642,284.36018957346,3,2,0,30,1,0
112642,-133.333333333333,3,2,0,30,0,0
113495,300,3,2,0,40,1,0
113495,-80,3,2,0,40,0,0
113720,-80,3,2,0,5,0,0
113795,-66.6666666666667,3,2,0,40,0,0
114245,-66.6666666666667,3,2,0,30,0,0
114395,284.36018957346,3,2,0,30,1,0
114395,-133.333333333333,3,2,0,30,0,0
115248,297.029702970297,3,2,0,40,1,0
115248,-66.6666666666667,3,2,0,40,0,0
115470,-80,3,2,0,5,0,0
115545,-66.6666666666667,3,2,0,40,0,0
115990,-66.6666666666667,3,2,0,30,0,0
116139,292.682926829268,3,2,0,30,1,0
116139,-133.333333333333,3,2,0,30,0,0
117017,309.278350515464,3,2,0,40,1,0
117017,-66.6666666666667,3,2,0,40,0,0
117248,-80,3,2,0,5,0,0
117326,-66.6666666666667,3,2,0,40,0,0
117790,-66.6666666666667,3,2,0,30,0,0
117944,289.855072463768,3,2,0,30,1,0
117944,-133.333333333333,3,2,0,30,0,0
118813,292.682926829268,3,2,0,40,1,0
118813,-80,3,2,0,40,0,0
119032,-80,3,2,0,5,0,0
119105,-66.6666666666667,3,2,0,40,0,0
119544,-66.6666666666667,3,2,0,30,0,0
119691,303.030303030303,3,2,0,30,1,0
119691,-133.333333333333,3,2,0,30,0,0
120600,298.507462686567,3,2,0,40,1,0
120600,-80,3,2,0,40,0,0
120823,-80,3,2,0,5,0,0
120898,-66.6666666666667,3,2,0,40,0,0
121346,-66.6666666666667,3,2,0,30,0,0
121495,-133.333333333333,3,2,0,30,0,0
122391,306.122448979592,3,2,0,40,1,0
122391,-66.6666666666667,3,2,0,40,0,0
122620,-80,3,2,0,5,0,0
122697,-66.6666666666667,3,2,0,40,0,0
123156,-66.6666666666667,3,2,0,30,0,0
123309,291.26213592233,3,2,0,30,1,0
123309,-133.333333333333,3,2,0,30,0,0
124182,300,3,2,0,40,1,0
124182,-66.6666666666667,3,2,0,40,0,0
124407,-80,3,2,0,5,0,0
124482,-66.6666666666667,3,2,0,40,0,0
124932,-66.6666666666667,3,2,0,30,0,0
125082,310.077519379845,3,2,0,30,1,0
125082,-133.333333333333,3,2,0,30,0,0
126012,304.568527918782,3,2,0,40,1,0
126012,-80,3,2,0,40,0,0
126240,-80,3,2,0,5,0,0
126316,-66.6666666666667,3,2,0,40,0,0
126621,-57.1428571428571,3,2,0,40,0,0
126925,310.077519379845,3,2,0,40,1,0
126925,-66.6666666666667,3,2,0,40,0,0
127157,-66.6666666666667,3,2,0,5,0,0
127235,-57.1428571428571,3,2,0,40,0,0
127545,-50,3,2,0,40,0,0
127855,306.90537084399,3,2,0,40,1,0
127855,-57.1428571428571,3,2,0,40,0,0
128085,-57.1428571428571,3,2,0,5,0,0
128161,-50,3,2,0,40,0,0
128468,-44.4444444444445,3,2,0,40,0,0
128775,309.278350515464,3,2,0,40,1,0
128775,-50,3,2,0,40,0,0
129006,-50,3,2,0,5,0,0
129084,-44.4444444444445,3,2,0,40,0,0
129702,-57.1428571428571,3,2,0,40,0,0
130321,-66.6666666666667,3,2,0,40,0,0
130630,-57.1428571428571,3,2,0,40,0,0
131249,-66.6666666666667,3,2,0,40,0,0
131558,303.030303030303,3,2,0,40,1,0
131558,-57.1428571428571,3,2,0,40,0,0
132164,-66.6666666666667,3,2,0,40,0,0
132467,306.122448979592,3,2,0,40,1,0
132467,-57.1428571428571,3,2,0,40,0,0
133385,312.5,3,2,0,40,1,0
133385,-80,3,2,0,40,0,0
133853,-66.6666666666667,3,2,0,40,0,0
134322,308.483290488432,3,2,0,40,1,0
134322,-57.1428571428571,3,2,0,40,0,0
135247,-66.6666666666667,3,2,0,40,0,0
135555,-57.1428571428571,3,2,0,40,0,0
136172,303.79746835443,3,2,0,40,1,0
136172,-66.6666666666667,3,2,0,40,0,0
136475,-57.1428571428571,3,2,0,40,0,0
137083,309.278350515464,3,2,0,40,1,0
137083,-57.1428571428571,3,2,0,40,0,0
137701,-66.6666666666667,3,2,0,40,0,0
138010,-57.1428571428571,3,2,0,40,0,0
138629,-66.6666666666667,3,2,0,40,0,0
138938,306.122448979592,3,2,0,40,1,0
138938,-57.1428571428571,3,2,0,40,0,0
139550,-66.6666666666667,3,2,0,40,0,0
139856,-57.1428571428571,3,2,0,40,0,0
143639,310.880829015544,3,2,0,30,1,0
144105,-80,3,2,0,30,0,0

[Colours]
Combo1 : 181,111,168
Combo2 : 247,213,204
Combo3 : 174,240,216
Combo4 : 221,210,208
Combo5 : 157,223,242
Combo6 : 210,66,40
Combo7 : 123,108,191
Combo8 : 253,177,36

[HitObjects]
305,289,282,5,2,3:0:0:0:
305,289,588,2,0,P|342:271|354:270,1,37.5000014305115,0|0,3:0|0:0,0:0:0:0:
391,356,894,2,0,P|370:370|346:378,1,50,0|0,3:0|0:0,0:0:0:0:
498,228,1200,1,2,3:0:0:0:
498,228,2212,6,0,P|467:205|423:195,1,75.0000028610231,2|0,3:3|3:0,0:0:0:0:
432,195,2671,1,0,0:0:0:0:
394,303,2824,2,0,P|414:317|438:325,1,50,0|0,3:0|0:0,0:0:0:0:
293,112,3130,6,0,P|257:127|226:160,1,75.0000028610231,2|0,3:3|3:0,0:0:0:0:
231,152,3589,1,0,0:0:0:0:
315,241,3742,2,0,P|337:230|356:213,1,50,0|0,3:0|0:0,0:0:0:0:
125,145,4048,5,2,3:0:0:0:
125,145,4354,2,0,P|136:167|139:189,1,37.5000014305115,0|0,3:0|0:0,0:0:0:0:
47,214,4660,2,0,P|34:189|30:166,1,50,0|0,3:0|0:0,0:0:0:0:
229,307,4967,1,2,3:0:0:0:
229,307,5969,70,0,P|256:269|263:222,1,75,2|0,3:0|3:0,0:0:0:0:
263,242,6425,1,0,0:0:0:0:
143,203,6578,2,0,P|122:231|117:266,1,50,0|0,3:0|0:0,0:0:0:0:
357,126,6882,6,0,P|349:92|338:76,1,37.5000014305115,2|0,3:0|0:0,0:0:0:0:
213,116,7187,2,0,P|222:158|237:179,1,50,0|0,3:0|0:0,0:0:0:0:
368,136,7491,2,0,P|359:90|348:74,1,62.5,0|0,3:0|0:0,0:0:0:0:
82,239,7796,5,2,3:0:0:0:
82,239,8100,2,0,P|108:246|127:262,1,37.5000014305115,0|0,3:0|0:0,0:0:0:0:
191,342,8405,2,0,P|212:353|236:358,1,50,0|0,3:0|0:0,0:0:0:0:
387,239,8710,1,2,3:0:0:0:
387,239,9723,6,0,P|361:204|354:168,1,75.0000028610231,2|0,3:0|3:0,0:0:0:0:
354,173,10182,1,0,0:0:0:0:
389,74,10335,2,0,P|381:50|366:29,1,50,0|0,3:0|0:0,0:0:0:0:
182,209,10641,70,0,P|217:184|236:152,1,75.0000028610231,2|0,3:0|3:0,0:0:0:0:
233,158,11104,1,0,0:0:0:0:
231,51,11259,2,0,P|246:30|266:16,1,50,0|0,3:0|0:0,0:0:0:0:
311,280,11568,5,2,3:0:0:0:
311,280,11878,2,0,P|294:270|276:266,1,37.5000014305115,0|0,3:0|0:0,0:0:0:0:
154,297,12187,2,0,P|129:291|107:278,1,50,0|0,3:0|0:0,0:0:0:0:
0,137,12496,1,2,3:0:0:0:
0,137,13501,6,0,P|36:131|69:113,1,75.0000028610231,2|0,3:0|3:0,0:0:0:0:
69,112,13962,1,0,0:0:0:0:
146,25,14116,2,0,P|167:13|192:10,1,50,0|0,3:0|0:0,0:0:0:0:
266,125,14424,6,0,P|242:113|232:101,2,37.5000014305115,0|0|0,3:0|0:0|0:0,0:0:0:0:
298,56,14885,2,0,P|289:30|289:23,2,25,0|0|0,3:0|0:0|0:0,0:0:0:0:
417,142,15347,70,0,L|462:75,1,75,2|0,3:0|0:0,0:0:0:0:
453,66,15657,2,0,P|479:73|503:90,1,50,0|0,3:0|3:0,0:0:0:0:
481,209,15968,2,0,P|497:246|499:277,1,62.5,0|0,3:0|3:0,0:0:0:0:
362,373,16279,1,2,3:0:0:0:
362,373,17263,6,0,L|317:306,1,75,2|0,3:0|0:0,0:0:0:0:
322,296,17573,2,0,P|286:304|259:326,1,50,0|0,3:0|0:0,0:0:0:0:
165,358,17884,2,0,P|146:326|117:301,1,62.5,0|0,3:0|0:0,0:0:0:0:
92,176,18195,2,0,P|78:204|56:227,1,62.5,2|0,3:0|0:0,0:0:0:0:
206,101,18506,2,0,P|176:96|148:83,1,62.5,0|0,3:0|0:0,0:0:0:0:
312,186,18817,1,0,3:0:0:0:
312,186,19128,6,0,L|353:248,1,75,2|0,3:0|0:0,0:0:0:0:
365,255,19439,2,0,P|345:293|342:318,1,50,0|0,3:0|0:0,0:0:0:0:
453,342,19750,2,0,P|473:365|500:381,1,62.5,0|0,3:3|0:3,0:3:0:0:
487,226,20060,1,2,3:0:0:0:
487,226,21084,6,0,L|446:288,1,75,2|0,3:0|0:0,0:0:0:0:
455,298,21393,2,0,P|411:295|388:282,1,50,0|0,3:0|0:0,0:0:0:0:
271,315,21702,2,0,P|259:286|256:255,1,62.5,0|0,3:0|0:0,0:0:0:0:
203,127,22011,70,0,P|239:103|265:100,2,50,0|0|0,3:0|0:0|0:0,0:0:0:0:
124,111,22475,2,0,P|129:90|141:72,2,37.5000014305115,0|0|0,3:0|0:0|0:0,0:0:0:0:
46,196,22939,6,0,L|87:258,1,75,2|0,3:0|0:0,0:0:0:0:
101,265,23248,2,0,P|118:305|119:332,1,50,0|0,3:0|0:0,0:0:0:0:
233,359,23558,2,0,P|254:345|281:306,1,62.5,0|0,3:0|0:0,0:0:0:0:
232,145,23867,1,2,3:0:0:0:
232,145,24888,6,0,L|273:83,1,75,2|0,3:0|0:0,0:0:0:0:
264,72,25198,2,0,P|305:52|322:53,1,50,0|0,3:0|0:0,0:0:0:0:
383,158,25508,2,0,P|414:190|425:224,1,62.5,0|0,3:0|0:0,0:0:0:0:
303,348,25818,2,0,P|324:325|337:297,1,62.5,2|0,3:0|0:0,0:0:0:0:
131,278,26128,2,0,P|159:291|189:294,1,62.5,0|0,3:0|0:0,0:0:0:0:
144,92,26438,1,0,3:0:0:0:
144,92,26748,6,0,L|185:154,1,75,2|0,3:0|0:0,0:0:0:0:
197,162,27058,2,0,P|168:184|137:194,1,50,0|0,3:0|0:0,0:0:0:0:
109,303,27368,2,0,P|82:288|60:267,1,62.5,0|0,3:0|0:0,0:0:0:0:
280,305,27678,1,2,3:0:0:0:
280,305,28686,70,0,L|239:367,1,75,2|0,3:0|0:0,0:0:0:0:
228,377,28993,2,0,P|262:388|284:389,1,50,0|0,3:0|0:0,0:0:0:0:
363,283,29301,2,0,P|383:254|395:221,1,62.5,0|0,3:0|0:0,0:0:0:0:
305,139,29609,2,0,P|283:110|259:91,1,50,0|0,3:0|0:0,0:0:0:0:
209,191,29916,1,0,3:0:0:0:
128,161,30070,1,0,3:0:0:0:
77,215,30224,2,0,P|56:221|39:233,1,37.5000014305115,0|0,3:0|2:0,2:0:0:0:
75,22,30532,6,0,P|143:44|162:59,1,75,0|0,1:3|0:0,0:0:0:0:
152,57,30839,2,0,P|193:17|246:6,1,93.75,0|0,3:0|0:0,0:0:0:0:
240,0,31147,2,0,P|258:44|244:109,1,112.500004291535,0|0,3:0|0:0,0:0:0:0:
194,162,31455,1,0,1:0:0:0:
194,162,32468,6,0,P|244:191|284:196,1,75,0|0,1:0|0:0,0:0:0:0:
270,205,32781,2,0,P|228:234|205:292,1,93.75,0|0,3:0|0:0,0:0:0:0:
198,284,33094,2,0,P|245:317|317:317,1,112.500004291535,0|0,3:0|0:0,0:0:0:0:
360,278,33407,1,0,1:0:0:0:
360,278,33721,2,0,P|394:309|408:347,1,75.0000028610231,0|0,3:0|0:0,0:0:0:0:
416,193,34034,2,0,P|455:170|490:170,1,62.5,0|0,3:0|0:0,0:0:0:0:
388,86,34347,6,0,L|347:24,1,75,2|0,3:0|0:0,0:0:0:0:
336,17,34661,2,0,P|312:50|287:71,1,50,0|0,3:0|0:0,0:0:0:0:
257,161,34974,2,0,P|218:148|183:126,1,62.5,0|0,3:0|0:0,0:0:0:0:
68,179,35287,1,2,3:0:0:0:
68,179,36292,70,0,L|27:241,1,75,2|0,3:0|0:0,0:0:0:0:
14,253,36602,2,0,P|52:266|74:283,1,50,0|0,3:0|0:0,0:0:0:0:
125,372,36913,2,0,P|149:339|178:322,1,62.5,0|0,3:0|0:0,0:0:0:0:
272,212,37224,2,0,P|296:217|317:230,1,50,0|0,3:0|0:0,0:0:0:0:
376,300,37535,1,0,3:0:0:0:
511,255,37690,1,0,3:0:0:0:
465,313,37846,2,0,P|473:330|477:349,1,37.5000014305115,0|0,3:0|0:0,0:0:0:0:
321,136,38157,6,0,P|344:98|388:72,1,75,0|0,1:0|0:0,0:0:0:0:
379,89,38464,2,0,P|322:70|288:33,1,93.75,0|0,3:0|0:0,0:0:0:0:
304,35,38772,2,0,P|257:35|194:98,1,112.500004291535,0|0,3:0|0:0,0:0:0:0:
178,144,39080,1,0,1:0:0:0:
178,144,40104,6,0,P|198:191|196:230,1,75,0|0,1:0|0:0,0:0:0:0:
205,226,40411,2,0,P|159:207|98:222,1,93.75,0|0,3:0|0:0,0:0:0:0:
103,221,40719,2,0,P|153:244|183:291,1,112.500004291535,0|0,3:0|0:0,0:0:0:0:
208,369,41027,1,0,1:0:0:0:
208,369,41334,2,0,P|243:367|284:349,1,75.0000028610231,0|0,3:0|0:0,0:0:0:0:
425,370,41642,2,0,P|434:335|430:290,1,62.5,0|0,3:0|0:0,0:0:0:0:
358,173,41950,6,0,L|399:111,1,75,2|0,3:0|0:0,0:0:0:0:
395,97,42257,2,0,P|444:109|453:116,1,50,0|0,3:0|0:0,0:0:0:0:
241,136,42565,2,0,P|267:93|289:78,1,62.5,0|0,3:0|0:0,0:0:0:0:
152,232,42873,1,2,3:0:0:0:
152,232,43850,70,0,L|111:170,1,75,2|0,3:0|0:0,0:0:0:0:
98,163,44159,2,0,P|61:196|55:215,1,50,0|0,3:0|0:0,0:0:0:0:
81,77,44468,2,0,P|55:59|25:50,1,62.5,0|0,3:0|0:0,0:0:0:0:
174,1,44777,2,0,P|172:25|164:49,1,50,0|0,3:0|0:0,0:0:0:0:
98,163,45087,5,0,3:0:0:0:
201,142,45241,21,0,3:0:0:0:
270,187,45396,21,0,3:0:0:0:
292,258,45551,21,0,3:0:0:0:
505,93,45705,70,0,P|461:122|439:181,1,93.75,0|0,1:3|0:0,0:0:0:0:
448,172,46005,2,0,P|420:153|378:142,1,75.0000028610231,2|0,1:3|0:0,0:0:0:0:
319,346,46305,1,0,3:0:0:0:
290,196,46455,85,0,0:0:0:0:
290,196,46605,2,0,L|323:240,2,37.5000014305115,2|0|0,0:0|0:0|0:0,0:0:0:0:
226,239,47042,2,0,L|248:269,1,37.5000014305115,2|0,0:0|0:0,0:0:0:0:
175,299,47334,1,0,0:0:0:0:
32,132,47480,54,0,P|61:91|122:70,1,93.75,0|0,1:0|0:0,0:0:0:0:
108,59,47784,2,0,P|135:105|176:124,1,75.0000028610231,2|0,1:3|0:0,0:0:0:0:
304,0,48089,1,0,3:0:0:0:
334,109,48241,53,0,0:0:0:0:
334,109,48393,2,0,L|301:153,1,37.5000014305115
398,152,48677,2,0,L|375:182,2,37.5000014305115
452,210,49103,1,0,0:0:0:0:
207,285,49246,22,0,P|161:236|160:166,1,112.500004291535,0|0,1:0|0:0,0:0:0:0:
144,181,49546,1,2,1:3:0:0:
55,355,49696,2,0,P|89:341|116:315,1,75.0000028610231,0|0,1:3|0:0,0:0:0:0:
69,30,49996,85,0,0:0:0:0:
0,69,50146,2,0,L|33:113,1,37.5000014305115,2|0,0:0|0:0,0:0:0:0:
97,122,50446,2,0,L|119:92,1,37.5000014305115
191,120,50746,2,0,L|213:150,1,37.5000014305115
424,123,51046,54,0,P|454:71|513:49,1,112.500004291535,0|0,1:0|0:0,0:0:0:0:
510,42,51346,1,2,1:3:0:0:
316,89,51496,2,0,P|323:124|346:154,1,75.0000028610231,0|0,1:3|0:0,0:0:0:0:
447,348,51796,53,0,0:0:0:0:
496,285,51946,2,0,L|473:255,1,37.5000014305115,2|0,0:0|0:0,0:0:0:0:
396,278,52246,2,0,L|373:308,1,37.5000014305115
304,271,52546,2,0,L|281:241,1,37.5000014305115
10,317,52846,22,0,P|43:348|89:356,1,93.75,0|0,1:0|0:0,0:0:0:0:
97,368,53152,1,2,1:3:0:0:
32,204,53305,1,2,3:0:0:0:
182,139,53458,1,0,3:0:0:0:
144,274,53611,85,0,0:0:0:0:
144,274,53764,2,0,L|167:244,2,37.5000014305115,2|0|0,0:0|0:0|0:0,0:0:0:0:
229,291,54198,2,0,L|206:321,1,37.5000014305115,2|0,0:0|0:0,0:0:0:0:
278,353,54488,1,0,0:0:0:0:
512,131,54633,54,0,P|456:83|415:83,1,93.75,0|0,1:0|0:0,0:0:0:0:
426,73,54933,1,2,1:3:0:0:
373,241,55083,1,2,3:0:0:0:
202,206,55233,1,0,3:0:0:0:
336,37,55383,53,0,0:0:0:0:
336,37,55533,2,0,L|313:7,1,37.5000014305115
248,54,55814,2,0,L|271:84,2,37.5000014305115
196,112,56237,1,0,0:0:0:0:
364,277,56378,22,0,P|419:251|451:193,1,112.500004291535,0|0,1:0|0:0,0:0:0:0:
459,202,56684,1,2,1:3:0:0:
409,384,56837,2,0,P|354:367|327:341,1,75.0000028610231,0|0,1:0|0:0,0:0:0:0:
187,261,57143,85,0,0:0:0:0:
237,327,57296,2,0,L|260:297,1,37.5000014305115,2|0,0:0|0:0,0:0:0:0:
143,331,57593,2,0,L|166:361,1,37.5000014305115
44,383,57890,2,0,L|67:353,1,37.5000014305115
109,168,58187,54,0,P|56:187|23:241,1,112.500004291535,0|0,1:0|0:0,0:0:0:0:
13,240,58484,1,2,1:3:0:0:
178,124,58632,2,0,P|204:150|238:165,1,75.0000028610231,0|0,1:0|0:0,0:0:0:0:
360,18,58929,53,0,0:0:0:0:
308,81,59078,2,0,L|285:51,1,37.5000014305115,2|0,0:0|0:0,0:0:0:0:
405,87,59375,2,0,L|377:122,1,42.5000008106232
463,150,59672,1,0,3:0:0:0:
463,150,59820,1,0,0:0:0:0:
426,333,59969,22,0,P|380:294|325:285,1,93.75,0|0,1:0|0:0,0:0:0:0:
337,277,60276,2,0,P|293:294|265:346,1,75.0000028610231,2|0,1:3|0:0,0:0:0:0:
67,283,60584,2,0,P|95:315|136:330,1,87.500000834465,0|0,1:3|0:0,0:0:0:0:
360,194,60892,6,0,P|356:143|403:78,1,112.500004291535,0|0,1:0|0:0,0:0:0:0:
378,77,61199,2,0,P|416:57|459:61,1,87.500000834465,2|0,1:3|0:0,0:0:0:0:
243,31,61507,1,0,1:0:0:0:
243,31,61661,1,0,3:0:0:0:
337,277,61815,6,0,P|401:269|445:221,1,131.250001251698,0|0,1:0|0:0,0:0:0:0:
460,216,62115,2,0,P|432:182|355:170,1,100,2|0,1:3|0:0,0:0:0:0:
219,278,62416,2,0,P|256:318|263:373,1,112.500004291535,0|0,1:0|0:0,0:0:0:0:
25,234,62717,6,0,P|43:154|128:97,1,150,0|0,1:0|0:0,0:0:0:0:
104,98,63018,2,0,P|134:141|110:224,1,112.500004291535,2|0,1:3|0:0,0:0:0:0:
188,29,63318,1,0,1:0:0:0:
260,56,63469,1,0,3:0:0:0:
463,6,63619,69,0,1:0:0:0:
463,6,63924,2,0,P|412:42|397:85,1,87.500000834465,2|0,3:3|0:0,0:0:0:0:
298,123,64229,2,0,P|317:182|349:206,1,75.0000028610231,0|0,3:3|0:0,0:0:0:0:
507,258,64535,6,0,P|436:307|349:307,1,175.00000166893,0|2,1:3|3:0,0:0:0:0:
349,307,64993,1,0,0:0:0:0:
228,366,65145,2,0,P|192:355|163:331,1,75.0000028610231,0|0,3:3|0:3,3:3:0:0:
139,70,65451,5,0,1:0:0:0:
139,70,65753,2,0,P|107:125|108:155,1,87.500000834465,2|0,3:0|0:0,0:0:0:0:
265,219,66055,2,0,P|202:205|175:213,1,75.0000028610231,0|0,3:0|0:0,0:0:0:0:
14,338,66357,5,0,1:0:0:0:
149,302,66508,2,0,P|170:340|169:384,1,87.500000834465,0|0,3:0|0:0,0:0:0:0:
106,147,66811,69,0,1:0:0:0:
193,208,66962,1,0,3:0:0:0:
332,118,67113,1,2,3:0:0:0:
494,277,67264,6,0,P|445:264|374:199,1,125,0|0,1:0|3:3,0:0:0:0:
291,339,67718,2,0,P|315:310|352:295,1,75.0000028610231,2|0,3:0|0:0,0:0:0:0:
332,118,68020,1,0,3:0:0:0:
173,161,68171,6,0,P|178:204|202:239,1,87.500000834465,0|0,1:3|0:0,0:0:0:0:
30,383,68475,2,0,P|77:332|101:205,1,175.00000166893,2|0,3:3|3:0,0:0:0:0:
183,40,68932,1,0,3:0:0:0:
55,78,69084,6,0,P|125:103|172:160,1,150.000005722046,0|0,1:0|3:0,0:0:0:0:
258,0,69541,2,0,P|225:26|176:41,1,87.500000834465,2|0,3:3|0:0,0:0:0:0:
252,237,69846,1,0,3:0:0:0:
426,69,69998,70,0,P|393:42|352:31,1,75.0000028610231,0|0,1:3|0:0,0:0:0:0:
252,237,70298,2,0,P|297:162|404:133,1,175.00000166893,2|0,3:0|3:0,0:0:0:0:
492,207,70748,1,0,3:0:0:0:
302,325,70898,5,0,1:0:0:0:
302,325,71198,2,0,P|360:340|392:330,1,87.500000834465,2|0,3:0|0:0,0:0:0:0:
176,211,71498,2,0,P|178:266|197:293,1,75.0000028610231,0|0,3:0|0:0,0:0:0:0:
341,42,71798,6,0,P|254:43|180:88,1,175.00000166893,0|2,1:0|0:3,0:0:0:0:
180,88,72248,1,0,0:0:0:0:
49,108,72398,2,0,P|18:154|18:187,1,75.0000028610231,0|0,3:0|0:0,0:0:0:0:
214,340,72698,5,0,1:0:0:0:
214,340,72998,2,0,P|151:311|131:277,1,87.500000834465,2|0,3:3|0:0,0:0:0:0:
316,294,73298,2,0,P|324:225|348:198,1,75.0000028610231,0|0,3:3|0:0,0:0:0:0:
463,156,73598,69,0,1:0:0:0:
415,329,73749,2,0,P|458:329|498:311,1,87.500000834465,0|0,3:3|0:0,0:0:0:0:
463,156,74053,5,0,1:0:0:0:
326,221,74205,1,0,3:0:0:0:
181,58,74357,1,2,3:0:0:0:
42,280,74509,5,2,1:3:0:0:
370,114,81936,22,0,L|308:155,1,75,2|0,3:0|0:0,0:0:0:0:
301,167,82236,2,0,P|259:145|235:142,1,50,0|0,3:0|0:0,0:0:0:0:
96,138,82536,2,0,P|113:112|138:93,1,62.5,0|0,3:3|0:0,0:0:0:0:
170,273,82836,1,2,3:0:0:0:
170,273,83819,6,0,L|232:314,1,75,2|0,3:0|0:0,0:0:0:0:
239,326,84125,2,0,P|263:320|284:307,1,50,0|0,3:0|0:0,0:0:0:0:
409,259,84431,2,0,P|411:234|400:194,1,62.5,0|0,3:0|0:0,0:0:0:0:
336,63,84737,2,0,P|368:64|397:76,1,62.5,2|0,3:0|0:0,0:0:0:0:
188,83,85045,2,0,P|198:53|218:29,1,62.5,0|0,3:0|0:0,0:0:0:0:
160,230,85353,1,0,3:0:0:0:
160,230,85508,1,0,3:0:0:0:
160,230,85662,6,0,L|98:271,1,75,2|0,3:0|0:0,0:0:0:0:
84,271,85970,1,0,3:0:0:0:
160,369,86125,2,0,P|135:362|114:350,2,50,0|0|0,3:0|0:0|0:0,0:0:0:0:
312,299,86587,1,2,3:0:0:0:
312,299,87549,6,0,L|374:340,1,75,2|0,3:0|0:0,0:0:0:0:
380,352,87849,2,0,P|405:316|408:292,1,50,0|0,3:0|0:0,0:0:0:0:
220,192,88149,2,0,P|246:209|263:236,1,62.5,0|0,3:0|0:0,0:0:0:0:
116,311,88449,70,0,P|74:325|54:343,2,50,0|0|0,3:0|0:0|0:0,0:0:0:0:
116,231,88915,2,0,P|134:232|152:239,2,37.5000014305115,0|0|0,3:0|0:0|0:0,0:0:0:0:
220,192,89381,6,0,L|282:151,1,75,2|0,3:0|0:0,0:0:0:0:
294,157,89687,2,0,P|306:113|301:87,1,50,0|0,3:0|0:0,0:0:0:0:
379,40,89993,2,0,P|408:50|433:70,1,62.5,0|0,3:0|0:0,0:0:0:0:
441,228,90299,1,2,3:0:0:0:
441,228,91241,6,0,L|503:269,1,75,2|0,3:0|0:0,0:0:0:0:
511,282,91547,2,0,P|494:317|479:331,1,50,0|0,3:0|0:0,0:0:0:0:
360,376,91853,2,0,P|330:372|301:360,1,62.5,0|0,3:0|0:0,0:0:0:0:
220,200,92159,2,0,P|218:231|225:262,1,62.5,2|0,3:0|0:0,0:0:0:0:
348,74,92469,2,0,P|317:81|290:97,1,62.5,0|0,3:0|0:0,0:0:0:0:
507,156,92780,1,0,3:0:0:0:
507,156,92936,1,0,3:0:0:0:
507,156,93091,6,0,L|445:197,1,75,2|0,3:0|0:0,0:0:0:0:
438,209,93402,1,0,3:0:0:0:
345,122,93557,2,0,P|382:132|398:145,2,50,0|0|0,3:0|0:0|0:0,0:0:0:0:
203,164,94024,1,2,3:0:0:0:
203,164,94998,70,0,L|141:123,1,75,2|0,3:0|0:0,0:0:0:0:
133,110,95310,2,0,P|90:126|74:141,1,50,0|0,3:0|0:0,0:0:0:0:
169,300,95623,2,0,P|159:270|160:239,1,62.5,0|0,3:0|0:0,0:0:0:0:
341,211,95936,6,0,P|317:207|294:198,2,50,0|0|0,3:0|0:0|0:0,0:0:0:0:
331,55,96406,1,0,3:0:0:0:
371,122,96562,2,0,P|353:129|335:133,1,37.5000014305115,0|0,3:0|0:0,0:0:0:0:
177,0,96875,6,0,P|220:33|231:59,1,75,0|0,1:0|0:0,0:0:0:0:
220,61,97188,2,0,P|153:60|119:37,1,93.75,0|0,3:0|0:0,0:0:0:0:
120,38,97501,2,0,P|72:78|66:148,1,112.500004291535,0|0,3:0|0:0,0:0:0:0:
88,198,97814,1,0,1:0:0:0:
88,198,98788,6,0,P|154:214|170:229,1,75,0|0,1:0|0:0,0:0:0:0:
150,228,99094,2,0,P|205:211|243:174,1,93.75,0|0,3:0|0:0,0:0:0:0:
228,175,99400,2,0,P|212:233|243:309,1,112.500004291535,0|0,3:0|0:0,0:0:0:0:
285,333,99706,1,0,1:0:0:0:
285,333,100012,2,0,P|345:358|363:377,1,75.0000028610231,0|0,3:0|0:0,0:0:0:0:
464,240,100318,2,0,P|474:204|474:172,1,62.5,0|0,3:0|0:0,0:0:0:0:
296,121,100624,70,0,L|234:80,1,75,2|0,3:0|0:0,0:0:0:0:
219,75,100928,2,0,P|208:40|210:12,1,50,0|0,3:0|0:0,0:0:0:0:
411,40,101233,2,0,P|382:50|357:70,1,62.5,0|0,3:0|0:0,0:0:0:0:
381,198,101537,1,0,1:0:0:0:
381,198,102498,6,0,L|319:239,1,75,2|0,3:0|0:0,0:0:0:0:
313,252,102802,2,0,P|273:246|245:229,1,50,0|0,3:0|0:0,0:0:0:0:
120,300,103107,2,0,P|119:324|134:371,1,62.5,0|0,3:0|0:0,0:0:0:0:
152,153,103411,6,0,P|137:132|103:108,2,50,0|0|0,3:0|0:0|0:0,0:0:0:0:
108,218,103868,2,0,P|89:222|73:231,1,37.5000014305115,0|0,3:0|0:0,0:0:0:0:
30,299,104173,1,0,3:0:0:0:
228,318,104325,6,0,P|270:281|279:248,1,75,0|0,1:0|0:0,0:0:0:0:
286,256,104629,2,0,P|290:319|325:358,1,93.75,0|0,3:0|0:0,0:0:0:0:
309,358,104934,2,0,P|377:367|430:334,1,112.500004291535,0|0,3:0|0:0,0:0:0:0:
451,282,105239,1,0,1:0:0:0:
451,282,106219,70,0,P|469:228|490:208,1,75,0|0,1:0|0:0,0:0:0:0:
493,206,106522,2,0,P|430:227|388:219,1,93.75,0|0,3:0|0:0,0:0:0:0:
386,230,106826,2,0,P|383:161|412:117,1,112.500004291535,0|0,3:0|0:0,0:0:0:0:
462,70,107130,1,0,1:0:0:0:
462,70,107435,2,0,P|409:47|378:45,1,75,0|0,3:0|0:0,0:0:0:0:
228,50,107740,2,0,P|206:72|192:100,1,62.5,0|0,3:0|0:0,0:0:0:0:
243,215,108046,6,0,L|181:256,1,75,2|0,3:0|0:0,0:0:0:0:
176,270,108351,2,0,P|136:263|109:250,1,50,0|0,3:0|0:0,0:0:0:0:
1,204,108656,2,0,P|1:229|16:269,1,62.5,0|0,3:0|0:0,0:0:0:0:
143,374,108962,1,2,3:0:0:0:
143,374,109915,6,0,L|81:333,1,75,2|0,3:0|0:0,0:0:0:0:
74,320,110219,2,0,P|117:298|141:297,1,50,0|0,3:0|0:0,0:0:0:0:
218,213,110524,2,0,P|203:192|166:165,1,62.5,0|0,3:0|0:0,0:0:0:0:
335,302,110828,2,0,P|346:280|354:256,1,50,0|0,3:0|0:0,0:0:0:0:
307,153,111133,101,0,3:0:0:0:
346,58,111285,21,0,3:0:0:0:
426,23,111437,21,0,3:0:0:0:
502,36,111590,21,0,3:0:0:0:
257,289,111742,70,0,P|233:248|185:225,1,93.75,0|0,1:0|0:0,0:0:0:0:
182,219,112042,2,0,P|140:243|90:250,1,75.0000028610231,2|0,1:3|0:0,0:0:0:0:
209,68,112342,1,0,3:0:0:0:
58,156,112492,85,0,0:0:0:0:
58,156,112642,2,0,L|28:133,2,37.5000014305115,2|0|0,0:0|0:0|0:0,0:0:0:0:
106,93,113068,2,0,L|76:70,1,37.5000014305115,2|0,0:0|0:0,0:0:0:0:
144,22,113352,1,0,0:0:0:0:
292,181,113495,54,0,P|369:150|388:120,1,93.75,0|0,1:0|0:0,0:0:0:0:
388,142,113795,2,0,P|430:175|445:213,1,75.0000028610231,2|0,1:3|0:0,0:0:0:0:
242,318,114095,1,0,3:0:0:0:
439,344,114245,53,0,0:0:0:0:
439,344,114395,2,0,L|409:367,1,37.5000014305115
392,280,114679,2,0,L|362:303,2,37.5000014305115
327,231,115105,1,0,0:0:0:0:
92,335,115248,22,0,P|49:316|11:251,1,112.500004291535,0|0,1:0|0:0,0:0:0:0:
3,254,115545,1,2,1:3:0:0:
216,240,115693,2,0,P|166:270|148:309,1,75.0000028610231,0|0,1:0|0:0,0:0:0:0:
393,180,115990,85,0,0:0:0:0:
356,253,116139,2,0,L|326:230,1,37.5000014305115,2|0,0:0|0:0,0:0:0:0:
300,155,116431,2,0,L|330:132,1,37.5000014305115
363,60,116724,2,0,L|333:37,1,37.5000014305115
179,251,117017,54,0,P|194:313|246:351,1,112.500004291535,0|0,1:0|0:0,0:0:0:0:
240,355,117326,1,2,1:3:0:0:
300,155,117480,2,0,P|274:182|240:197,1,75.0000028610231,0|0,1:0|0:0,0:0:0:0:
94,96,117790,53,0,0:0:0:0:
57,23,117944,2,0,L|27:46,1,37.5000014305115,2|0,0:0|0:0,0:0:0:0:
1,121,118233,2,0,L|31:144,1,37.5000014305115
64,216,118523,2,0,L|34:239,1,37.5000014305115
232,122,118813,22,0,P|261:86|306:76,1,93.75,0|0,1:0|0:0,0:0:0:0:
319,71,119105,1,0,1:3:0:0:
245,242,119252,1,2,3:0:0:0:
413,318,119398,1,0,3:0:0:0:
368,158,119544,85,0,0:0:0:0:
368,158,119691,2,0,L|398:135,2,37.5000014305115,2|0|0,0:0|0:0|0:0,0:0:0:0:
448,195,120145,2,0,L|418:218,1,37.5000014305115,2|0,0:0|0:0,0:0:0:0:
479,267,120448,1,0,0:0:0:0:
240,353,120600,54,0,P|175:331|145:289,1,93.75,0|0,1:0|0:0,0:0:0:0:
146,308,120898,1,2,1:3:0:0:
312,246,121047,1,2,3:3:0:0:
287,70,121197,1,0,3:0:0:0:
128,220,121346,53,0,0:0:0:0:
128,220,121495,2,0,L|98:197,1,37.5000014305115
148,137,121794,2,0,L|178:160,2,37.5000014305115
209,89,122241,1,0,0:0:0:0:
381,360,122391,22,0,P|346:298|299:279,1,112.500004291535,0|0,1:0|0:0,0:0:0:0:
302,268,122697,1,2,1:3:0:0:
503,204,122850,2,0,P|457:249|421:254,1,75.0000028610231,0|0,1:0|0:0,0:0:0:0:
209,89,123156,85,0,0:0:0:0:
243,163,123309,2,0,L|273:140,1,37.5000014305115,2|0,0:0|0:0,0:0:0:0:
223,251,123600,2,0,L|193:228,1,37.5000014305115
185,351,123891,2,0,L|215:328,1,37.5000014305115
109,114,124182,54,0,P|43:141|21:182,1,112.500004291535,0|0,1:0|0:0,0:0:0:0:
12,182,124482,1,2,1:3:0:0:
172,53,124632,2,0,P|190:83|223:102,1,75.0000028610231,0|0,1:0|0:0,0:0:0:0:
419,11,124932,53,0,0:0:0:0:
385,85,125082,2,0,L|355:62,1,37.5000014305115,2|0,0:0|0:0,0:0:0:0:
405,173,125392,2,0,L|435:150,1,37.5000014305115
470,231,125702,1,0,3:0:0:0:
470,231,125857,1,0,0:0:0:0:
226,181,126012,22,0,P|285:203|312:244,1,93.75,0|0,1:0|0:0,0:0:0:0:
316,232,126316,2,0,P|300:283|316:320,1,75.0000028610231,2|0,1:3|0:0,0:0:0:0:
495,258,126621,2,0,P|498:301|481:341,1,87.500000834465,0|0,1:0|0:0,0:0:0:0:
102,337,126925,6,0,P|159:326|212:271,1,112.500004291535,0|0,1:0|0:0,0:0:0:0:
214,294,127235,2,0,P|186:248|185:191,1,87.500000834465,2|0,1:3|0:0,0:0:0:0:
383,193,127545,1,0,1:0:0:0:
383,193,127700,1,0,3:0:0:0:
130,90,127855,6,0,P|210:114|248:188,1,131.250001251698,0|0,1:0|0:0,0:0:0:0:
252,154,128161,2,0,P|278:98|263:39,1,100,2|0,1:3|0:0,0:0:0:0:
0,103,128468,2,0,P|-2:48|25:0,1,112.500004291535,0|0,1:0|0:0,0:0:0:0:
313,229,128775,6,0,P|241:247|197:306,1,150,0|0,1:0|0:0,0:0:0:0:
204,320,129084,2,0,P|130:291|105:218,1,112.500004291535,2|0,1:3|0:0,0:0:0:0:
272,111,129393,1,0,1:0:0:0:
204,146,129548,1,0,3:0:0:0:
0,103,129702,69,0,1:0:0:0:
0,103,130012,2,0,P|55:126|77:160,1,87.500000834465,2|0,3:0|0:0,0:0:0:0:
199,295,130321,2,0,P|213:261|215:224,1,75.0000028610231,0|0,3:0|0:0,0:0:0:0:
199,63,130630,6,0,P|253:26|365:16,1,175.00000166893,0|2,1:0|3:0,0:0:0:0:
359,14,131094,1,0,0:0:0:0:
502,166,131249,2,0,P|475:141|440:129,1,75.0000028610231,0|0,3:0|0:0,0:0:0:0:
257,198,131558,5,0,1:3:0:0:
257,198,131861,2,0,P|296:244|304:278,1,87.500000834465,2|0,3:0|0:0,0:0:0:0:
130,373,132164,2,0,P|157:348|174:314,1,75.0000028610231,0|0,3:0|0:0,0:0:0:0:
147,114,132467,5,0,1:0:0:0:
69,228,132620,2,0,P|32:222|-18:194,1,87.500000834465,0|0,3:0|0:0,0:0:0:0:
206,22,132926,69,0,1:0:0:0:
271,103,133079,1,0,3:0:0:0:
164,221,133232,1,2,3:0:0:0:
274,361,133385,6,0,P|324:321|404:315,1,125,0|0,1:0|3:0,0:0:0:0:
326,169,133853,2,0,P|320:205|301:237,1,75.0000028610231,2|0,3:0|0:0,0:0:0:0:
455,80,134166,1,0,3:0:0:0:
405,218,134322,6,0,P|453:250|515:249,1,87.500000834465,0|0,1:0|0:0,0:0:0:0:
356,78,134630,2,0,P|288:141|195:155,1,175.00000166893,2|0,3:3|3:0,0:0:0:0:
74,54,135093,1,0,3:0:0:0:
20,314,135247,6,0,P|78:247|165:231,1,150.000005722046,0|0,1:0|3:0,0:0:0:0:
74,54,135710,2,0,P|104:111|96:155,1,87.500000834465,2|0,3:0|0:0,0:0:0:0:
245,43,136018,1,0,3:0:0:0:
211,156,136172,70,0,P|263:185|306:191,1,75.0000028610231,0|0,1:0|0:0,0:0:0:0:
447,258,136475,2,0,P|361:266|294:320,1,175.00000166893,2|0,3:0|3:0,0:0:0:0:
375,160,136931,1,0,3:0:0:0:
205,352,137083,5,0,1:0:0:0:
205,352,137392,2,0,P|155:328|123:290,1,87.500000834465,2|0,3:0|0:0,0:0:0:0:
224,122,137701,2,0,P|205:161|204:194,1,75.0000028610231,0|0,3:0|0:0,0:0:0:0:
512,178,138010,6,0,P|439:135|353:140,1,175.00000166893,0|2,1:0|3:0,0:0:0:0:
351,140,138474,1,0,0:0:0:0:
471,280,138629,2,0,P|491:312|497:348,1,75.0000028610231,0|0,3:0|0:0,0:0:0:0:
360,255,138938,5,0,1:0:0:0:
360,255,139244,2,0,P|334:282|279:305,1,87.500000834465,2|0,3:0|0:0,0:0:0:0:
92,324,139550,2,0,P|118:350|152:365,1,75.0000028610231,0|0,3:0|0:0,0:0:0:0:
180,101,139856,69,0,1:0:0:0:
0,200,140009,2,0,P|1:157|20:118,1,87.500000834465,0|0,3:0|0:0,0:0:0:0:
281,24,140315,5,0,1:0:0:0:
180,101,140468,1,0,3:0:0:0:
412,215,140621,1,2,3:0:0:0:
152,365,140774,5,2,1:3:0:0:
79,236,143949,21,2,3:3:0:0:
79,236,144105,2,0,P|51:244|17:270,1,62.5,0|0,3:0|0:0,0:0:0:0:
75,360,144416,1,0,3:0:0:0:
0,381,144571,5,2,3:0:0:0:
