osu file format v14

[General]
AudioFilename: audio.mp3
AudioLeadIn: 0
PreviewTime: 44700
Countdown: 1
SampleSet: Soft
StackLeniency: 1
Mode: 0
LetterboxInBreaks: 0
WidescreenStoryboard: 1

[Editor]
Bookmarks: 111666
DistanceSpacing: 0.8
BeatDivisor: 4
GridSize: 32
TimelineZoom: 1

[Metadata]
Title:Throws
TitleUnicode:Throws
Artist:Living Suitcase
ArtistUnicode:Living Suitcase
Creator:pishifat
Version:Hard
Source:
Tags:kaifin keep going
BeatmapID:1748563
BeatmapSetID:824487

[Difficulty]
HPDrainRate:6
CircleSize:4
OverallDifficulty:6
ApproachRate:8
SliderMultiplier:1
SliderTickRate:1

[Events]
//Background and Video events
0,0,"water-damage-restoration.jpg",0,0
//Break Periods
2,74709,81186
//Storyboard Layer 0 (Background)
//Storyboard Layer 1 (Fail)
//Storyboard Layer 2 (Pass)
//Storyboard Layer 3 (Foreground)
//Storyboard Sound Samples

[TimingPoints]
282,306.122448979592,3,2,0,30,1,0
2212,306.122448979592,3,2,0,30,1,0
5969,304.568527918782,3,2,0,30,1,0
9723,306.122448979592,3,2,0,30,1,0
10641,309.278350515464,3,2,0,30,1,0
13501,307.692307692308,3,2,0,30,1,0
15347,310.880829015544,3,2,0,30,1,0
17263,310.880829015544,3,2,0,30,1,0
21084,309.278350515464,3,2,0,30,1,0
24888,310.077519379845,3,2,0,30,1,0
28686,307.692307692308,3,2,0,30,1,0
32468,313.31592689295,3,2,0,30,1,0
36292,310.880829015544,3,2,0,30,1,0
38157,307.692307692308,3,2,0,30,1,0
40104,307.692307692308,3,2,0,30,1,0
43850,309.278350515464,3,2,0,30,1,0
44159,-92.3361034164358,3,2,0,30,0,0
44468,-85.7142857632653,3,2,0,30,0,0
44777,-80,3,2,0,30,0,0
45087,-75.5667506316264,3,2,0,30,0,0
45396,-71.0900473933649,3,2,0,30,0,0
45705,300,3,2,0,40,1,0
45705,-66.6666666666667,3,2,0,40,0,0
46605,291.970802919708,3,2,0,30,1,0
47480,304.568527918782,3,2,0,40,1,0
47480,-66.6666666666667,3,2,0,40,0,0
48393,284.36018957346,3,2,0,30,1,0
49246,300,3,2,0,40,1,0
49246,-66.6666666666667,3,2,0,40,0,0
50146,-100,3,2,0,40,0,0
51046,-66.6666666666667,3,2,0,40,0,0
51946,-100,3,2,0,40,0,0
52846,306.122448979592,3,2,0,40,1,0
52846,-66.6666666666667,3,2,0,40,0,0
53764,289.855072463768,3,2,0,30,1,0
54633,300,3,2,0,40,1,0
54633,-66.6666666666667,3,2,0,40,0,0
55533,281.69014084507,3,2,0,30,1,0
56378,306.122448979592,3,2,0,40,1,0
56378,-66.6666666666667,3,2,0,40,0,0
57296,297.029702970297,3,2,0,30,1,0
58187,-66.6666666666667,3,2,0,30,0,0
59078,-100,3,2,0,30,0,0
59969,307.692307692308,3,2,0,40,1,0
59969,-66.6666666666667,3,2,0,40,0,0
61815,300.751879699248,3,2,0,40,1,0
61815,-66.6666666666667,3,2,0,40,0,0
63619,305.343511450382,3,2,0,40,1,0
63924,-66.6666666666667,3,2,0,40,0,0
65451,302.267002518892,3,2,0,40,1,0
65451,-66.6666666666667,3,2,0,40,0,0
68171,304.568527918782,3,2,0,40,1,0
68171,-66.6666666666667,3,2,0,40,0,0
69998,300,3,2,0,40,1,0
69998,-66.6666666666667,3,2,0,40,0,0
73598,303.79746835443,3,2,0,40,1,0
73749,-66.6666666666667,3,2,0,40,0,0
80123,302.267002518892,3,2,0,10,1,0
81936,300,3,2,0,30,1,0
83819,306.122448979592,3,2,0,30,1,0
84737,308.483290488432,3,2,0,30,1,0
87549,300,3,2,0,30,1,0
88449,310.880829015544,3,2,0,25,1,0
89381,306.122448979592,3,2,0,30,1,0
91241,306.122448979592,3,2,0,30,1,0
92159,310.880829015544,3,2,0,30,1,0
94998,312.907431551499,3,2,0,30,1,0
98788,306.122448979592,3,2,0,30,1,0
100624,304.568527918782,3,2,0,30,1,0
102498,304.568527918782,3,2,0,30,1,0
106219,303.79746835443,3,2,0,30,1,0
107130,305.343511450382,3,2,0,30,1,0
109915,304.568527918782,3,2,0,30,1,0
110219,-92.3076923105325,3,2,0,30,0,0
110524,-85.7142857191837,3,2,0,30,0,0
110828,-80,3,2,0,30,0,0
111133,-75.5667506297229,3,2,0,30,0,0
111437,-71.0900473933649,3,2,0,30,0,0
111742,300,3,2,0,40,1,0
111742,-66.6666666666667,3,2,0,40,0,0
112642,284.36018957346,3,2,0,30,1,0
113495,300,3,2,0,40,1,0
113495,-66.6666666666667,3,2,0,40,0,0
114395,284.36018957346,3,2,0,30,1,0
115248,297.029702970297,3,2,0,40,1,0
115248,-66.6666666666667,3,2,0,40,0,0
116139,292.682926829268,3,2,0,30,1,0
117017,309.278350515464,3,2,0,40,1,0
117017,-66.6666666666667,3,2,0,40,0,0
117944,289.855072463768,3,2,0,30,1,0
118813,292.682926829268,3,2,0,40,1,0
118813,-66.6666666666667,3,2,0,40,0,0
119691,303.030303030303,3,2,0,30,1,0
120600,298.507462686567,3,2,0,40,1,0
120600,-66.6666666666667,3,2,0,40,0,0
121495,-100,3,2,0,30,0,0
122391,306.122448979592,3,2,0,40,1,0
122391,-66.6666666666667,3,2,0,40,0,0
123309,291.26213592233,3,2,0,30,1,0
124182,300,3,2,0,40,1,0
124182,-66.6666666666667,3,2,0,40,0,0
125082,310.077519379845,3,2,0,30,1,0
126012,304.568527918782,3,2,0,40,1,0
126012,-66.6666666666667,3,2,0,40,0,0
126925,310.077519379845,3,2,0,40,1,0
126925,-66.6666666666667,3,2,0,40,0,0
127855,306.90537084399,3,2,0,40,1,0
127855,-66.6666666666667,3,2,0,40,0,0
128775,309.278350515464,3,2,0,40,1,0
128775,-66.6666666666667,3,2,0,40,0,0
131558,303.030303030303,3,2,0,40,1,0
131558,-66.6666666666667,3,2,0,40,0,0
132467,306.122448979592,3,2,0,40,1,0
132620,-66.6666666666667,3,2,0,40,0,0
133385,312.5,3,2,0,40,1,0
133697,-66.6666666666667,3,2,0,40,0,0
134322,308.483290488432,3,2,0,40,1,0
134322,-66.6666666666667,3,2,0,40,0,0
136172,303.79746835443,3,2,0,40,1,0
136172,-66.6666666666667,3,2,0,40,0,0
137083,309.278350515464,3,2,0,40,1,0
137392,-66.6666666666667,3,2,0,40,0,0
138938,306.122448979592,3,2,0,40,1,0
138938,-66.6666666666667,3,2,0,40,0,0
143639,310.880829015544,3,2,0,30,1,0

[Colours]
Combo1 : 181,111,168
Combo2 : 247,213,204
Combo3 : 174,240,216
Combo4 : 221,210,208
Combo5 : 157,223,242
Combo6 : 210,66,40
Combo7 : 123,108,191
Combo8 : 253,177,36

[HitObjects]
37,142,282,5,2,3:0:0:0:
70,343,588,2,0,L|61:293,3,50,0|0|0|0,3:0|0:0|3:0|0:0,0:0:0:0:
50,218,1200,1,2,3:0:0:0:
290,329,2212,5,2,3:3:0:0:
352,160,2518,2,0,P|316:177|298:198,3,50,0|0|0|0,3:0|0:0|3:0|0:0,0:0:0:0:
273,252,3130,5,2,3:3:0:0:
226,76,3436,2,0,P|262:93|280:116,3,50,0|0|0|0,3:0|0:0|3:0|0:0,0:0:0:0:
291,177,4048,5,2,3:0:0:0:
85,207,4354,2,0,L|147:198,3,50,0|0|0|0,3:0|0:0|3:0|0:0,0:0:0:0:
213,187,4967,1,2,3:0:0:0:
426,257,5969,69,2,3:0:0:0:
294,372,6273,2,0,P|335:357|356:336,3,50,0|0|0|0,3:0|0:0|3:0|0:0,0:0:0:0:
283,292,6882,6,0,P|252:274|231:249,1,50,2|0,3:0|0:0,0:0:0:0:
229,292,7187,2,0,P|211:261|205:228,1,50,0|0,3:0|0:0,0:0:0:0:
182,265,7491,2,0,P|182:229|194:198,1,50,0|0,3:0|0:0,0:0:0:0:
229,145,7796,5,2,3:0:0:0:
21,107,8100,2,0,L|80:117,3,50,0|0|0|0,3:0|0:0|3:0|0:0,0:0:0:0:
149,131,8710,1,2,3:0:0:0:
400,211,9723,5,2,3:0:0:0:
320,378,10029,2,0,P|302:343|299:315,3,50,0|0|0|0,3:0|0:0|3:0|0:0,0:0:0:0:
331,257,10641,69,2,3:0:0:0:
506,369,10950,2,0,P|466:367|440:355,3,50,0|0|0|0,3:0|0:0|3:0|0:0,0:0:0:0:
384,324,11568,5,2,3:0:0:0:
231,158,11878,2,0,L|241:220,3,50,0|0|0|0,3:0|0:0|3:0|0:0,0:0:0:0:
153,193,12496,1,2,3:0:0:0:
466,8,13501,5,2,3:0:0:0:
336,138,13808,2,0,P|367:129|394:109,3,50,0|0|0|0,3:0|0:0|3:0|0:0,0:0:0:0:
323,54,14424,6,0,P|294:43|268:20,1,50,0|0,3:0|0:0,0:0:0:0:
279,79,14731,2,0,P|259:54|248:22,1,50,0|0,3:0|0:0,0:0:0:0:
228,78,15039,2,0,P|223:47|229:13,1,50,0|0,3:0|0:0,0:0:0:0:
134,60,15347,70,0,L|118:177,1,100,2|0,3:0|3:0,0:0:0:0:
130,169,15813,1,0,3:0:0:0:
138,180,15968,2,0,P|95:195|74:195,1,50,0|0,3:0|3:0,0:0:0:0:
144,265,16279,1,2,3:0:0:0:
383,98,17263,5,2,3:0:0:0:
383,98,17573,2,0,P|400:138|419:152,1,50,0|0,3:0|0:0,0:0:0:0:
357,207,17884,2,0,P|397:223|420:219,1,50,0|0,3:0|0:0,0:0:0:0:
470,306,18195,6,0,L|360:321,1,100,2|0,3:0|3:0,0:0:0:0:
382,327,18661,1,0,0:0:0:0:
391,334,18817,2,0,P|371:383|357:394,1,50,0|0,3:0|0:0,0:0:0:0:
277,384,19128,5,2,3:0:0:0:
277,384,19439,2,0,P|254:342|251:320,1,50,0|0,3:0|0:0,0:0:0:0:
304,264,19750,2,0,P|259:251|241:237,1,50,0|0,3:3|0:3,0:0:0:0:
206,183,20060,1,2,3:0:0:0:
23,339,21084,70,0,P|23:282|57:231,1,100,2|0,3:0|3:0,0:0:0:0:
55,250,21547,1,0,0:0:0:0:
68,254,21702,2,0,L|123:249,1,50,0|0,3:0|0:0,0:0:0:0:
141,165,22011,6,0,P|119:156|88:126,1,50,0|0,3:0|0:0,0:0:0:0:
167,147,22321,2,0,P|152:128|140:86,1,50,0|0,3:0|0:0,0:0:0:0:
198,144,22630,2,0,P|194:120|205:78,1,50,0|0,3:0|0:0,0:0:0:0:
285,128,22939,6,0,L|393:141,1,100,2|0,3:0|3:0,0:0:0:0:
394,146,23403,1,0,0:0:0:0:
403,153,23558,2,0,P|422:106|421:86,1,50,0|0,3:0|0:0,0:0:0:0:
385,32,23867,1,2,3:0:0:0:
497,293,24888,5,2,3:0:0:0:
497,293,25198,2,0,P|450:267|438:266,1,50,0|0,3:0|0:0,0:0:0:0:
399,209,25508,2,0,P|347:223|338:231,1,50,0|0,3:0|0:0,0:0:0:0:
279,251,25818,70,0,P|308:194|300:148,1,100,2|0,3:0|3:0,0:0:0:0:
314,152,26283,1,0,0:0:0:0:
325,143,26438,2,0,L|269:133,1,50,0|0,3:0|0:0,0:0:0:0:
190,119,26748,5,2,3:0:0:0:
190,119,27058,2,0,P|149:134|133:151,1,50,0|0,3:0|0:0,0:0:0:0:
68,176,27368,2,0,P|31:167|4:147,1,50,0|0,3:0|0:0,0:0:0:0:
72,93,27678,1,2,3:0:0:0:
86,331,28686,6,0,L|190:315,1,100,2|0,3:0|3:0,0:0:0:0:
193,325,29147,1,0,0:0:0:0:
201,334,29301,2,0,P|249:353|260:354,1,50,0|0,3:0|0:0,0:0:0:0:
325,316,29609,6,0,P|335:277|331:251,1,50,0|0,3:0|0:0,0:0:0:0:
383,298,29916,2,0,P|359:265|337:251,1,50,0|0,3:0|0:0,0:0:0:0:
406,241,30224,2,0,P|365:237|340:246,1,50,0|0,3:0|2:0,0:0:0:0:
276,202,30532,70,0,P|241:149|246:93,2,100,0|0|0,1:3|3:0|3:0,0:0:0:0:
288,210,31301,1,0,0:0:0:0:
325,132,31455,1,0,1:0:0:0:
82,213,32468,6,0,L|72:312,2,100,0|0|0,1:0|3:0|3:0,0:0:0:0:
93,206,33251,1,0,0:0:0:0:
41,142,33407,5,0,1:0:0:0:
41,142,33721,2,0,P|71:117|94:112,1,50,0|0,3:0|0:0,0:0:0:0:
143,56,34034,2,0,P|185:69|201:85,1,50,0|0,3:0|0:0,0:0:0:0:
261,126,34347,6,0,L|368:111,1,100,2|0,3:0|3:0,0:0:0:0:
369,122,34817,1,0,0:0:0:0:
377,130,34974,2,0,P|426:152|433:152,1,50,0|0,3:0|0:0,0:0:0:0:
477,89,35287,1,2,3:0:0:0:
450,357,36292,70,0,P|421:309|424:261,1,100,2|0,3:0|3:0,0:0:0:0:
432,259,36758,1,0,0:0:0:0:
443,250,36913,2,0,L|373:239,1,50,0|0,3:0|0:0,0:0:0:0:
301,231,37224,6,0,P|270:255|255:280,1,50,0|0,3:0|0:0,0:0:0:0:
193,330,37535,2,0,P|187:291|173:265,1,50,0|0,3:0|0:0,0:0:0:0:
161,186,37846,2,0,P|197:200|226:201,1,50,0|0,3:0|0:0,0:0:0:0:
291,144,38157,6,0,P|285:78|250:44,2,100,0|0|0,1:0|3:0|3:0,0:0:0:0:
298,154,38926,1,0,0:0:0:0:
212,120,39080,1,0,1:0:0:0:
469,244,40104,6,0,L|365:229,2,100,0|0|0,1:0|3:0|3:0,0:0:0:0:
477,254,40873,1,0,0:0:0:0:
407,313,41027,69,0,1:0:0:0:
407,313,41334,2,0,P|366:337|352:356,1,50,0|0,3:0|0:0,0:0:0:0:
297,384,41642,2,0,P|256:360|242:341,1,50,0|0,3:0|0:0,0:0:0:0:
229,287,41950,6,0,P|192:262|132:257,1,100,2|0,3:0|3:0,0:0:0:0:
129,265,42411,1,0,0:0:0:0:
119,277,42565,2,0,L|110:218,1,50,0|0,3:0|0:0,0:0:0:0:
34,264,42873,1,2,3:0:0:0:
499,322,43850,6,0,L|476:366,1,50,2|0,3:0|0:0,0:0:0:0:
413,305,44159,2,0,L|365:330,1,54.1499988680191,0|0,3:0|0:0,0:0:0:0:
355,243,44468,2,0,L|281:234,1,58.3333325915867,0|0,3:0|0:0,0:0:0:0:
218,285,44777,6,0,P|210:312|187:343,1,62.5,0|0,3:0|0:0,0:0:0:0:
134,260,45087,2,0,P|111:277|67:289,1,66.1666675921546,0|0,3:0|3:0,0:0:0:0:
87,187,45396,2,0,P|58:188|10:171,1,70.3333310080635,0|0,3:0|3:0,0:0:0:0:
157,133,45705,6,0,P|225:130|319:76,1,150.000005722046,0|2,1:3|1:3,0:0:0:0:
344,22,46155,1,0,0:0:0:0:
420,63,46305,2,0,P|436:97|433:140,1,75.0000028610231,0|0,3:0|0:0,0:0:0:0:
400,220,46605,86,0,L|498:205,1,100,2|0,0:0|0:0,0:0:0:0:
511,278,47042,2,0,L|412:292,1,100,2|0,0:0|0:0,0:0:0:0:
333,339,47480,54,0,P|288:323|253:274,1,75.0000028610231,0|0,1:0|0:0,0:0:0:0:
209,234,47784,2,0,P|152:243|90:313,1,150.000005722046,2|0,1:3|3:0,0:0:0:0:
34,367,48241,1,0,0:0:0:0:
23,358,48393,54,0,L|7:243,1,100
53,196,48819,1,0,0:0:0:0:
62,203,48961,2,0,L|54:139,1,50,0|0,0:0|0:0,0:0:0:0:
93,72,49246,22,0,P|141:82|210:168,1,150.000005722046,0|2,1:0|1:3,0:0:0:0:
257,224,49696,2,0,P|314:203|337:177,2,75.0000028610231,0|0|0,1:3|0:0|0:0,0:0:0:0:
193,299,50146,86,0,L|310:319,1,100,2|0,0:0|0:0,0:0:0:0:
348,368,50596,2,0,L|446:384,1,100,0|0,0:0|0:0,0:0:0:0:
507,315,51046,54,0,P|483:255|461:237,1,75.0000028610231,0|0,1:0|0:0,0:0:0:0:
406,191,51346,1,2,1:3:0:0:
440,110,51496,2,0,P|497:113|531:136,2,75.0000028610231,0|0|0,1:3|0:0|0:0,0:0:0:0:
354,120,51946,54,0,L|339:0,1,100,2|0,0:0|0:0,0:0:0:0:
265,33,52396,2,0,L|277:132,1,100,0|0,0:0|0:0,0:0:0:0:
241,208,52846,22,0,P|176:187|130:89,1,150.000005722046,0|2,1:0|1:3,0:0:0:0:
55,78,53305,1,2,3:0:0:0:
3,142,53458,2,0,P|-1:185|13:219,1,75.0000028610231,0|0,3:0|0:0,0:0:0:0:
63,283,53764,86,0,L|174:261,1,100,2|0,0:0|0:0,0:0:0:0:
153,342,54198,2,0,L|251:322,1,100,2|0,0:0|0:0,0:0:0:0:
306,252,54633,54,0,P|363:266|388:290,1,75.0000028610231,0|0,1:0|0:0,0:0:0:0:
442,335,54933,2,0,P|480:276|472:178,1,150.000005722046,2|0,1:3|3:0,0:0:0:0:
436,117,55383,1,0,0:0:0:0:
427,126,55533,54,0,L|312:144,1,100
258,106,55955,1,0,0:0:0:0:
266,99,56096,2,0,L|204:109,1,50,0|0,0:0|0:0,0:0:0:0:
133,69,56378,22,0,P|184:113|173:206,1,150.000005722046,0|2,1:0|1:3,0:0:0:0:
101,234,56837,2,0,P|53:206|7:207,2,75.0000028610231,0|0|0,1:0|0:0|0:0,0:0:0:0:
145,309,57296,86,0,L|265:326,1,100,2|0,0:0|0:0,0:0:0:0:
297,264,57741,2,0,L|396:278,1,100,0|0,0:0|0:0,0:0:0:0:
474,224,58187,54,0,P|506:170|505:125,1,75.0000028610231,0|0,1:0|0:0,0:0:0:0:
444,96,58484,1,2,1:3:0:0:
368,139,58632,2,0,P|316:125|284:94,1,75.0000028610231,0|0,1:0|0:0,0:0:0:0:
249,26,58929,1,0,0:0:0:0:
259,31,59078,54,0,L|378:12,1,100,2|0,0:0|0:0,0:0:0:0:
445,53,59523,1,0,0:0:0:0:
434,47,59672,2,0,L|503:36,1,50,0|0,3:0|0:0,0:0:0:0:
505,120,59969,22,0,P|438:167|401:244,1,150.000005722046,0|2,1:0|1:3,0:0:0:0:
476,293,60430,1,0,0:0:0:0:
466,302,60584,2,0,L|376:323,1,75.0000028610231,0|0,1:3|0:0,0:0:0:0:
307,352,60892,6,0,P|233:327|210:307,1,75.0000028610231,0|0,1:0|0:0,0:0:0:0:
208,240,61199,1,2,1:3:0:0:
196,246,61353,1,0,0:0:0:0:
186,254,61507,2,0,L|199:167,1,75.0000028610231,0|0,1:0|3:0,0:0:0:0:
89,209,61815,6,0,L|110:373,2,150.000005722046,0|2|0,1:0|1:3|1:0,0:0:0:0:
40,134,62566,1,0,0:0:0:0:
77,57,62717,6,0,P|141:35|177:40,1,75.0000028610231,0|0,1:0|0:0,0:0:0:0:
243,71,63018,1,2,1:3:0:0:
234,81,63168,1,0,0:0:0:0:
226,93,63318,2,0,P|259:104|311:102,1,75.0000028610231,0|0,1:0|3:0,0:0:0:0:
391,77,63619,69,0,1:0:0:0:
391,77,63924,2,0,L|380:164,1,75.0000028610231,2|0,3:3|0:0,0:0:0:0:
475,94,64229,2,0,L|465:168,1,75.0000028610231,0|0,3:3|0:0,0:0:0:0:
479,255,64535,5,0,1:3:0:0:
479,255,64840,2,0,L|390:277,1,75.0000028610231,2|0,3:0|0:0,0:0:0:0:
494,339,65145,2,0,L|405:361,1,75.0000028610231,0|0,3:3|0:3,0:0:0:0:
317,321,65451,6,0,L|341:166,2,150.000005722046,0|2|0,1:0|3:0|3:0,0:0:0:0:
239,358,66206,1,0,0:0:0:0:
178,289,66357,5,0,1:0:0:0:
187,282,66508,2,0,P|137:259|94:262,1,75.0000028610231,0|0,3:0|0:0,0:0:0:0:
6,220,66811,2,0,P|64:190|91:159,1,75.0000028610231,0|0,1:0|3:0,0:0:0:0:
104,103,67113,1,2,3:0:0:0:
185,136,67264,69,0,1:0:0:0:
185,136,67566,2,0,L|201:240,2,75.0000028610231,0|0|0,3:3|3:0|0:0,0:0:0:0:
211,54,68020,1,0,3:0:0:0:
294,31,68171,6,0,P|341:47|367:76,1,75.0000028610231,0|0,1:3|0:0,0:0:0:0:
450,64,68475,2,0,P|386:93|365:174,1,150.000005722046,2|0,3:3|3:0,0:0:0:0:
411,247,68932,1,0,3:0:0:0:
418,237,69084,6,0,L|505:220,2,75.0000028610231,0|0|0,1:0|0:0|3:0,0:0:0:0:
335,277,69541,1,2,3:3:0:0:
345,285,69693,2,0,L|237:269,1,75.0000028610231,0|0,0:0|3:0,0:0:0:0:
193,239,69998,6,0,P|156:255|130:295,1,75,0|0,1:3|0:0,0:0:0:0:
117,372,70298,2,0,P|109:298|57:246,1,150.000005722046,2|0,3:0|3:0,0:0:0:0:
14,168,70748,1,0,3:0:0:0:
82,115,70898,69,0,1:0:0:0:
82,115,71198,2,0,L|163:128,1,75.0000028610231,2|0,3:0|0:0,0:0:0:0:
224,69,71498,2,0,L|298:57,1,75.0000028610231,0|0,3:0|0:0,0:0:0:0:
376,94,71798,5,0,1:0:0:0:
376,94,72098,2,0,L|361:175,1,75.0000028610231,2|0,0:3|0:0,0:0:0:0:
469,116,72398,2,0,L|455:42,1,75.0000028610231,0|0,3:0|0:0,0:0:0:0:
372,4,72698,5,0,1:0:0:0:
372,4,72998,2,0,P|321:26|302:64,1,75.0000028610231,2|0,3:3|0:0,0:0:0:0:
230,77,73298,2,0,P|233:133|254:164,1,75.0000028610231,0|0,3:3|0:0,0:0:0:0:
326,194,73598,5,0,1:0:0:0:
316,203,73749,2,0,L|306:282,1,75.0000028610231,0|0,3:3|0:0,0:0:0:0:
235,336,74053,2,0,P|215:319|151:310,1,75.0000028610231,0|0,1:0|3:0,0:0:0:0:
85,339,74357,1,2,3:0:0:0:
40,264,74509,69,2,1:3:0:0:
267,23,81936,54,0,P|320:40|355:86,1,100,2|0,3:0|3:0,0:0:0:0:
340,83,82386,1,0,0:0:0:0:
331,93,82536,2,0,L|322:159,1,50,0|0,3:3|0:0,0:0:0:0:
414,131,82836,1,2,3:0:0:0:
197,351,83819,5,2,3:0:0:0:
197,351,84125,2,0,P|238:325|251:305,1,50,0|0,3:0|0:0,0:0:0:0:
170,273,84431,2,0,P|180:225|175:202,1,50,0|0,3:0|0:0,0:0:0:0:
101,241,84737,6,0,P|70:196|67:131,1,100,2|0,3:0|3:0,0:0:0:0:
74,157,85199,1,0,0:0:0:0:
83,164,85353,2,0,L|146:151,1,50,0|0,3:0|3:0,0:0:0:0:
180,86,85662,5,2,3:0:0:0:
180,86,85970,2,0,P|219:105|233:123,1,50,0|0,3:0|3:0,0:0:0:0:
299,149,86279,2,0,P|335:120|344:96,1,50,0|0,0:0|0:0,0:0:0:0:
350,38,86587,1,2,3:0:0:0:
498,300,87549,70,0,P|452:260|393:251,1,100,2|0,3:0|3:0,0:0:0:0:
406,259,87999,1,0,0:0:0:0:
398,268,88149,2,0,L|338:280,1,50,0|0,3:0|0:0,0:0:0:0:
263,273,88449,6,0,P|245:242|239:211,1,50,0|0,3:0|0:0,0:0:0:0:
238,302,88759,2,0,P|205:286|182:264,1,50,0|0,3:0|0:0,0:0:0:0:
234,340,89070,2,0,P|198:346|167:341,1,50,0|0,3:0|0:0,0:0:0:0:
115,300,89381,6,0,L|99:186,1,100,2|0,3:0|3:0,0:0:0:0:
112,194,89840,1,0,0:0:0:0:
122,186,89993,2,0,P|143:148|146:122,1,50,0|0,3:0|0:0,0:0:0:0:
86,83,90299,1,2,3:0:0:0:
475,48,91241,5,2,3:0:0:0:
475,48,91547,2,0,P|428:78|422:89,1,50,0|0,3:0|0:0,0:0:0:0:
369,133,91853,2,0,P|339:86|328:80,1,50,0|0,3:0|0:0,0:0:0:0:
262,73,92159,70,0,P|221:96|201:157,1,100,2|0,3:0|3:0,0:0:0:0:
191,153,92625,1,0,0:0:0:0:
182,164,92780,2,0,L|189:219,1,50,0|0,3:0|3:0,0:0:0:0:
266,261,93091,6,0,L|255:368,1,100,2|0,3:0|3:0,0:0:0:0:
180,301,93557,2,0,P|123:317|88:361,1,100,0|0,3:0|0:0,0:0:0:0:
15,362,94024,1,2,3:0:0:0:
277,161,94998,6,0,P|303:212|359:241,1,100,2|0,3:0|3:0,0:0:0:0:
349,242,95467,1,0,0:0:0:0:
361,247,95623,2,0,L|420:238,1,50,0|0,3:0|0:0,0:0:0:0:
447,161,95936,6,0,P|418:131|409:103,1,50,0|0,3:0|0:0,0:0:0:0:
386,155,96249,2,0,P|397:114|417:93,1,50,0|0,3:0|0:0,0:0:0:0:
360,99,96562,2,0,P|400:88|429:95,1,50,0|0,3:0|0:0,0:0:0:0:
492,86,96875,70,0,L|505:-30,2,100,0|0|0,1:0|3:0|3:0,0:0:0:0:
481,97,97657,1,0,0:0:0:0:
416,28,97814,1,0,1:0:0:0:
53,218,98788,6,0,P|111:180|159:185,2,100,0|0|0,1:0|3:0|3:0,0:0:0:0:
49,231,99553,1,0,0:0:0:0:
130,267,99706,5,0,1:0:0:0:
130,267,100012,2,0,P|119:297|121:331,1,50,0|0,3:0|0:0,0:0:0:0:
194,353,100318,2,0,P|232:330|255:328,1,50,0|0,3:0|0:0,0:0:0:0:
322,362,100624,6,0,P|394:350|426:325,1,100,2|0,3:0|3:0,0:0:0:0:
426,343,101080,1,0,0:0:0:0:
439,349,101233,2,0,L|447:290,1,50,0|0,3:0|0:0,0:0:0:0:
453,218,101537,1,0,1:0:0:0:
241,39,102498,70,0,L|258:154,1,100,2|0,3:0|3:0,0:0:0:0:
263,148,102954,1,0,0:0:0:0:
271,157,103107,2,0,P|239:180|217:184,1,50,0|0,3:0|0:0,0:0:0:0:
142,141,103411,6,0,L|135:190,1,50,0|0,3:0|0:0,0:0:0:0:
99,267,103716,2,0,L|59:236,1,50,0|0,3:0|0:0,0:0:0:0:
11,170,104020,2,0,L|57:150,1,50,0|0,3:0|3:0,0:0:0:0:
87,70,104325,6,0,P|50:35|-16:31,2,100,0|0|0,1:0|3:0|3:0,0:0:0:0:
97,78,105086,1,0,0:0:0:0:
167,18,105239,1,0,1:0:0:0:
278,186,106219,6,0,L|264:302,2,100,0|0|0,1:0|3:0|3:0,0:0:0:0:
289,177,106978,1,0,0:0:0:0:
355,251,107130,69,0,1:0:0:0:
355,251,107435,2,0,P|394:226|419:224,1,50,0|0,3:0|0:0,0:0:0:0:
477,262,107740,2,0,P|485:310|480:333,1,50,0|0,3:0|0:0,0:0:0:0:
427,376,108046,6,0,P|368:343|317:344,1,100,2|0,3:0|3:0,0:0:0:0:
327,350,108504,1,0,0:0:0:0:
317,358,108656,2,0,L|250:371,1,50,0|0,3:0|0:0,0:0:0:0:
194,327,108962,1,2,3:0:0:0:
51,48,109915,6,0,L|41:97,1,50,2|0,3:0|0:0,0:0:0:0:
124,110,110219,2,0,L|156:157,1,54.1666659779019,0|0,3:0|0:0,0:0:0:0:
219,102,110524,2,0,L|281:114,1,58.3333325915867,0|0,3:0|0:0,0:0:0:0:
355,72,110828,6,0,P|402:45|425:44,1,62.5,0|0,3:0|0:0,0:0:0:0:
402,146,111133,2,0,P|454:160|477:181,1,66.1666675921546,0|0,3:0|0:0,0:0:0:0:
375,227,111437,2,0,P|401:273|401:313,1,70.3333310080635,0|0,3:0|3:0,0:0:0:0:
324,345,111742,6,0,P|259:303|159:302,1,150.000005722046,0|2,1:0|1:3,0:0:0:0:
108,328,112192,1,0,0:0:0:0:
47,272,112342,2,0,P|23:230|19:180,1,75.0000028610231,0|0,3:0|0:0,0:0:0:0:
97,162,112642,86,0,L|206:178,1,100,2|0,0:0|0:0,0:0:0:0:
146,93,113068,2,0,L|244:107,1,100,2|0,0:0|0:0,0:0:0:0:
315,168,113495,54,0,P|354:162|395:135,1,75.0000028610231,0|0,1:0|0:0,0:0:0:0:
474,115,113795,2,0,P|429:155|405:244,1,150.000005722046,2|0,1:3|3:0,0:0:0:0:
456,337,114245,1,0,0:0:0:0:
445,328,114395,54,0,L|331:311,1,100
275,347,114821,1,0,0:0:0:0:
284,357,114963,2,0,L|230:348,1,50,0|0,0:0|0:0,0:0:0:0:
142,375,115248,22,0,P|105:363|36:274,1,150.000005722046,0|2,1:0|1:3,0:0:0:0:
102,221,115693,2,0,P|152:241|185:237,2,75.0000028610231,0|0|0,1:0|0:0|0:0,0:0:0:0:
59,140,116139,86,0,L|45:26,1,100,2|0,0:0|0:0,0:0:0:0:
119,13,116578,2,0,L|131:112,1,100,0|0,0:0|0:0,0:0:0:0:
214,49,117017,54,0,P|282:75|299:95,1,75.0000028610231,0|0,1:0|0:0,0:0:0:0:
333,153,117326,1,2,1:3:0:0:
412,125,117480,2,0,P|431:85|433:43,2,75.0000028610231,0|0|0,1:0|0:0|0:0,0:0:0:0:
333,153,117944,54,0,L|323:264,1,100,2|0,0:0|0:0,0:0:0:0:
254,187,118378,2,0,L|244:298,1,100,0|0,0:0|0:0,0:0:0:0:
300,366,118813,22,0,P|372:351|426:297,1,150.000005722046,0|0,1:0|1:3,0:0:0:0:
400,214,119252,1,2,3:0:0:0:
333,153,119398,2,0,P|340:116|363:87,1,75.0000028610231,0|0,3:0|0:0,0:0:0:0:
403,2,119691,86,0,L|304:17,1,100,2|0,0:0|0:0,0:0:0:0:
269,88,120145,2,0,L|170:103,1,100,2|0,0:0|0:0,0:0:0:0:
91,64,120600,54,0,P|58:91|46:132,1,75,0|0,1:0|0:0,0:0:0:0:
8,204,120898,2,0,P|75:220|132:302,1,150.000005722046,2|0,1:3|3:0,0:0:0:0:
193,359,121346,1,0,0:0:0:0:
202,350,121495,54,0,L|217:228,1,100
304,231,121943,1,0,0:0:0:0:
293,239,122092,2,0,L|286:288,1,50,0|0,0:0|0:0,0:0:0:0:
356,346,122391,22,0,P|428:298|445:233,1,150.000005722046,0|2,1:0|1:3,0:0:0:0:
438,150,122850,2,0,P|478:110|513:102,2,75.0000028610231,0|0|0,1:0|0:0|0:0,0:0:0:0:
364,201,123309,86,0,L|257:184,1,100,2|0,0:0|0:0,0:0:0:0:
328,119,123745,2,0,L|221:102,1,100,0|0,0:0|0:0,0:0:0:0:
170,169,124182,54,0,P|123:149|99:116,1,75.0000028610231,0|0,1:0|0:0,0:0:0:0:
46,69,124482,1,2,1:3:0:0:
0,139,124632,2,0,P|-2:176|12:214,1,75.0000028610231,0|0,1:0|0:0,0:0:0:0:
106,226,124932,1,0,0:0:0:0:
97,235,125082,54,0,L|110:349,1,100,2|0,0:0|0:0,0:0:0:0:
191,292,125547,1,0,0:0:0:0:
182,301,125702,2,0,L|188:358,1,50,0|0,3:0|0:0,0:0:0:0:
263,265,126012,22,0,P|331:272|410:326,1,150.000005722046,0|2,1:0|1:3,0:0:0:0:
468,379,126468,1,0,0:0:0:0:
478,371,126621,2,0,L|487:265,1,75.0000028610231,0|0,1:0|0:0,0:0:0:0:
426,226,126925,6,0,L|417:120,1,75.0000028610231,0|0,1:0|0:0,0:0:0:0:
435,38,127235,1,2,1:3:0:0:
427,50,127390,1,0,0:0:0:0:
419,62,127545,2,0,P|362:87|315:87,1,75.0000028610231,0|0,1:0|3:0,0:0:0:0:
271,129,127855,6,0,L|422:151,2,150.000005722046,0|2|0,1:0|1:3|1:0,0:0:0:0:
195,84,128622,1,0,0:0:0:0:
117,121,128775,6,0,P|97:174|101:213,1,75,0|0,1:0|0:0,0:0:0:0:
36,251,129084,1,2,1:3:0:0:
45,260,129238,1,0,0:0:0:0:
54,269,129393,2,0,P|111:302|152:306,1,75.0000028610231,0|0,1:0|3:0,0:0:0:0:
204,274,129702,69,0,1:0:0:0:
204,274,130012,2,0,L|295:265,1,75.0000028610231,2|0,3:0|0:0,0:0:0:0:
231,356,130321,2,0,L|322:347,1,75.0000028610231,0|0,3:0|0:0,0:0:0:0:
378,293,130630,5,0,1:0:0:0:
378,293,130939,2,0,L|392:204,1,75.0000028610231,2|0,3:0|0:0,0:0:0:0:
466,284,131249,2,0,L|480:195,1,75.0000028610231,0|0,3:0|0:0,0:0:0:0:
425,139,131558,6,0,L|399:-27,2,150.000005722046,0|2|0,1:3|3:0|3:0,0:0:0:0:
389,218,132315,1,0,0:0:0:0:
306,182,132467,5,0,1:0:0:0:
315,174,132620,2,0,P|272:192|251:214,1,75,0|0,3:0|0:0,0:0:0:0:
190,282,132926,2,0,P|172:239|150:218,1,75,0|0,1:0|3:0,0:0:0:0:
71,189,133232,1,2,3:0:0:0:
139,135,133385,69,0,1:0:0:0:
139,135,133697,2,0,L|147:46,2,75,0|0|0,3:0|3:0|0:0,0:0:0:0:
71,189,134166,1,0,3:0:0:0:
152,219,134322,6,0,P|214:195|231:176,1,75.0000028610231,0|0,1:0|0:0,0:0:0:0:
260,114,134630,2,0,P|250:187|285:251,1,150.000005722046,2|0,3:3|3:0,0:0:0:0:
366,289,135093,1,0,3:0:0:0:
375,297,135247,6,0,L|386:384,2,75.0000028610231,0|0|0,1:0|0:0|3:0,0:0:0:0:
426,228,135710,1,2,3:0:0:0:
435,221,135864,2,0,L|445:129,1,75.0000028610231,0|0,0:0|3:0,0:0:0:0:
397,70,136172,6,0,P|346:54|313:58,1,75.0000028610231,0|0,1:0|0:0,0:0:0:0:
260,114,136475,2,0,P|211:156|117:148,1,150.000005722046,2|0,3:0|3:0,0:0:0:0:
56,107,136931,1,0,3:0:0:0:
11,179,137083,69,0,1:0:0:0:
11,179,137392,2,0,L|22:258,1,75,2|0,3:0|0:0,0:0:0:0:
109,242,137701,2,0,L|98:321,1,75,0|0,3:0|0:0,0:0:0:0:
186,293,138010,5,0,1:0:0:0:
186,293,138320,2,0,L|276:271,1,75.0000028610231,2|0,3:0|0:0,0:0:0:0:
240,366,138629,2,0,L|312:383,1,75.0000028610231,0|0,3:0|0:0,0:0:0:0:
402,357,138938,5,0,1:0:0:0:
402,357,139244,2,0,P|428:289|426:273,1,75.0000028610231,2|0,3:0|0:0,0:0:0:0:
489,227,139550,2,0,P|459:160|446:150,1,75.0000028610231,0|0,3:0|0:0,0:0:0:0:
368,122,139856,5,0,1:0:0:0:
379,129,140009,2,0,L|367:40,1,75.0000028610231,0|0,3:0|0:0,0:0:0:0:
298,7,140315,2,0,P|266:55|241:72,1,75.0000028610231,0|0,1:0|3:0,0:0:0:0:
166,55,140621,1,2,3:0:0:0:
124,130,140774,69,2,1:3:0:0:
366,265,143949,53,2,3:3:0:0:
376,258,144105,2,0,P|423:270|465:308,1,100,0|0,3:0|3:0,0:0:0:0:
494,371,144571,1,2,3:0:0:0:
