osu file format v14

[General]
AudioFilename: audio.mp3
AudioLeadIn: 0
PreviewTime: 51005
Countdown: 1
SampleSet: None
StackLeniency: 0.7
Mode: 0
LetterboxInBreaks: 0
WidescreenStoryboard: 1
SamplesMatchPlaybackRate: 1

[Editor]
DistanceSpacing: 1.4
BeatDivisor: 4
GridSize: 4
TimelineZoom: 1.3

[Metadata]
Title:SEN NO TSUBASA (TV Size)
TitleUnicode:SEN NO TSUBASA (TV Size)
Artist:Livetune adding Takuro Sugawara(from 9mm Parabellum Bullet)
ArtistUnicode:Livetune adding Takuro Sugawara(from 9mm Parabellum Bullet)
Creator:Blakki
Version:Normal
Source:Re:␣ ハマトラ
Tags:Re Hamatora Hajime Nice sugfa El del parche que tiene la voz de mamado Yuuki Kodama opening 1 tv size
BeatmapID:1738049
BeatmapSetID:829584

[Difficulty]
HPDrainRate:3
CircleSize:3
OverallDifficulty:3
ApproachRate:4.5
SliderMultiplier:0.9
SliderTickRate:1

[Events]
//Background and Video events
0,0,"HAMATORA.jpg",0,0
Video,0,"video.avi"
//Break Periods
//Storyboard Layer 0 (Background)
//Storyboard Layer 1 (Fail)
//Storyboard Layer 2 (Pass)
//Storyboard Layer 3 (Foreground)
//Storyboard Sound Samples

[TimingPoints]
182,352.941437125748,4,2,1,100,1,0
4417,-90.9090909090909,4,2,1,100,0,0
5123,-83.3333333333333,4,2,1,100,0,0
51005,-76.9230769230769,4,2,1,100,0,1
76417,-76.9230769230769,4,2,1,100,0,0

[HitObjects]
144,112,182,6,0,L|152:256,1,135
151,246,1064,2,0,L|148:192,1,45
280,236,1593,6,0,L|272:101,1,135
273,102,2475,2,0,L|275:146,1,45
360,260,3005,6,0,P|396:268|484:224,1,135
481,227,3887,2,0,P|454:225|423:207,1,45
332,124,4417,6,0,B|321:94|321:94|331:43,2,74.2500022659302
276,192,5123,2,0,P|244:200|148:180,1,107.999996704102
32,228,5829,6,0,L|36:112,1,107.999996704102
144,28,6534,2,0,B|184:20|184:20|232:32|232:32|264:20,1,107.999996704102
344,132,7240,2,0,P|380:120|448:136,1,107.999996704102
440,296,7946,6,0,P|404:308|336:292,1,107.999996704102
248,188,8652,1,0,0:0:0:0:
168,296,9005,2,0,L|60:292,1,107.999996704102
0,144,9711,6,0,P|36:131|104:147,1,107.999996704102
232,104,10417,2,0,P|282:119|334:107,1,107.999996704102
436,4,11123,5,0,0:0:0:0:
496,132,11476,2,0,L|496:244,1,107.999996704102
404,312,12182,6,0,P|352:296|300:312,1,107.999996704102
212,240,12887,2,0,L|212:132,1,107.999996704102
124,60,13593,2,0,P|72:74|22:58,1,107.999996704102
20,52,14299,5,0,0:0:0:0:
20,172,14652,1,0,0:0:0:0:
136,172,15005,1,0,0:0:0:0:
136,292,15358,1,0,0:0:0:0:
252,292,15711,1,0,0:0:0:0:
252,292,16770,5,0,0:0:0:0:
344,220,17123,2,0,L|432:224,2,80.9999975280763
288,152,17829,2,0,L|292:44,1,107.999996704102
116,8,18534,6,0,P|108:48|120:116,1,107.999996704102
80,200,19064,1,0,0:0:0:0:
148,264,19240,2,0,L|256:260,1,107.999996704102
344,220,19946,6,0,L|432:224,2,80.9999975280763
288,152,20652,2,0,P|228:138|181:152,1,107.999996704102
136,220,21182,1,0,0:0:0:0:
72,164,21358,2,0,L|76:84,2,80.9999975280763
136,220,22064,6,0,P|196:234|243:220,1,107.999996704102
288,152,22593,1,0,0:0:0:0:
360,196,22770,2,0,L|440:192,2,80.9999975280763
308,260,23476,2,0,P|296:308|316:376,1,107.999996704102
184,348,24182,6,0,B|148:356|148:356|96:344,2,80.9999975280763
220,272,24887,1,0,0:0:0:0:
64,240,25240,1,0,0:0:0:0:
152,104,25593,6,0,L|232:108,2,80.9999975280763
132,20,26299,2,0,L|240:24,1,107.999996704102
384,32,27005,5,0,0:0:0:0:
484,124,27358,1,0,0:0:0:0:
388,224,27711,2,0,L|392:292,1,53.9999983520508
328,336,28064,6,0,L|272:332,1,53.9999983520508
220,264,28417,2,0,P|216:232|228:184,2,80.9999975280763
148,308,29123,1,0,0:0:0:0:
52,204,29476,5,0,0:0:0:0:
168,108,29829,2,0,L|276:108,1,107.999996704102
352,144,30358,2,0,P|372:208|292:228,1,161.999995056153
312,332,31240,6,0,L|392:328,2,80.9999975280763
228,316,31946,2,0,B|192:304|192:304|156:316|156:316|104:308,1,107.999996704102
32,184,32652,6,0,B|68:196|68:196|103:184|103:184|156:192,1,107.999996704102
176,116,33182,2,0,P|216:168|168:264,1,161.999995056153
208,336,33887,5,0,0:0:0:0:
280,292,34064,2,0,B|312:288|312:288|364:292,2,80.9999975280763
232,220,34770,2,0,L|236:112,1,107.999996704102
312,24,35476,6,0,L|392:28,2,80.9999975280763
228,32,36182,2,0,P|168:44|104:20,1,107.999996704102
80,136,36887,6,0,L|0:140,2,80.9999975280763
164,144,37593,2,0,P|224:156|288:132,1,107.999996704102
344,104,38123,5,0,0:0:0:0:
380,184,38299,2,0,L|376:292,1,107.999996704102
264,320,39005,6,0,P|224:308|212:300,1,53.9999983520508
156,236,39358,2,0,L|156:180,1,53.9999983520508
156,96,39711,6,0,P|208:80|268:100,1,107.999996704102
380,184,40417,2,0,L|488:180,1,107.999996704102
408,48,41123,6,0,L|300:52,1,107.999996704102
208,164,41829,2,0,P|152:176|104:160,1,107.999996704102
12,240,42534,6,0,L|16:320,2,80.9999975280763
12,156,43240,2,0,L|16:48,1,107.999996704102
88,4,43946,6,0,P|126:13|165:1,2,80.9999975280763
15,48,44652,2,0,L|19:104,2,53.9999983520508
256,192,45358,12,0,49593,0:0:0:0:
144,156,50652,5,0,0:0:0:0:
248,184,51005,2,0,L|332:152,2,87.749995983124
248,272,51711,6,0,P|304:288|364:268,1,116.999994644165
416,208,52240,1,0,0:0:0:0:
380,128,52417,2,0,L|384:40,2,87.749995983124
296,128,53123,2,0,L|292:40,2,87.749995983124
236,188,53829,6,0,B|196:200|196:200|144:184,2,87.749995983124
312,224,54534,1,0,0:0:0:0:
400,164,54887,5,0,0:0:0:0:
465,110,55064,1,0,0:0:0:0:
399,55,55240,2,0,L|311:49,2,87.749995983124
465,110,55946,6,0,P|468:160|461:190,1,58.4999973220826
436,248,56299,2,0,L|440:308,1,58.4999973220826
372,360,56652,2,0,P|332:370|280:356,2,87.749995983124
328,284,57358,6,0,L|212:288,1,116.999994644165
136,248,57887,1,0,0:0:0:0:
84,316,58064,6,0,P|44:320|-4:296,2,87.749995983124
136,248,58770,1,0,0:0:0:0:
220,152,59123,6,0,P|256:144|284:152,1,58.4999973220826
336,212,59476,2,0,L|332:300,2,87.749995983124
376,136,60182,2,0,P|423:126|468:140,2,87.749995983124
312,80,60887,6,0,L|196:84,1,116.999994644165
124,132,61417,1,0,0:0:0:0:
184,196,61593,2,0,P|200:232|172:328,1,116.999994644165
288,368,62299,6,0,L|376:364,2,87.749995983124
268,284,63005,2,0,L|396:276,1,116.999994644165
448,216,63534,5,0,0:0:0:0:
396,144,63711,2,0,L|308:144,2,87.749995983124
420,60,64417,2,0,L|508:60,2,87.749995983124
344,20,65123,2,0,P|304:12|244:28,2,87.749995983124
344,108,65829,6,0,L|228:104,1,116.999994644165
160,156,66358,1,0,0:0:0:0:
92,208,66534,2,0,P|48:212|4:192,2,87.749995983124
140,280,67240,6,0,L|200:276,1,58.4999973220826
276,240,67593,2,0,L|334:243,1,58.4999973220826
420,248,67946,6,0,L|416:340,2,87.749995983124
480,188,68652,2,0,P|496:140|476:76,1,116.999994644165
412,20,69182,1,0,0:0:0:0:
352,84,69358,6,0,L|264:80,2,87.749995983124
348,172,70064,2,0,L|260:168,2,87.749995983124
428,208,70770,2,0,B|444:256|444:256|432:328,1,116.999994644165
352,352,71299,5,0,0:0:0:0:
272,312,71476,2,0,L|156:316,1,116.999994644165
116,192,72182,6,0,P|164:172|232:188,1,116.999994644165
296,132,72711,1,0,0:0:0:0:
360,192,72887,2,0,L|476:192,1,116.999994644165
256,192,73593,12,0,75711,0:0:0:0:
477,192,76417,6,0,L|352:188,1,116.999994644165
244,264,77123,5,0,0:0:0:0:
244,264,77476,1,0,0:0:0:0:
148,176,77829,2,0,P|84:168|16:196,1,116.999994644165
12,40,78534,6,0,L|128:44,1,116.999994644165
244,112,79240,2,0,L|360:108,1,116.999994644165
416,240,79946,6,0,B|412:284|412:284|394:321|394:321|392:357,1,116.999994644165
220,224,80652,2,0,B|221:192|221:192|239:155|239:155|243:111,1,116.999994644165
320,20,81358,6,0,P|364:16|436:56,1,116.999994644165
392,204,82064,6,0,P|348:207|276:167,1,116.999994644165
260,72,82770,1,0,0:0:0:0:
176,132,83123,2,0,L|60:128,1,116.999994644165
52,276,83829,6,0,L|168:280,1,116.999994644165
256,216,84535,1,0,0:0:0:0:
344,280,84887,6,0,L|460:276,1,116.999994644165
508,172,85593,1,0,0:0:0:0:
416,96,85946,1,0,0:0:0:0:
328,176,86299,6,0,L|208:172,1,116.999994644165
152,304,87005,6,0,L|32:300,1,116.999994644165
0,180,87711,1,0,0:0:0:0:
