osu file format v14

[General]
AudioFilename: audio.mp3
AudioLeadIn: 0
PreviewTime: 51005
Countdown: 1
SampleSet: Soft
StackLeniency: 0.3
Mode: 0
LetterboxInBreaks: 0
WidescreenStoryboard: 1

[Editor]
DistanceSpacing: 1.4
BeatDivisor: 4
GridSize: 4
TimelineZoom: 1.7

[Metadata]
Title:SEN NO TSUBASA (TV Size)
TitleUnicode:SEN NO TSUBASA (TV Size)
Artist:Livetune adding Takuro Sugawara(from 9mm Parabellum Bullet)
ArtistUnicode:Livetune adding Takuro Sugawara(from 9mm Parabellum Bullet)
Creator:Blakki
Version:Extra
Source:Re:␣ ハマトラ
Tags:Re Hamatora Hajime Nice sugfa El del parche que tiene la voz de mamado Yuuki Kodama opening 1 tv size
BeatmapID:1738045
BeatmapSetID:829584

[Difficulty]
HPDrainRate:4.5
CircleSize:4.2
OverallDifficulty:4.5
ApproachRate:9.3
SliderMultiplier:1.3
SliderTickRate:1

[Events]
//Background and Video events
0,0,"HAMATORA.jpg",0,0
Video,0,"video.avi"
//Break Periods
//Storyboard Layer 0 (Background)
//Storyboard Layer 1 (Fail)
//Storyboard Layer 2 (Pass)
//Storyboard Layer 3 (Foreground)
//Storyboard Sound Samples

[TimingPoints]
182,352.941437125748,4,2,0,100,1,0
5476,-40,4,2,0,100,0,0
5829,-50,4,2,0,100,0,0
17123,-66.6666666666667,4,2,0,100,0,0
48887,-50,4,2,0,100,0,0
49593,-58.8235294117647,4,2,0,100,0,0
51005,-50,4,2,0,100,0,1
76417,-50,4,2,0,100,0,0

[HitObjects]
220,72,182,5,0,0:0:0:0:
240,106,270,1,0,0:0:0:0:
247,145,358,1,0,0:0:0:0:
241,185,446,1,0,0:0:0:0:
221,220,534,1,0,0:0:0:0:
316,112,711,5,0,0:0:0:0:
355,108,799,1,0,0:0:0:0:
394,119,887,1,0,0:0:0:0:
221,220,1064,5,0,0:0:0:0:
221,220,1240,1,0,0:0:0:0:
164,112,1593,5,0,0:0:0:0:
123,113,1681,1,0,0:0:0:0:
83,115,1769,1,0,0:0:0:0:
43,117,1857,1,0,0:0:0:0:
2,119,1945,1,0,0:0:0:0:
52,276,2123,5,0,0:0:0:0:
92,280,2211,1,0,0:0:0:0:
130,270,2299,1,0,0:0:0:0:
2,119,2476,5,0,0:0:0:0:
2,119,2652,1,0,0:0:0:0:
140,24,3005,5,0,0:0:0:0:
175,42,3093,1,0,0:0:0:0:
215,47,3181,1,0,0:0:0:0:
254,38,3269,1,0,0:0:0:0:
288,18,3357,1,0,0:0:0:0:
392,116,3534,5,0,0:0:0:0:
400,154,3622,1,0,0:0:0:0:
393,194,3710,1,0,0:0:0:0:
288,18,3888,5,0,0:0:0:0:
288,18,4064,1,0,0:0:0:0:
188,152,4417,6,0,L|88:148,2,97.5
204,252,5123,6,0,L|304:248,1,97.5
388,240,5476,2,0,P|440:228|376:276,1,243.75
301,248,5829,6,0,L|304:116,1,130
212,68,6093,1,0,0:0:0:0:
212,68,6182,6,0,L|209:197,1,130
116,252,6446,1,0,0:0:0:0:
116,252,6534,6,0,L|119:120,1,130
27,72,6798,1,0,0:0:0:0:
27,72,6887,6,0,L|24:201,1,130
144,312,7152,5,0,0:0:0:0:
144,312,7240,2,0,P|76:328|8:288,1,130
180,240,7505,5,0,0:0:0:0:
180,240,7593,2,0,P|248:256|316:216,1,130
292,108,7858,5,0,0:0:0:0:
292,108,7946,2,0,P|224:92|156:132,1,130
328,36,8211,5,0,0:0:0:0:
328,36,8299,2,0,P|396:20|464:60,1,130
440,216,8564,5,0,0:0:0:0:
440,216,8652,2,0,B|348:224|348:224|320:200,1,130
124,284,8917,5,0,0:0:0:0:
124,284,9005,2,0,B|216:292|216:292|244:268,1,130
416,108,9270,5,0,0:0:0:0:
416,108,9358,2,0,B|324:116|324:116|296:92,1,130
100,176,9623,5,0,0:0:0:0:
100,176,9711,2,0,B|192:184|192:184|220:160,1,130
96,46,9976,5,0,0:0:0:0:
96,46,10064,2,0,L|100:182,1,130
220,159,10329,5,0,0:0:0:0:
220,159,10417,2,0,L|216:295,1,130
336,24,10682,5,0,0:0:0:0:
336,24,10770,2,0,L|340:160,1,130
460,137,11035,5,0,0:0:0:0:
460,137,11123,2,0,L|456:273,1,130
368,348,11387,5,0,0:0:0:0:
368,348,11476,2,0,L|236:344,1,130
76,236,11740,5,0,0:0:0:0:
76,236,11829,2,0,L|208:232,1,130
376,128,12093,5,0,0:0:0:0:
376,128,12182,2,0,L|244:124,1,130
84,16,12446,5,0,0:0:0:0:
84,16,12535,2,0,L|216:12,1,130
312,8,12799,5,0,0:0:0:0:
312,8,12888,2,0,L|441:11,1,130
512,124,13152,5,0,0:0:0:0:
512,124,13240,2,0,P|528:188|504:248,1,130
384,304,13505,5,0,0:0:0:0:
384,304,13593,2,0,B|296:296|296:296|260:316,1,130
116,200,13858,5,0,0:0:0:0:
116,200,13946,2,0,B|204:208|204:208|240:188,1,130
228,28,14211,5,0,0:0:0:0:
228,28,14299,2,0,L|96:32,1,130
108,284,14564,5,0,0:0:0:0:
108,284,14652,2,0,L|304:276,1,195
384,268,15005,5,0,0:0:0:0:
399,227,15093,1,0,0:0:0:0:
397,184,15181,1,0,0:0:0:0:
377,147,15269,1,0,0:0:0:0:
360,68,15358,5,0,0:0:0:0:
321,88,15446,1,0,0:0:0:0:
277,95,15534,1,0,0:0:0:0:
234,86,15622,1,0,0:0:0:0:
197,63,15710,1,0,0:0:0:0:
32,200,16240,5,0,0:0:0:0:
32,200,16329,1,0,0:0:0:0:
32,200,16417,2,0,L|168:196,1,130
272,192,16770,5,0,0:0:0:0:
160,92,16946,1,0,0:0:0:0:
168,300,17123,6,0,L|316:292,1,146.250005578995
272,192,17476,6,0,L|172:196,1,97.50000371933
296,40,17829,1,0,0:0:0:0:
296,40,17917,1,0,0:0:0:0:
296,40,18005,1,0,0:0:0:0:
363,204,18182,5,0,0:0:0:0:
208,112,18358,1,0,0:0:0:0:
364,8,18534,6,0,L|510:15,1,146.250005578995
460,210,18887,6,0,L|340:202,1,97.50000371933
284,112,19240,5,0,0:0:0:0:
284,112,19329,1,0,0:0:0:0:
284,112,19417,1,0,0:0:0:0:
204,296,19593,5,0,0:0:0:0:
362,203,19770,1,0,0:0:0:0:
184,140,19946,6,0,B|164:240|164:240|200:296,1,146.250005578995
269,207,20299,2,0,P|317:191|373:211,1,97.50000371933
204,60,20652,5,0,0:0:0:0:
204,60,20740,1,0,0:0:0:0:
204,60,20828,1,0,0:0:0:0:
120,160,21005,5,0,0:0:0:0:
204,0,21182,1,0,0:0:0:0:
316,144,21358,2,0,B|416:156|416:156|452:128,1,146.250005578995
208,100,21711,6,0,P|196:152|212:204,1,97.50000371933
324,296,22064,1,0,0:0:0:0:
324,296,22152,1,0,0:0:0:0:
324,296,22240,1,0,0:0:0:0:
296,136,22417,1,0,0:0:0:0:
200,320,22593,1,0,0:0:0:0:
372,184,22770,6,0,B|477:191|477:191|513:226,1,146.250005578995
420,360,23123,2,0,L|320:352,1,97.50000371933
506,219,23476,1,0,0:0:0:0:
506,219,23564,1,0,0:0:0:0:
506,219,23652,1,0,0:0:0:0:
484,364,23829,5,0,0:0:0:0:
384,244,24005,1,0,0:0:0:0:
280,356,24182,2,0,P|216:324|136:352,1,146.250005578995
48,264,24534,6,0,L|52:148,1,97.50000371933
56,12,24887,1,0,0:0:0:0:
56,12,24975,1,0,0:0:0:0:
56,12,25063,1,0,0:0:0:0:
132,152,25240,5,0,0:0:0:0:
248,52,25417,1,0,0:0:0:0:
336,184,25593,2,0,L|484:176,1,146.250005578995
345,48,25946,6,0,L|245:52,1,97.50000371933
440,100,26299,1,0,0:0:0:0:
440,100,26387,1,0,0:0:0:0:
440,100,26476,1,0,0:0:0:0:
288,236,26652,5,0,0:0:0:0:
340,84,26829,1,0,0:0:0:0:
420,232,27005,2,0,P|472:240|528:216,1,97.50000371933
236,156,27358,6,0,P|282:141|332:152,1,97.50000371933
176,296,27711,1,0,0:0:0:0:
200,96,27888,5,0,0:0:0:0:
288,276,28064,1,0,0:0:0:0:
192,52,28241,5,0,0:0:0:0:
136,324,28417,2,0,B|40:336|40:336|0:308,1,146.250005578995
84,116,28770,6,0,L|80:216,1,97.50000371933
231,62,29123,1,0,0:0:0:0:
192,52,29211,1,0,0:0:0:0:
154,62,29299,1,0,0:0:0:0:
264,260,29476,5,0,0:0:0:0:
344,80,29652,1,0,0:0:0:0:
176,168,29829,2,0,B|128:188|128:188|32:168,1,146.250005578995
236,0,30182,6,0,L|232:100,1,97.50000371933
304,264,30534,1,0,0:0:0:0:
313,224,30622,1,0,0:0:0:0:
303,186,30710,1,0,0:0:0:0:
200,256,30887,5,0,0:0:0:0:
300,136,31064,1,0,0:0:0:0:
380,276,31240,2,0,B|424:292|424:292|480:272|480:272|520:292,1,146.250005578995
404,168,31593,6,0,P|392:116|408:64,1,97.50000371933
320,0,31946,5,0,0:0:0:0:
276,4,32034,1,0,0:0:0:0:
232,9,32123,1,0,0:0:0:0:
340,180,32299,5,0,0:0:0:0:
220,84,32476,1,0,0:0:0:0:
164,232,32652,2,0,B|100:244|52:204|52:204|44:252|60:272,1,146.250005578995
228,384,33005,6,0,L|224:280,1,97.50000371933
312,380,33358,5,0,0:0:0:0:
356,375,33447,1,0,0:0:0:0:
400,371,33535,1,0,0:0:0:0:
336,140,33711,5,0,0:0:0:0:
220,264,33887,1,0,0:0:0:0:
384,304,34064,2,0,B|460:280|460:280|524:304,1,146.250005578995
268,192,34417,6,0,P|253:152|268:88,1,97.50000371933
384,304,34770,5,0,0:0:0:0:
340,299,34859,1,0,0:0:0:0:
296,295,34947,1,0,0:0:0:0:
440,112,35123,5,0,0:0:0:0:
340,299,35299,1,0,0:0:0:0:
262,98,35476,2,0,L|112:104,1,146.250005578995
152,292,35829,6,0,L|280:284,1,97.50000371933
115,103,36182,5,0,0:0:0:0:
119,147,36271,1,0,0:0:0:0:
124,190,36359,1,0,0:0:0:0:
276,52,36534,5,0,0:0:0:0:
124,190,36711,1,0,0:0:0:0:
324,220,36887,2,0,B|340:272|340:272|324:364,2,146.250005578995
124,190,37593,5,0,0:0:0:0:
208,348,37770,1,0,0:0:0:0:
252,136,37946,1,0,0:0:0:0:
204,320,38123,5,0,0:0:0:0:
120,152,38299,2,0,B|60:144|60:144|24:160,1,97.50000371933
120,8,38652,6,0,B|180:16|180:16|216:0,1,97.50000371933
340,172,39005,1,0,0:0:0:0:
272,48,39182,1,0,0:0:0:0:
204,260,39358,5,0,0:0:0:0:
276,80,39534,1,0,0:0:0:0:
352,284,39711,2,0,L|456:280,1,97.50000371933
484,164,39976,5,0,0:0:0:0:
484,164,40064,1,0,0:0:0:0:
296,144,40240,5,0,0:0:0:0:
204,260,40417,2,0,L|100:256,1,97.50000371933
52,360,40682,5,0,0:0:0:0:
52,360,40770,1,0,0:0:0:0:
0,200,40946,5,0,0:0:0:0:
168,168,41123,2,0,P|184:112|152:28,1,146.250005578995
240,240,41476,6,0,L|344:236,1,97.50000371933
240,72,41829,1,0,0:0:0:0:
220,316,42005,5,0,0:0:0:0:
352,156,42181,1,0,0:0:0:0:
168,168,42358,1,0,0:0:0:0:
296,328,42534,6,0,B|394:346|394:346|447:320,1,146.250005578995
504,200,42887,2,0,L|500:80,1,97.50000371933
296,116,43240,5,0,0:0:0:0:
300,160,43329,1,0,0:0:0:0:
304,204,43417,1,0,0:0:0:0:
364,52,43593,5,0,0:0:0:0:
208,156,43770,1,0,0:0:0:0:
368,268,43946,2,0,B|466:286|466:286|519:260,1,146.250005578995
256,344,44299,2,0,L|260:244,1,97.50000371933
136,108,44652,5,0,0:0:0:0:
396,140,44829,1,0,0:0:0:0:
188,288,45005,1,0,0:0:0:0:
260,48,45182,1,0,0:0:0:0:
368,264,45358,1,0,0:0:0:0:
152,192,45534,5,0,0:0:0:0:
118,187,45622,1,0,0:0:0:0:
84,182,45710,1,0,0:0:0:0:
336,104,45887,5,0,0:0:0:0:
370,109,45975,1,0,0:0:0:0:
404,114,46063,1,0,0:0:0:0:
292,324,46240,5,0,0:0:0:0:
292,324,46329,1,0,0:0:0:0:
292,324,46417,1,0,0:0:0:0:
204,112,46593,5,0,0:0:0:0:
204,112,46682,1,0,0:0:0:0:
204,112,46770,1,0,0:0:0:0:
192,344,46946,5,0,0:0:0:0:
226,349,47034,1,0,0:0:0:0:
260,354,47123,1,0,0:0:0:0:
328,140,47299,5,0,0:0:0:0:
294,145,47387,1,0,0:0:0:0:
260,150,47475,1,0,0:0:0:0:
420,300,47652,5,0,0:0:0:0:
416,265,47740,1,0,0:0:0:0:
412,231,47828,1,0,0:0:0:0:
200,240,48005,5,0,0:0:0:0:
192,279,48093,1,0,0:0:0:0:
204,316,48181,1,0,0:0:0:0:
152,164,48358,5,0,0:0:0:0:
113,156,48446,1,0,0:0:0:0:
76,167,48534,1,0,0:0:0:0:
232,128,48711,5,0,0:0:0:0:
240,89,48799,1,0,0:0:0:0:
229,51,48887,2,0,L|152:56,1,65
76,167,49064,6,0,L|140:162,1,65
260,244,49240,2,0,L|183:249,1,65
107,360,49417,6,0,L|171:355,1,65
314,353,49593,6,0,L|482:357,1,165.75000316143
482,217,49946,6,0,L|316:213,1,165.75000316143
150,209,50299,6,0,L|318:213,1,165.75000316143
318,73,50652,6,0,L|152:69,1,165.75000316143
0,224,51005,6,0,P|80:268|151:169,1,195
318,73,51358,2,0,P|262:49|174:117,1,130
150,208,51623,1,0,0:0:0:0:
150,208,51711,6,0,L|152:344,1,130
268,160,52064,5,0,0:0:0:0:
44,168,52240,1,0,0:0:0:0:
32,215,52328,1,0,0:0:0:0:
46,261,52417,2,0,B|172:284|172:284|228:236,1,195
312,92,52770,6,0,P|388:80|464:144,1,130
480,200,53034,1,0,0:0:0:0:
480,200,53123,2,0,L|476:348,1,130
368,176,53476,5,0,0:0:0:0:
296,280,53652,1,0,0:0:0:0:
250,294,53740,1,0,0:0:0:0:
203,281,53829,2,0,B|136:248|136:248|4:288,1,195
0,100,54182,6,0,P|64:84|132:112,1,130
238,186,54446,1,0,0:0:0:0:
238,186,54535,2,0,L|385:174,1,130
440,76,54887,5,0,0:0:0:0:
404,256,55064,1,0,0:0:0:0:
280,100,55240,2,0,L|150:110,1,130
132,224,55505,6,0,L|2:213,1,130
16,52,55770,6,0,L|124:60,1,65
152,64,55946,1,0,0:0:0:0:
228,232,56123,5,0,0:0:0:0:
228,232,56211,1,0,0:0:0:0:
228,232,56299,1,0,0:0:0:0:
304,52,56476,5,0,0:0:0:0:
376,244,56652,2,0,P|440:256|532:168,1,195
224,102,57005,2,0,L|228:238,1,130
28,236,57270,5,0,0:0:0:0:
28,236,57358,6,0,L|32:106,1,130
152,16,57711,5,0,0:0:0:0:
324,192,57887,1,0,0:0:0:0:
326,144,57975,1,0,0:0:0:0:
304,101,58064,2,0,B|175:102|175:102|106:138,1,195
108,312,58417,6,0,L|240:308,1,130
376,244,58682,1,0,0:0:0:0:
376,244,58770,2,0,L|505:247,1,130
344,48,59123,5,0,0:0:0:0:
232,200,59299,1,0,0:0:0:0:
184,196,59387,1,0,0:0:0:0:
136,192,59476,2,0,B|112:121|112:121|140:-7,1,195
272,120,59829,6,0,L|412:112,1,130
412,324,60182,2,0,L|282:331,1,130
472,152,60534,6,0,L|480:291,1,130
212,296,60887,2,0,L|200:76,1,195
137,3,61240,6,0,P|69:-13|9:19,1,130
16,100,61505,5,0,0:0:0:0:
59,127,61593,1,0,0:0:0:0:
108,141,61681,1,0,0:0:0:0:
159,139,61769,1,0,0:0:0:0:
207,121,61857,1,0,0:0:0:0:
248,90,61946,5,0,0:0:0:0:
232,139,62034,1,0,0:0:0:0:
233,190,62122,1,0,0:0:0:0:
250,238,62210,1,0,0:0:0:0:
282,278,62299,6,0,B|336:288|336:288|416:272|416:272|476:288,1,195
472,92,62652,6,0,L|340:96,1,130
152,274,62917,1,0,0:0:0:0:
152,274,63005,6,0,L|284:278,1,130
220,116,63358,1,0,0:0:0:0:
176,350,63534,5,0,0:0:0:0:
176,350,63623,1,0,0:0:0:0:
176,350,63711,2,0,B|48:362|48:362|12:302,1,195
148,216,64064,6,0,P|160:156|140:84,1,130
0,96,64329,5,0,0:0:0:0:
0,96,64417,6,0,P|-11:159|4:221,1,130
143,90,64770,5,0,0:0:0:0:
0,12,64946,1,0,0:0:0:0:
232,72,65034,1,0,0:0:0:0:
232,72,65123,2,0,L|364:68,1,130
360,232,65387,6,0,L|228:228,1,130
416,116,65652,2,0,L|412:196,1,65
360,232,65829,1,0,0:0:0:0:
492,292,66005,5,0,0:0:0:0:
492,292,66093,1,0,0:0:0:0:
492,292,66182,1,0,0:0:0:0:
340,152,66358,1,0,0:0:0:0:
216,304,66534,6,0,P|152:324|44:256,1,195
131,71,66887,2,0,L|263:99,1,130
47,263,67152,5,0,0:0:0:0:
47,263,67240,6,0,L|51:133,1,130
216,304,67593,1,0,0:0:0:0:
400,176,67770,5,0,0:0:0:0:
399,217,67858,1,0,0:0:0:0:
371,250,67946,2,0,B|235:239|235:239|194:196,1,195
48,6,68299,6,0,P|36:70|60:150,1,130
224,132,68564,5,0,0:0:0:0:
224,132,68652,2,0,P|236:68|212:-11,1,130
136,236,69005,5,0,0:0:0:0:
248,320,69182,1,0,0:0:0:0:
248,320,69270,1,0,0:0:0:0:
248,320,69358,2,0,L|448:316,1,195
408,112,69711,6,0,L|248:116,1,130
148,180,69976,1,0,0:0:0:0:
148,180,70064,6,0,P|131:108|148:48,1,130
276,236,70417,1,0,0:0:0:0:
172,376,70593,1,0,0:0:0:0:
172,376,70682,1,0,0:0:0:0:
172,376,70770,2,0,B|40:384|40:384|-4:332,1,195
116,148,71123,6,0,P|132:212|116:276,1,130
248,140,71387,1,0,0:0:0:0:
248,140,71476,2,0,P|232:76|248:12,1,130
412,12,71740,5,0,0:0:0:0:
412,12,71829,2,0,P|428:76|412:140,1,130
272,256,72093,5,0,0:0:0:0:
272,256,72182,2,0,L|404:252,1,130
400,368,72446,5,0,0:0:0:0:
400,368,72535,2,0,L|268:364,1,130
176,264,72799,5,0,0:0:0:0:
176,264,72887,2,0,B|188:220|188:220|172:136,1,130
24,0,73152,5,0,0:0:0:0:
24,0,73240,2,0,B|12:44|12:44|28:128,1,130
108,280,73593,6,0,L|237:276,1,130
475,115,73946,6,0,P|406:81|244:292,1,390
352,188,74652,6,0,L|348:56,1,130
312,256,75005,1,0,0:0:0:0:
120,100,75358,5,0,0:0:0:0:
292,348,75711,1,0,0:0:0:0:
400,64,76064,1,0,0:0:0:0:
112,288,76417,1,0,0:0:0:0:
156,136,76593,5,0,0:0:0:0:
110,124,76681,1,0,0:0:0:0:
65,135,76770,1,0,0:0:0:0:
64,352,76946,5,0,0:0:0:0:
110,364,77034,1,0,0:0:0:0:
155,353,77123,1,0,0:0:0:0:
236,184,77299,5,0,0:0:0:0:
279,190,77387,1,0,0:0:0:0:
322,197,77476,1,0,0:0:0:0:
320,20,77652,5,0,0:0:0:0:
277,26,77740,1,0,0:0:0:0:
234,33,77829,1,0,0:0:0:0:
396,204,78005,5,0,0:0:0:0:
396,204,78093,1,0,0:0:0:0:
396,204,78182,1,0,0:0:0:0:
264,324,78358,5,0,0:0:0:0:
264,324,78446,1,0,0:0:0:0:
264,324,78535,1,0,0:0:0:0:
120,240,78711,5,0,0:0:0:0:
107,194,78799,1,0,0:0:0:0:
118,148,78888,1,0,0:0:0:0:
308,144,79064,5,0,0:0:0:0:
321,190,79152,1,0,0:0:0:0:
310,236,79241,1,0,0:0:0:0:
165,98,79417,5,0,0:0:0:0:
211,85,79505,1,0,0:0:0:0:
257,96,79594,1,0,0:0:0:0:
262,286,79770,5,0,0:0:0:0:
216,298,79858,1,0,0:0:0:0:
170,288,79947,1,0,0:0:0:0:
360,88,80123,5,0,0:0:0:0:
365,131,80211,1,0,0:0:0:0:
372,174,80300,1,0,0:0:0:0:
464,260,80476,5,0,0:0:0:0:
459,303,80564,1,0,0:0:0:0:
452,346,80653,1,0,0:0:0:0:
268,144,80829,5,0,0:0:0:0:
273,187,80917,1,0,0:0:0:0:
280,230,81006,1,0,0:0:0:0:
360,288,81182,5,0,0:0:0:0:
355,331,81270,1,0,0:0:0:0:
348,374,81359,1,0,0:0:0:0:
184,188,81535,5,0,0:0:0:0:
184,188,81623,1,0,0:0:0:0:
184,188,81712,1,0,0:0:0:0:
360,112,81887,5,0,0:0:0:0:
360,112,81975,1,0,0:0:0:0:
360,112,82064,6,0,L|492:116,1,130
268,112,82329,5,0,0:0:0:0:
268,112,82418,2,0,L|136:116,1,130
492,216,82682,5,0,0:0:0:0:
492,216,82771,2,0,L|362:219,1,130
140,216,83035,5,0,0:0:0:0:
140,216,83124,2,0,L|269:219,1,130
52,164,83387,5,0,0:0:0:0:
52,164,83476,1,0,0:0:0:0:
40,272,83652,5,0,0:0:0:0:
48,316,83740,1,0,0:0:0:0:
56,360,83829,1,0,0:0:0:0:
156,128,84005,5,0,0:0:0:0:
148,172,84093,1,0,0:0:0:0:
140,216,84182,1,0,0:0:0:0:
316,216,84358,5,0,0:0:0:0:
308,172,84447,1,0,0:0:0:0:
300,128,84535,1,0,0:0:0:0:
224,332,84711,5,0,0:0:0:0:
224,332,84799,1,0,0:0:0:0:
224,332,84887,2,0,L|428:328,1,195
484,200,85240,5,0,0:0:0:0:
440,169,85328,1,0,0:0:0:0:
388,163,85416,1,0,0:0:0:0:
339,182,85504,1,0,0:0:0:0:
280,264,85593,5,0,0:0:0:0:
232,287,85681,1,0,0:0:0:0:
179,293,85769,1,0,0:0:0:0:
128,281,85857,1,0,0:0:0:0:
83,252,85945,1,0,0:0:0:0:
51,210,86034,1,0,0:0:0:0:
35,159,86122,1,0,0:0:0:0:
37,106,86210,1,0,0:0:0:0:
176,136,86299,5,0,0:0:0:0:
176,136,86652,1,0,0:0:0:0:
8,32,87005,5,0,0:0:0:0:
8,32,87358,1,0,0:0:0:0:
256,192,87711,12,0,88946,0:0:0:0:
