osu file format v14

[General]
AudioFilename: audio.mp3
AudioLeadIn: 0
PreviewTime: 23951
Countdown: 0
SampleSet: Soft
StackLeniency: 0.7
Mode: 0
LetterboxInBreaks: 0
WidescreenStoryboard: 0

[Editor]
DistanceSpacing: 1.3
BeatDivisor: 2
GridSize: 4
TimelineZoom: 0.8

[Metadata]
Title:A Kind of Sorrow
TitleUnicode:有一種悲傷
Artist:Liu Jasper
ArtistUnicode:劉以豪
Creator:bossandy
Version:Sorrow
Source:比悲傷更悲傷的故事
Tags:-GN Junior 류이호 More than Blue 張哲凱 K 宋媛媛 Cream 楊佑賢 醫生 Cindy 小貓女 Bonnie 阿邦 吉哥 A-Lin 黄麗玲 林孝謙 Chinese Pop
BeatmapID:1886316
BeatmapSetID:903606

[Difficulty]
HPDrainRate:4
CircleSize:4
OverallDifficulty:4
ApproachRate:5
SliderMultiplier:1.4
SliderTickRate:1

[Events]
//Background and Video events
0,0,"BG.jpg",0,0
Video,0,"videoplayback.720p.x264.aac.mp4"
//Break Periods
//Storyboard Layer 0 (Background)
//Storyboard Layer 1 (Fail)
//Storyboard Layer 2 (Pass)
//Storyboard Layer 3 (Foreground)
//Storyboard Sound Samples

[TimingPoints]
24700,745.341614906832,4,2,1,40,1,0
27681,769.230769230769,4,2,1,40,1,8
29219,743.034055727554,4,2,1,40,1,8
30705,745.341614906832,4,2,1,40,1,8
33313,769.230769230769,4,2,1,40,1,8
34466,774.193548387097,4,2,1,40,1,8
35240,697.674418604651,4,2,1,40,1,8
35937,759.493670886076,4,2,1,40,1,8
36696,750,4,2,1,40,1,0
40446,789.473684210526,4,2,1,40,1,8
41235,722.89156626506,4,2,1,40,1,8
42319,797.34219269103,4,2,1,40,1,8
42717,750,4,2,1,40,1,8
45710,-166.666666666667,4,2,1,40,0,0
48717,750,4,2,1,40,1,0
54717,722.89156626506,4,2,1,40,1,8
55801,769.230769230769,4,2,1,40,1,8
56954,652.173913043478,4,2,1,40,1,8
57280,875.912408759124,4,2,1,40,1,8
57717,750,4,2,1,40,1,8
60717,733.94495412844,4,2,1,40,1,0
62184,752.351097178683,4,2,1,40,1,8
62560,781.758957654723,4,2,1,40,1,8
63341,750,4,2,1,40,1,8
63716,727.272727272727,4,2,1,40,1,8
65897,789.473684210526,4,2,1,40,1,8
66686,750,4,2,1,40,1,0
68186,759.493670886076,4,2,1,40,1,8
69704,759.493670886076,4,2,1,40,1,8
71982,769.230769230769,4,2,1,40,1,8
72366,348.837209302326,4,2,1,40,1,8
72714,750,4,2,1,40,1,1
84714,747.663551401869,4,2,1,40,1,1
90695,750,4,2,1,40,1,9
96695,740.740740740741,4,2,1,40,1,1
99287,816.326530612245,4,2,1,40,1,9
99695,731.707317073171,4,2,1,40,1,9
101158,769.230769230769,4,2,1,40,1,9
102696,750,4,2,1,40,1,9
105696,722.89156626506,4,2,1,40,1,9
106418,759.493670886076,4,2,1,40,1,9
108696,722.89156626506,4,2,1,40,1,1
109780,821.917808219178,4,2,1,40,1,9
110190,740.740740740741,4,2,1,40,1,9
111671,740.740740740741,4,2,1,40,1,9
113152,759.493670886076,4,2,1,40,1,9
114670,740.740740740741,4,2,1,20,1,8

[Colours]
Combo1 : 100,170,255
Combo2 : 255,255,128

[HitObjects]
64,136,24326,5,0,0:0:0:0:
140,184,24700,2,0,L|213:172,1,70
280,232,25445,1,0,0:0:0:0:
368,204,25818,1,2,0:0:0:0:
504,324,26563,1,0,0:0:0:0:
416,352,26936,2,0,L|344:340,1,70
268,296,27681,6,0,L|198:307,1,70
128,364,28450,1,0,0:0:0:0:
44,328,28834,1,2,0:0:0:0:
224,120,29962,1,0,0:0:0:0:
188,204,30333,1,0,0:0:0:0:
124,140,30705,6,0,L|136:56,1,70
72,4,31450,1,0,0:0:0:0:
36,87,31823,2,0,B|28:127|28:127|28:175|52:203|84:231,1,140,2|2,0:0|0:0,0:0:0:0:
224,120,33313,1,0,0:0:0:0:
271,200,33697,6,0,L|281:287,1,70
251,354,34466,1,0,0:0:0:0:
436,260,35240,2,0,P|468:192|456:116,1,140,2|2,0:0|0:0,0:0:0:0:
396,64,36316,1,0,0:0:0:0:
308,40,36696,6,0,L|212:48,1,70
184,120,37446,1,0,0:0:0:0:
124,52,37821,1,2,0:0:0:0:
364,180,38946,1,0,0:0:0:0:
256,328,39696,6,0,P|220:336|172:332,1,70
129,263,40446,1,0,0:0:0:0:
216,248,40840,1,2,0:0:0:0:
168,168,41235,2,0,L|180:92,1,70,2|0,0:0|0:0,0:0:0:0:
88,84,41957,2,0,L|76:160,1,70
112,236,42717,5,0,0:0:0:0:
152,316,43092,1,0,0:0:0:0:
216,252,43467,1,0,0:0:0:0:
256,332,43842,1,2,0:0:0:0:
256,332,44592,1,0,0:0:0:0:
296,252,44967,1,2,0:0:0:0:
360,316,45342,1,0,0:0:0:0:
400,236,45717,6,0,B|410:194|400:153|400:153|389:111|400:70,1,167.999994873047,2|0,0:0|0:0,0:0:0:0:
400,69,48342,5,0,0:0:0:0:
308,84,48717,2,0,P|264:80|236:72,1,70
168,16,49467,1,0,0:0:0:0:
88,56,49842,1,2,0:0:0:0:
432,176,51342,1,0,0:0:0:0:
480,252,51717,6,0,P|476:296|468:324,1,70
388,364,52467,1,0,0:0:0:0:
312,316,52842,2,0,P|236:304|168:320,1,140,2|2,0:0|0:0,0:0:0:0:
112,148,54342,1,0,0:0:0:0:
192,192,54717,6,0,P|230:197|264:190,1,70
316,120,55439,1,0,0:0:0:0:
255,51,55801,2,0,B|204:51|204:51|170:67|170:67|119:67,1,140,2|2,0:0|0:0,0:0:0:0:
119,68,57280,1,0,0:0:0:0:
52,128,57717,6,0,P|40:168|48:220,1,70
132,176,58467,2,0,P|152:212|194:243,1,70,2|0,0:0|0:0,0:0:0:0:
256,200,59217,1,2,0:0:0:0:
339,231,59592,2,0,P|364:207|380:176,1,70
461,135,60342,5,2,2:0:0:0:
388,303,61083,1,0,0:0:0:0:
296,312,61450,2,0,P|256:300|232:280,1,70
192,200,62184,1,2,0:0:0:0:
128,264,62560,2,0,L|136:336,1,70
56,384,63341,5,2,0:0:0:0:
20,204,64079,1,0,0:0:0:0:
68,128,64443,1,0,0:0:0:0:
152,92,64806,1,0,0:0:0:0:
240,120,65170,1,2,0:0:0:0:
240,120,66291,1,0,0:0:0:0:
320,164,66686,6,0,P|347:159|388:135,1,70
384,46,67436,2,0,P|356:50|315:74,1,70
240,120,68186,2,0,P|212:115|171:91,1,70,2|0,0:0|0:0,0:0:0:0:
176,2,68945,2,0,P|203:6|244:30,1,70
319,70,69704,6,0,P|396:60|452:24,1,140,0|2,0:0|0:0,0:0:0:0:
240,120,71222,1,2,0:0:0:0:
96,52,71982,2,0,B|84:40|81:37|77:33|73:29|70:26|62:18|59:15|51:7|19:-23|3:-52,1,70,2|0,0:0|0:0,0:0:0:0:
96,52,72714,6,0,P|56:128|72:184,1,140,0|2,0:0|0:0,0:0:0:0:
148,132,73839,1,0,0:0:0:0:
204,204,74214,2,0,P|213:271|175:329,1,140,0|2,0:0|0:0,0:0:0:0:
124,252,75339,1,0,0:0:0:0:
124,252,75526,1,0,0:0:0:0:
124,252,75714,6,0,L|44:260,1,70
204,204,76464,2,0,L|284:196,1,70,2|0,0:0|0:0,0:0:0:0:
132,340,77214,2,0,L|52:348,1,70
212,292,77964,2,0,L|292:284,1,70,2|0,0:0|0:0,0:0:0:0:
124,252,78714,6,0,B|56:260|56:260|24:196,1,140,0|2,0:0|0:0,0:0:0:0:
112,168,79839,1,0,0:0:0:0:
100,76,80214,2,0,B|168:68|168:68|202:136,1,140,0|2,0:0|0:0,0:0:0:0:
313,131,81339,1,0,0:0:0:0:
313,131,81526,1,0,0:0:0:0:
313,131,81714,6,0,L|349:71,1,70
428,116,82464,2,0,L|391:175,1,70,2|0,0:0|0:0,0:0:0:0:
276,280,83214,2,0,L|312:220,1,70
391,265,83964,2,0,L|354:324,1,70,2|0,0:0|0:0,0:0:0:0:
480,264,84714,6,0,P|456:204|390:175,1,140,0|2,0:0|0:0,0:0:0:0:
308,216,85835,1,0,0:0:0:0:
224,256,86209,2,0,P|160:229|134:167,2,140,0|2|0,0:0|0:0|0:0,0:0:0:0:
390,175,88452,5,2,0:0:0:0:
292,20,89199,1,0,0:0:0:0:
112,52,89947,1,2,0:0:0:0:
256,192,90695,12,2,93695,0:0:0:0:
416,332,95945,5,2,0:0:0:0:
416,332,96320,1,0,0:0:0:0:
416,332,96695,6,0,B|448:304|452:272|452:272|440:200,1,140,0|2,0:0|0:0,0:0:0:0:
424,116,97806,1,0,0:0:0:0:
356,176,98176,2,0,B|328:208|296:212|296:212|224:200,1,140,0|2,0:0|0:0,0:0:0:0:
180,120,99287,1,0,0:0:0:0:
180,120,99491,1,0,0:0:0:0:
180,120,99695,6,0,L|172:40,1,70
228,200,100426,2,0,L|236:280,1,70,2|0,0:0|0:0,0:0:0:0:
92,128,101158,2,0,L|84:48,1,70
140,208,101927,2,0,L|148:288,1,70,2|0,0:0|0:0,0:0:0:0:
180,120,102696,6,0,B|172:52|172:52|184:16|220:4,1,140,0|2,0:0|0:0,0:0:0:0:
296,56,103821,1,0,0:0:0:0:
380,28,104196,1,0,0:0:0:0:
456,81,104571,2,0,B|464:115|456:149|456:149|446:184|456:218,1,140,2|2,0:0|0:0,0:0:0:0:
412,300,105696,6,0,P|376:300|336:288,1,70
296,212,106418,2,0,P|260:212|220:224,1,70,2|0,0:0|0:0,0:0:0:0:
176,296,107177,2,0,P|140:296|100:284,1,70
36,232,107936,1,2,0:0:0:0:
36,140,108316,1,0,0:0:0:0:
204,64,109057,5,0,0:0:0:0:
244,144,109418,1,2,0:0:0:0:
328,112,109780,1,0,0:0:0:0:
380,188,110190,2,0,P|415:189|456:176,2,70,0|0|2,0:0|0:0|0:0,0:0:0:0:
328,264,111301,6,0,P|258:260|176:288,1,140
120,336,112411,1,2,0:0:0:0:
4,196,113152,1,0,0:0:0:0:
180,152,113911,1,2,0:0:0:0:
180,152,114291,1,0,0:0:0:0:
256,192,114670,12,2,119114,0:0:0:0:
