osu file format v14

[General]
AudioFilename: audio.mp3
AudioLeadIn: 0
PreviewTime: 65422
Countdown: 0
SampleSet: None
StackLeniency: 0.7
Mode: 3
LetterboxInBreaks: 0
SpecialStyle: 0
WidescreenStoryboard: 1

[Editor]
DistanceSpacing: 0.8
BeatDivisor: 4
GridSize: 32
TimelineZoom: 1

[Metadata]
Title:Baby Baby (DJ edition)
TitleUnicode:耗子尾汁宝贝宝贝(DJ版)
Artist:Liu Hancheng
ArtistUnicode:刘汉成
Creator:UnnamedOrange
Version:Remedy
Source:
Tags:
BeatmapID:2876117
BeatmapSetID:1393149

[Difficulty]
HPDrainRate:5
CircleSize:4
OverallDifficulty:5
ApproachRate:5
SliderMultiplier:1.4
SliderTickRate:1

[Events]
//Background and Video events
0,0,"bg.jpg",0,0
//Break Periods
//Storyboard Layer 0 (Background)
//Storyboard Layer 1 (Fail)
//Storyboard Layer 2 (Pass)
//Storyboard Layer 3 (Foreground)
//Storyboard Layer 4 (Overlay)
//Storyboard Sound Samples

[TimingPoints]
62141,468.75,4,2,0,100,1,0
124016,468.75,4,2,0,100,1,0

[HitObjects]
64,192,62141,5,0,0:0:0:0:
64,192,62375,1,0,0:0:0:0:
320,192,62375,1,0,0:0:0:0:
192,192,62375,1,0,0:0:0:0:
448,192,62375,1,0,0:0:0:0:
320,192,62609,1,0,0:0:0:0:
448,192,62844,1,0,0:0:0:0:
320,192,62844,1,0,0:0:0:0:
64,192,62844,1,0,0:0:0:0:
192,192,62844,1,0,0:0:0:0:
448,192,63078,1,0,0:0:0:0:
448,192,63312,1,0,0:0:0:0:
320,192,63312,1,0,0:0:0:0:
192,192,63312,1,0,0:0:0:0:
64,192,63312,1,0,0:0:0:0:
192,192,63547,1,0,0:0:0:0:
64,192,63781,1,0,0:0:0:0:
192,192,63781,1,0,0:0:0:0:
320,192,63781,1,0,0:0:0:0:
448,192,63781,1,0,0:0:0:0:
192,192,64016,1,0,0:0:0:0:
320,192,64016,1,0,0:0:0:0:
448,192,64250,1,0,0:0:0:0:
320,192,64250,1,0,0:0:0:0:
64,192,64250,1,0,0:0:0:0:
192,192,64250,1,0,0:0:0:0:
64,192,64484,1,0,0:0:0:0:
448,192,64719,1,0,0:0:0:0:
320,192,64719,1,0,0:0:0:0:
64,192,64719,1,0,0:0:0:0:
192,192,64719,1,0,0:0:0:0:
320,192,64953,1,0,0:0:0:0:
64,192,65363,1,0,0:0:0:0:
192,192,65422,1,0,0:0:0:0:
320,192,65422,1,0,0:0:0:0:
448,192,65480,1,0,0:0:0:0:
64,192,65891,128,0,66125:0:0:0:0:
192,192,66359,128,0,66594:0:0:0:0:
448,192,66359,128,0,66594:0:0:0:0:
320,192,66594,128,0,66828:0:0:0:0:
64,192,66594,128,0,66828:0:0:0:0:
192,192,66828,1,0,0:0:0:0:
448,192,66828,1,0,0:0:0:0:
64,192,67297,1,0,0:0:0:0:
192,192,67297,1,0,0:0:0:0:
320,192,67297,1,0,0:0:0:0:
448,192,67297,1,0,0:0:0:0:
64,192,67766,1,0,0:0:0:0:
192,192,67766,1,0,0:0:0:0:
320,192,67766,1,0,0:0:0:0:
192,192,68234,1,0,0:0:0:0:
320,192,68234,1,0,0:0:0:0:
448,192,68234,1,0,0:0:0:0:
64,192,68703,128,0,69523:0:0:0:0:
192,192,69172,128,0,69523:0:0:0:0:
448,192,69641,128,0,69875:0:0:0:0:
64,192,70344,1,0,0:0:0:0:
64,192,70578,128,0,70812:0:0:0:0:
320,192,70812,1,0,0:0:0:0:
448,192,71047,1,0,0:0:0:0:
192,192,71281,1,0,0:0:0:0:
64,192,71516,128,0,71750:0:0:0:0:
192,192,71516,128,0,71750:0:0:0:0:
320,192,71750,128,0,71984:0:0:0:0:
448,192,71750,128,0,71984:0:0:0:0:
192,192,71984,128,0,72453:0:0:0:0:
64,192,71984,128,0,72453:0:0:0:0:
320,192,72453,128,0,72922:0:0:0:0:
448,192,72453,128,0,72922:0:0:0:0:
64,192,73391,1,0,0:0:0:0:
448,192,73391,1,0,0:0:0:0:
192,192,73625,128,0,73859:0:0:0:0:
320,192,73625,128,0,73859:0:0:0:0:
64,192,74094,1,0,0:0:0:0:
320,192,74328,1,0,0:0:0:0:
192,192,74562,1,0,0:0:0:0:
448,192,74797,1,0,0:0:0:0:
192,192,75031,1,0,0:0:0:0:
64,192,75266,128,0,75734:0:0:0:0:
320,192,75266,128,0,75734:0:0:0:0:
192,192,75734,1,0,0:0:0:0:
448,192,75851,1,0,0:0:0:0:
192,192,75969,1,0,0:0:0:0:
448,192,76086,1,0,0:0:0:0:
192,192,76203,1,0,0:0:0:0:
64,192,76437,1,0,0:0:0:0:
320,192,76672,1,0,0:0:0:0:
320,192,77141,1,0,0:0:0:0:
320,192,77375,1,0,0:0:0:0:
448,192,77375,1,0,0:0:0:0:
192,192,77375,1,0,0:0:0:0:
64,192,77375,1,0,0:0:0:0:
64,192,77609,1,0,0:0:0:0:
64,192,77844,1,0,0:0:0:0:
192,192,77844,1,0,0:0:0:0:
320,192,77844,1,0,0:0:0:0:
448,192,77844,1,0,0:0:0:0:
320,192,78078,1,0,0:0:0:0:
192,192,78312,1,0,0:0:0:0:
64,192,78312,1,0,0:0:0:0:
448,192,78547,128,0,78781:0:0:0:0:
192,192,78781,1,0,0:0:0:0:
448,192,79016,1,0,0:0:0:0:
320,192,79016,1,0,0:0:0:0:
64,192,79016,1,0,0:0:0:0:
192,192,79016,1,0,0:0:0:0:
64,192,79484,1,0,0:0:0:0:
192,192,79484,1,0,0:0:0:0:
320,192,79484,1,0,0:0:0:0:
448,192,79484,1,0,0:0:0:0:
64,192,79719,1,0,0:0:0:0:
192,192,79719,1,0,0:0:0:0:
320,192,79719,1,0,0:0:0:0:
448,192,79719,1,0,0:0:0:0:
320,192,79953,1,0,0:0:0:0:
320,192,80422,1,0,0:0:0:0:
448,192,80422,1,0,0:0:0:0:
192,192,80422,1,0,0:0:0:0:
64,192,80422,1,0,0:0:0:0:
64,192,80891,1,0,0:0:0:0:
192,192,81008,1,0,0:0:0:0:
320,192,81125,1,0,0:0:0:0:
192,192,81242,1,0,0:0:0:0:
64,192,81359,1,0,0:0:0:0:
192,192,81476,1,0,0:0:0:0:
320,192,81594,1,0,0:0:0:0:
192,192,81711,1,0,0:0:0:0:
64,192,81828,1,0,0:0:0:0:
192,192,81945,1,0,0:0:0:0:
320,192,82062,1,0,0:0:0:0:
192,192,82180,1,0,0:0:0:0:
64,192,82297,1,0,0:0:0:0:
448,192,82766,128,0,84172:0:0:0:0:
320,192,83234,128,0,84172:0:0:0:0:
192,192,83703,128,0,84172:0:0:0:0:
64,192,84172,1,0,0:0:0:0:
192,192,84641,128,0,87922:0:0:0:0:
320,192,85109,1,0,0:0:0:0:
448,192,85109,1,0,0:0:0:0:
64,192,85344,1,0,0:0:0:0:
320,192,85578,128,0,85812:0:0:0:0:
448,192,86047,1,0,0:0:0:0:
64,192,86516,1,0,0:0:0:0:
448,192,86984,1,0,0:0:0:0:
320,192,87453,1,0,0:0:0:0:
64,192,88391,128,0,88859:0:0:0:0:
192,192,88391,128,0,88859:0:0:0:0:
320,192,88625,128,0,88859:0:0:0:0:
448,192,88625,128,0,88859:0:0:0:0:
64,192,89094,1,0,0:0:0:0:
448,192,89328,1,0,0:0:0:0:
192,192,89562,1,0,0:0:0:0:
320,192,89797,1,0,0:0:0:0:
64,192,90031,1,0,0:0:0:0:
192,192,90266,128,0,91203:0:0:0:0:
320,192,90266,128,0,91203:0:0:0:0:
448,192,90266,128,0,91203:0:0:0:0:
192,192,91906,1,0,0:0:0:0:
64,192,92141,128,0,92609:0:0:0:0:
320,192,92141,128,0,92609:0:0:0:0:
192,192,92375,1,0,0:0:0:0:
448,192,92375,1,0,0:0:0:0:
448,192,92844,1,0,0:0:0:0:
192,192,93078,1,0,0:0:0:0:
64,192,93312,1,0,0:0:0:0:
320,192,93547,1,0,0:0:0:0:
64,192,93781,1,0,0:0:0:0:
320,192,94016,1,0,0:0:0:0:
192,192,94016,1,0,0:0:0:0:
192,192,94484,1,0,0:0:0:0:
320,192,94484,1,0,0:0:0:0:
448,192,94894,1,0,0:0:0:0:
192,192,94953,1,0,0:0:0:0:
320,192,94953,1,0,0:0:0:0:
64,192,95012,1,0,0:0:0:0:
320,192,95656,1,0,0:0:0:0:
448,192,95891,128,0,96359:0:0:0:0:
192,192,95891,128,0,96359:0:0:0:0:
320,192,96125,1,0,0:0:0:0:
64,192,96125,1,0,0:0:0:0:
192,192,96594,1,0,0:0:0:0:
320,192,96594,1,0,0:0:0:0:
64,192,96828,1,0,0:0:0:0:
448,192,96828,1,0,0:0:0:0:
64,192,97062,1,0,0:0:0:0:
448,192,97062,1,0,0:0:0:0:
192,192,97297,1,0,0:0:0:0:
320,192,97297,1,0,0:0:0:0:
64,192,97531,128,0,98234:0:0:0:0:
448,192,97531,128,0,98234:0:0:0:0:
192,192,97766,128,0,98234:0:0:0:0:
320,192,97766,128,0,98234:0:0:0:0:
64,192,98644,128,0,99172:0:0:0:0:
320,192,98703,128,0,99172:0:0:0:0:
192,192,98703,128,0,99172:0:0:0:0:
448,192,98762,128,0,99172:0:0:0:0:
64,192,99641,128,0,99875:0:0:0:0:
448,192,100109,128,0,100578:0:0:0:0:
320,192,100109,1,0,0:0:0:0:
192,192,100344,1,0,0:0:0:0:
64,192,100578,128,0,100812:0:0:0:0:
192,192,101047,1,0,0:0:0:0:
320,192,101047,1,0,0:0:0:0:
448,192,101047,1,0,0:0:0:0:
64,192,101516,128,0,101984:0:0:0:0:
192,192,101516,128,0,101984:0:0:0:0:
320,192,101516,128,0,101984:0:0:0:0:
448,192,101516,128,0,101984:0:0:0:0:
64,192,102219,1,0,0:0:0:0:
320,192,102453,128,0,102922:0:0:0:0:
64,192,103391,1,0,0:0:0:0:
320,192,103625,1,0,0:0:0:0:
448,192,103859,1,0,0:0:0:0:
192,192,104094,1,0,0:0:0:0:
320,192,104328,1,0,0:0:0:0:
192,192,104562,1,0,0:0:0:0:
192,192,104797,128,0,105266:0:0:0:0:
320,192,105031,128,0,105266:0:0:0:0:
64,192,105266,128,0,106672:0:0:0:0:
448,192,105266,128,0,106672:0:0:0:0:
448,192,106906,1,0,0:0:0:0:
64,192,107141,128,0,107609:0:0:0:0:
64,192,107844,128,0,109484:0:0:0:0:
192,192,108078,1,0,0:0:0:0:
320,192,108312,1,0,0:0:0:0:
320,192,108547,1,0,0:0:0:0:
192,192,108781,1,0,0:0:0:0:
192,192,109016,128,0,109484:0:0:0:0:
320,192,109016,128,0,109484:0:0:0:0:
448,192,109016,128,0,109484:0:0:0:0:
448,192,109953,128,0,110422:0:0:0:0:
320,192,110070,128,0,110422:0:0:0:0:
64,192,110656,1,0,0:0:0:0:
448,192,110891,128,0,111359:0:0:0:0:
64,192,111594,128,0,113234:0:0:0:0:
448,192,111594,128,0,113234:0:0:0:0:
192,192,111828,128,0,112062:0:0:0:0:
320,192,112062,1,0,0:0:0:0:
320,192,112297,128,0,112531:0:0:0:0:
192,192,112531,1,0,0:0:0:0:
192,192,112766,128,0,113234:0:0:0:0:
320,192,112766,128,0,113234:0:0:0:0:
64,192,113703,128,0,114172:0:0:0:0:
192,192,113820,128,0,114172:0:0:0:0:
64,192,114641,1,0,0:0:0:0:
64,192,114875,1,0,0:0:0:0:
192,192,114875,1,0,0:0:0:0:
320,192,114875,1,0,0:0:0:0:
448,192,114875,1,0,0:0:0:0:
320,192,115109,1,0,0:0:0:0:
448,192,115344,1,0,0:0:0:0:
320,192,115344,1,0,0:0:0:0:
64,192,115344,1,0,0:0:0:0:
192,192,115344,1,0,0:0:0:0:
192,192,115578,128,0,115812:0:0:0:0:
64,192,116047,1,0,0:0:0:0:
448,192,116281,1,0,0:0:0:0:
64,192,116516,128,0,116984:0:0:0:0:
192,192,116750,128,0,117219:0:0:0:0:
320,192,116984,128,0,117453:0:0:0:0:
448,192,117453,128,0,117922:0:0:0:0:
64,192,118391,1,0,0:0:0:0:
64,192,118625,1,0,0:0:0:0:
448,192,118859,1,0,0:0:0:0:
448,192,119094,1,0,0:0:0:0:
192,192,119328,1,0,0:0:0:0:
320,192,119562,1,0,0:0:0:0:
192,192,119797,1,0,0:0:0:0:
320,192,120031,1,0,0:0:0:0:
192,192,120266,128,0,122141:0:0:0:0:
