osu file format v14

[General]
AudioFilename: audio.mp3
AudioLeadIn: 0
PreviewTime: 63261
Countdown: 0
SampleSet: Soft
StackLeniency: 0.3
Mode: 2
LetterboxInBreaks: 0
WidescreenStoryboard: 1

[Editor]
Bookmarks: 4803,15470,26137,31470,42137,52803,63470,74137,84803
DistanceSpacing: 1.6
BeatDivisor: 4
GridSize: 16
TimelineZoom: 2.7

[Metadata]
Title:OVER (TV Size)
TitleUnicode:OVER (TV Size)
Artist:Little Glee Monster
ArtistUnicode:Little Glee Monster
Creator:Secre
Version:Bout of Friendship
Source:BORUTO-ボルト- NARUTO NEXT GENERATIONS
Tags:boruto anime opening japanese chickenbible naruto Hikarukakera
BeatmapID:2522720
BeatmapSetID:1211978

[Difficulty]
HPDrainRate:6
CircleSize:4.2
OverallDifficulty:9.2
ApproachRate:9.2
SliderMultiplier:1.95
SliderTickRate:2

[Events]
//Background and Video events
0,0,"borutofamily.png",0,0
//Break Periods
//Storyboard Layer 0 (Background)
//Storyboard Layer 1 (Fail)
//Storyboard Layer 2 (Pass)
//Storyboard Layer 3 (Foreground)
//Storyboard Layer 4 (Overlay)
//Storyboard Sound Samples

[TimingPoints]
1095,333.333333333333,4,2,1,60,1,0
31761,-117.647058823529,4,2,1,60,0,0
63761,-100,4,2,1,90,0,1
73094,-100,4,2,1,90,0,0
74428,-100,4,2,1,90,0,1
85094,-100,4,2,1,90,0,0
87761,-100,4,2,1,70,0,0
88094,-100,4,2,1,50,0,0
88428,-100,4,2,1,30,0,0
88761,-100,4,2,1,20,0,0
89094,-100,4,2,1,10,0,0

[Colours]
Combo1 : 69,69,69
Combo2 : 225,155,166
Combo3 : 191,191,191
Combo4 : 244,159,83

[HitObjects]
256,192,1095,12,0,4428,0:0:0:0:
313,204,4594,6,0,L|147:204,2,97.5
30,288,5094,6,0,P|45:180|141:159,1,195,4|0,0:0|1:0,0:0:0:0:
215,167,5594,1,0,0:0:0:0:
389,143,5761,2,0,L|514:144,2,97.5,0|0|0,0:0|0:0|1:0,0:0:0:0:
216,232,6261,6,0,L|86:232,1,97.5
371,112,6594,2,0,L|377:219,1,97.5,0|0,0:0|1:0,0:0:0:0:
198,220,6928,2,0,L|73:219,1,97.5
433,151,7261,2,0,L|302:149,2,97.5,0|0|0,0:0|1:0|0:0,0:0:0:0:
170,199,7761,5,4,0:0:0:0:
313,133,7928,1,0,0:0:0:0:
449,97,8094,1,0,1:0:0:0:
313,133,8261,1,0,0:0:0:0:
40,220,8428,2,0,L|248:224,1,195,0|0,0:0|1:0,0:0:0:0:
66,289,8928,6,0,L|60:172,1,97.5
333,152,9261,2,0,L|438:153,1,97.5,0|0,0:0|1:0,0:0:0:0:
168,182,9594,1,0,0:0:0:0:
315,106,9761,2,0,L|320:218,1,97.5,8|8,3:0|3:0,0:0:0:0:
168,182,10094,1,0,1:0:0:0:
320,204,10261,1,0,0:0:0:0:
73,246,10428,6,0,L|316:248,1,195,4|0,0:0|1:0,0:0:0:0:
176,180,10928,1,0,0:0:0:0:
341,192,11094,2,0,L|129:195,1,195,0|0,0:0|1:0,0:0:0:0:
238,131,11594,1,0,0:0:0:0:
497,247,11761,6,0,L|233:246,1,195,4|0,0:0|1:0,0:0:0:0:
405,186,12261,1,0,0:0:0:0:
234,202,12428,2,0,L|448:203,1,195,0|0,0:0|1:0,0:0:0:0:
334,140,12928,1,0,0:0:0:0:
69,229,13094,6,0,L|59:118,1,97.5,4|0,0:0|0:0,0:0:0:0:
202,118,13428,1,0,1:0:0:0:
60,131,13594,1,2,3:2:0:0:
315,214,13761,2,0,L|189:213,1,97.5,0|0,0:0|3:0,0:0:0:0:
380,131,14094,1,0,1:0:0:0:
217,213,14261,1,2,3:2:0:0:
478,177,14428,5,8,3:2:0:0:
332,182,14594,1,2,3:0:0:0:
478,177,14761,1,0,1:0:0:0:
146,162,14928,1,2,3:0:0:0:
415,101,15094,2,0,L|422:228,1,97.5,8|0,3:2|3:0,0:0:0:0:
118,244,15428,2,0,L|109:102,1,97.5,0|0,1:0|0:0,0:0:0:0:
488,186,15761,6,0,L|371:190,1,97.5,6|0,1:2|0:0,0:0:0:0:
103,264,16094,2,0,P|35:215|26:116,1,146.25,6|0,1:2|0:0,0:0:0:0:
244,167,16428,2,0,L|389:169,1,97.5,2|0,1:2|3:0,0:0:0:0:
106,132,16761,1,0,1:0:0:0:
390,88,16928,6,0,L|403:201,1,97.5,2|2,0:0|1:2,0:0:0:0:
62,243,17261,2,0,L|50:117,1,97.5,0|0,0:0|1:0,0:0:0:0:
313,174,17594,2,0,L|451:171,1,97.5,2|2,3:0|3:2,3:0:0:0:
166,117,17928,2,0,L|48:120,2,97.5,2|0|0,0:0|1:0|0:0,0:0:0:0:
432,147,18428,5,10,1:2:0:0:
136,182,18594,1,10,1:2:0:0:
404,155,18761,2,0,L|514:155,1,97.5,0|0,1:0|3:0,0:0:0:0:
262,160,19094,2,0,L|367:160,2,97.5,2|0|0,1:2|0:0|1:0,0:0:0:0:
25,260,19594,6,0,L|18:157,1,97.5,2|2,0:0|1:2,0:0:0:0:
301,107,19928,2,0,L|174:111,1,97.5,2|0,0:0|1:0,0:0:0:0:
472,93,20261,2,0,P|481:184|370:234,1,195,0|2,0:0|0:0,0:0:0:0:
243,149,20761,2,0,L|133:150,1,97.5,0|2,1:0|3:0,0:0:0:0:
427,277,21094,6,0,P|490:245|409:179,1,195,2|0,1:2|1:0,0:0:0:0:
276,196,21594,1,0,0:0:0:0:
428,170,21761,1,2,1:2:0:0:
276,196,21928,1,0,0:0:0:0:
126,167,22094,1,0,1:0:0:0:
276,196,22261,1,2,0:0:0:0:
31,261,22428,6,0,P|15:195|139:147,1,195,2|0,1:2|1:0,0:0:0:0:
264,196,22928,1,0,0:0:0:0:
407,149,23094,1,2,1:2:0:0:
264,196,23261,1,0,0:0:0:0:
496,116,23428,1,0,1:0:0:0:
183,150,23594,1,2,0:0:0:0:
431,188,23761,6,0,L|213:192,1,195,2|0,1:2|1:0,0:0:0:0:
389,112,24261,1,0,0:0:0:0:
236,191,24428,1,2,1:2:0:0:
90,121,24594,1,0,0:0:0:0:
353,115,24761,2,0,L|364:232,1,97.5,0|2,1:0|0:0,0:0:0:0:
31,253,25094,6,0,L|166:253,1,97.5,2|2,1:2|3:2,0:0:0:0:
438,170,25428,1,0,1:0:0:0:
189,174,25594,2,0,L|59:173,1,97.5,2|2,3:2|1:2,0:0:0:0:
366,142,25928,1,2,3:2:0:0:
226,148,26094,1,0,1:0:0:0:
366,142,26261,1,2,3:2:0:0:
63,268,26428,6,0,B|164:267|164:267|65:268,1,195,2|0,1:2|1:0,0:0:0:0:
336,187,26928,1,0,0:0:0:0:
205,180,27094,1,0,1:0:0:0:
336,187,27261,1,0,0:0:0:0:
465,154,27428,1,0,1:0:0:0:
176,69,27594,6,0,P|102:98|29:218,1,195,2|2,1:2|1:2,0:0:0:0:
323,253,28094,2,0,L|458:253,1,97.5,2|0,1:2|0:0,0:0:0:0:
259,162,28428,2,0,L|155:162,1,97.5,2|0,1:2|0:0,0:0:0:0:
481,100,28761,2,0,L|489:201,1,97.5,2|0,1:2|0:0,0:0:0:0:
209,258,29094,6,0,L|320:256,1,97.5,10|0,0:0|0:0,0:0:0:0:
69,206,29428,2,0,B|67:109|67:109|164:109|164:109|66:98|66:98|164:98,1,390,0|0,1:0|1:0,0:0:0:0:
446,287,30261,6,0,L|235:299,1,195,2|2,0:0|0:0,0:0:0:0:
486,159,30761,2,0,L|493:281,1,97.5,0|0,1:0|0:0,0:0:0:0:
323,212,31094,2,0,L|209:224,1,97.5,2|0,1:2|0:0,0:0:0:0:
479,117,31428,2,0,L|484:236,1,97.5,2|0,1:2|0:0,0:0:0:0:
225,231,31761,6,0,L|213:136,1,82.8750015807152,12|0,0:0|0:0,0:0:0:0:
298,120,32094,1,8,1:2:0:0:
214,148,32261,1,8,0:0:0:0:
364,198,32428,2,0,L|470:198,1,82.8750015807152
300,214,32761,2,0,L|202:216,1,82.8750015807152,0|0,1:0|0:0,0:0:0:0:
464,311,33094,6,0,P|469:231|390:165,1,165.75000316143,2|8,2:0|1:2,0:0:0:0:
330,153,33594,1,8,0:0:0:0:
96,242,33761,2,0,L|273:239,1,165.75000316143,0|0,0:0|1:0,0:0:0:0:
347,199,34261,1,0,0:0:0:0:
67,171,34428,6,0,L|60:62,1,82.8750015807152,2|0,2:0|0:0,0:0:0:0:
142,76,34761,1,8,1:2:0:0:
286,155,34928,2,0,L|371:157,1,82.8750015807152,8|0,0:0|0:0,0:0:0:0:
136,139,35261,2,0,L|20:140,2,82.8750015807152,0|0|0,0:0|1:0|0:0,0:0:0:0:
445,171,35761,6,0,L|452:62,1,82.8750015807152,2|0,2:0|0:0,0:0:0:0:
370,76,36094,1,8,1:2:0:0:
226,155,36261,2,0,L|141:157,1,82.8750015807152,8|0,0:0|0:0,0:0:0:0:
376,139,36594,2,0,L|382:245,1,82.8750015807152,0|0,0:0|1:0,0:0:0:0:
231,242,36928,1,0,0:0:0:0:
484,222,37094,6,0,L|377:220,1,82.8750015807152,2|0,2:0|0:0,0:0:0:0:
256,292,37428,2,0,L|250:189,1,82.8750015807152,8|8,1:2|0:0,0:0:0:0:
474,190,37761,2,0,L|369:190,1,82.8750015807152
131,197,38094,2,0,L|217:194,1,82.8750015807152,0|0,1:0|0:0,0:0:0:0:
485,278,38428,6,0,P|475:206|383:169,1,165.75000316143,2|8,2:0|1:2,0:0:0:0:
294,190,38928,1,8,0:0:0:0:
45,219,39094,2,0,L|236:221,1,165.75000316143,0|0,0:0|1:0,0:0:0:0:
125,153,39594,1,0,0:0:0:0:
360,132,39761,6,0,L|376:232,1,82.8750015807152,2|0,2:0|0:0,0:0:0:0:
213,227,40094,1,8,1:2:0:0:
346,122,40261,2,0,L|449:121,1,82.8750015807152,8|0,0:0|0:0,0:0:0:0:
200,139,40594,2,0,L|112:141,1,82.8750015807152,0|0,0:0|1:0,0:0:0:0:
281,73,40928,1,0,0:0:0:0:
37,235,41094,6,0,P|34:178|146:119,1,165.75000316143,2|8,2:0|1:2,0:0:0:0:
268,158,41594,2,0,L|363:154,1,82.8750015807152,8|0,0:0|0:0,0:0:0:0:
109,101,41928,2,0,L|5:105,2,82.8750015807152,2|0|2,0:0|1:0|0:0,0:0:0:0:
392,136,42428,5,6,2:0:0:0:
258,147,42594,1,0,0:0:0:0:
392,136,42761,2,0,L|491:135,1,82.8750015807152,0|2,1:0|0:0,0:0:0:0:
336,79,43094,1,0,0:0:0:0:
42,199,43261,2,0,L|34:98,1,82.8750015807152,2|0,0:0|1:0,0:0:0:0:
117,88,43594,1,0,0:0:0:0:
259,116,43761,5,0,0:0:0:0:
496,179,43928,1,2,0:0:0:0:
347,193,44094,1,2,0:0:0:0:
496,179,44261,1,2,0:0:0:0:
347,193,44428,1,0,0:0:0:0:
106,181,44594,1,2,0:0:0:0:
246,127,44761,1,0,1:0:0:0:
382,93,44928,1,0,0:0:0:0:
135,66,45094,6,0,P|75:109|140:147,1,165.75000316143,2|0,0:0|1:0,0:0:0:0:
360,171,45594,1,2,0:0:0:0:
125,243,45761,2,0,L|307:245,1,165.75000316143,2|0,0:0|1:0,0:0:0:0:
52,159,46261,1,0,0:0:0:0:
404,102,46428,6,0,L|410:207,1,82.8750015807152,2|0,0:0|0:0,0:0:0:0:
121,223,46761,2,0,L|116:123,1,82.8750015807152,0|0,1:0|0:0,0:0:0:0:
468,122,47094,2,0,L|369:124,1,82.8750015807152,0|0,1:0|0:0,0:0:0:0:
129,149,47428,1,0,1:0:0:0:
385,123,47594,1,2,0:0:0:0:
55,253,47761,6,0,P|53:189|134:131,1,165.75000316143,2|0,0:0|1:0,0:0:0:0:
210,137,48261,1,0,0:0:0:0:
443,181,48428,1,2,0:0:0:0:
210,137,48594,1,2,0:0:0:0:
443,181,48761,2,0,L|448:296,1,82.8750015807152,0|0,1:0|0:0,0:0:0:0:
166,284,49094,6,0,P|108:248|179:206,1,165.75000316143,2|0,0:0|1:0,0:0:0:0:
424,126,49594,2,0,L|432:222,1,82.8750015807152,2|0,0:0|0:0,0:0:0:0:
153,197,49928,2,0,L|255:197,2,82.8750015807152,2|0|0,0:0|1:0|0:0,0:0:0:0:
478,110,50428,6,0,L|484:225,1,82.8750015807152,2|0,0:0|0:0,0:0:0:0:
162,132,50761,2,0,L|64:132,1,82.8750015807152,0|0,1:0|0:0,0:0:0:0:
342,87,51094,2,0,L|348:184,1,82.8750015807152,2|0,0:0|0:0,0:0:0:0:
122,244,51428,2,0,L|112:142,1,82.8750015807152,0|0,1:0|0:0,0:0:0:0:
407,160,51761,6,0,L|298:162,1,82.8750015807152,2|0,0:0|0:0,0:0:0:0:
461,85,52094,1,0,1:0:0:0:
324,161,52261,1,0,0:0:0:0:
86,220,52428,2,0,P|91:152|176:110,1,165.75000316143,2|0,0:0|1:0,0:0:0:0:
314,108,52928,1,0,0:0:0:0:
57,210,53094,6,0,L|254:218,1,165.75000316143,14|0,0:0|1:0,0:0:0:0:
451,148,53594,2,0,P|457:192|348:249,1,165.75000316143,2|2,0:0|0:0,0:0:0:0:
205,180,54094,1,0,1:0:0:0:
440,205,54261,6,0,L|254:209,1,165.75000316143
45,267,54761,2,0,L|38:159,1,82.8750015807152,0|0,1:0|0:0,0:0:0:0:
274,124,55094,2,0,L|389:130,1,82.8750015807152,2|0,0:0|0:0,0:0:0:0:
214,75,55428,2,0,L|121:78,1,82.8750015807152,0|0,1:0|0:0,0:0:0:0:
442,157,55761,6,0,L|271:169,2,165.75000316143,10|0|2,3:0|1:0|0:0,0:0:0:0:
358,102,56594,1,0,0:0:0:0:
50,253,56761,6,0,P|46:173|190:103,1,248.625004742146,10|0,3:0|0:0,0:0:0:0:
326,192,57428,2,0,L|143:197,1,165.75000316143,0|0,1:0|3:0,0:0:0:0:
258,130,57928,1,0,0:0:0:0:
411,117,58094,2,0,L|424:215,1,82.8750015807152,0|0,1:0|3:0,0:0:0:0:
149,259,58428,6,0,L|331:259,1,165.75000316143,6|0,0:0|1:0,0:0:0:0:
170,208,58928,2,0,L|157:108,1,82.8750015807152,2|0,0:0|0:0,0:0:0:0:
311,54,59261,2,0,L|324:161,1,82.8750015807152,2|0,0:0|1:0,0:0:0:0:
47,192,59594,6,0,L|143:196,2,82.8750015807152,0|0|0,0:0|3:0|0:0,0:0:0:0:
198,138,60094,2,0,L|317:138,1,82.8750015807152,0|0,1:0|0:0,0:0:0:0:
132,227,60428,2,0,L|123:128,1,82.8750015807152,2|0,0:0|0:0,0:0:0:0:
284,73,60761,2,0,L|294:178,1,82.8750015807152,0|0,1:0|0:0,0:0:0:0:
23,240,61094,6,0,L|133:241,1,82.8750015807152,2|0,0:0|0:0,0:0:0:0:
440,121,61428,2,0,L|448:225,1,82.8750015807152,0|0,1:0|0:0,0:0:0:0:
148,148,61761,2,0,L|38:157,1,82.8750015807152,0|0,1:0|0:0,0:0:0:0:
473,56,62094,2,0,L|479:163,1,82.8750015807152,0|0,1:0|3:0,0:0:0:0:
187,218,62428,5,0,3:0:0:0:
331,158,62594,1,0,3:0:0:0:
187,218,62761,1,0,1:0:0:0:
431,116,62928,1,0,3:0:0:0:
118,130,63094,1,0,3:0:0:0:
366,197,63261,2,0,L|270:197,2,82.8750015807152,0|0|0,0:0|1:0|0:0,0:0:0:0:
52,293,63761,6,0,P|56:227|140:182,1,146.25,6|0,0:0|0:0,0:0:0:0:
350,130,64094,2,0,L|363:248,1,97.5,8|2,1:2|1:2,0:0:0:0:
94,253,64428,1,2,3:2:0:0:
255,215,64594,1,0,0:0:0:0:
94,253,64761,1,8,1:2:0:0:
447,109,64928,6,0,L|452:225,1,97.5,2|2,1:2|3:2,0:0:0:0:
143,162,65261,2,0,L|25:164,1,97.5,0|8,0:0|1:2,0:0:0:0:
359,85,65594,2,0,L|365:205,1,97.5,2|2,1:2|3:2,0:0:0:0:
53,199,65928,1,0,0:0:0:0:
199,176,66094,1,8,1:2:0:0:
53,199,66261,1,0,0:0:0:0:
382,173,66428,5,6,0:0:0:0:
236,196,66594,1,2,1:2:0:0:
494,181,66761,2,0,L|361:183,1,97.5,8|0,1:2|0:0,0:0:0:0:
54,170,67094,2,0,L|181:172,2,97.5,2|0|8,3:2|0:0|1:2,0:0:0:0:
319,150,67594,6,0,L|322:42,1,97.5,2|2,1:2|3:2,0:0:0:0:
48,129,67928,2,0,L|150:125,1,97.5,2|8,1:2|1:2,0:0:0:0:
479,118,68261,2,0,L|343:123,1,97.5,0|2,0:0|3:2,0:0:0:0:
101,181,68594,1,2,1:2:0:0:
259,123,68761,1,8,1:2:0:0:
412,87,68928,1,2,1:2:0:0:
131,60,69094,6,0,P|69:88|140:167,1,195,6|8,0:0|1:2,0:0:0:0:
394,182,69594,1,2,1:2:0:0:
101,253,69761,2,0,L|340:251,1,195,2|8,3:2|1:2,0:0:0:0:
60,178,70261,1,2,1:2:0:0:
381,60,70428,6,0,P|443:88|372:167,1,195,6|8,0:0|1:2,0:0:0:0:
118,182,70928,1,2,1:2:0:0:
411,253,71094,2,0,L|172:251,1,195,2|8,3:2|1:2,0:0:0:0:
452,178,71594,1,0,0:0:0:0:
151,218,71761,6,0,L|141:118,1,97.5,6|2,0:0|1:2,0:0:0:0:
425,68,72094,2,0,L|435:174,1,97.5,8|0,1:2|0:0,0:0:0:0:
117,130,72428,2,0,L|2:134,1,97.5,2|2,3:2|1:2,0:0:0:0:
383,111,72761,2,0,L|490:113,1,97.5,8|0,1:2|0:0,0:0:0:0:
122,192,73094,5,6,0:0:0:0:
267,162,73261,1,0,0:0:0:0:
122,192,73428,1,8,1:2:0:0:
411,121,73594,1,0,0:0:0:0:
84,244,73761,2,0,L|72:127,1,97.5,0|2,1:0|1:2,0:0:0:0:
154,105,74011,1,0,0:0:0:0:
345,157,74094,2,0,L|431:151,1,48.75,8|0,1:2|0:0,0:0:0:0:
191,88,74261,2,0,L|112:92,1,48.75,2|0,1:2|0:0,0:0:0:0:
460,293,74428,6,0,P|456:227|372:182,1,146.25,6|0,0:0|0:0,0:0:0:0:
162,130,74761,2,0,L|149:248,1,97.5,8|0,1:2|0:0,0:0:0:0:
418,253,75094,1,2,3:2:0:0:
257,215,75261,1,0,0:0:0:0:
418,253,75428,1,8,1:2:0:0:
65,109,75594,6,0,L|60:225,1,97.5,2|2,1:2|3:2,0:0:0:0:
369,162,75928,2,0,L|487:164,1,97.5,0|8,0:0|1:2,0:0:0:0:
153,85,76261,2,0,L|147:205,1,97.5,2|2,1:2|3:2,0:0:0:0:
459,199,76594,1,0,0:0:0:0:
313,176,76761,1,8,1:2:0:0:
459,199,76928,1,2,1:2:0:0:
130,173,77094,5,6,0:0:0:0:
276,196,77261,1,2,1:2:0:0:
18,181,77428,2,0,L|151:183,1,97.5,8|0,1:2|0:0,0:0:0:0:
458,170,77761,2,0,L|331:172,2,97.5,2|0|8,3:2|0:0|1:2,0:0:0:0:
193,150,78261,6,0,L|190:42,1,97.5,2|2,1:2|3:2,0:0:0:0:
464,129,78594,2,0,L|362:125,1,97.5,2|8,1:2|1:2,0:0:0:0:
33,118,78928,2,0,L|169:123,1,97.5,0|2,0:0|3:2,0:0:0:0:
411,181,79261,1,0,0:0:0:0:
253,123,79428,1,8,1:2:0:0:
100,87,79594,1,2,1:2:0:0:
381,60,79761,6,0,P|443:88|372:167,1,195,6|8,0:0|1:2,0:0:0:0:
118,182,80261,1,0,0:0:0:0:
411,253,80428,2,0,L|172:251,1,195,2|8,3:2|1:2,0:0:0:0:
452,178,80928,1,2,1:2:0:0:
135,76,81094,6,0,L|121:190,1,97.5,6|0,0:0|0:0,0:0:0:0:
365,102,81428,1,8,1:2:0:0:
118,182,81594,1,0,0:0:0:0:
411,253,81761,2,0,L|172:251,1,195,2|8,3:2|1:2,0:0:0:0:
452,178,82261,1,2,1:2:0:0:
151,218,82428,6,0,L|141:118,1,97.5,6|0,0:0|0:0,0:0:0:0:
425,68,82761,2,0,L|435:174,1,97.5,8|0,1:2|0:0,0:0:0:0:
117,130,83094,2,0,L|2:134,1,97.5,0|0,1:0|0:0,0:0:0:0:
383,111,83428,2,0,L|490:113,1,97.5,8|2,1:2|1:2,0:0:0:0:
109,186,83761,5,6,0:0:0:0:
256,187,83928,1,2,1:2:0:0:
109,186,84094,1,8,1:2:0:0:
411,121,84261,1,0,0:0:0:0:
84,244,84428,2,0,L|72:127,1,97.5,0|0,1:0|0:0,0:0:0:0:
154,105,84678,1,0,0:0:0:0:
345,157,84761,2,0,L|431:151,1,48.75,8|0,1:2|0:0,0:0:0:0:
191,88,84928,2,0,L|112:92,1,48.75,2|0,1:2|0:0,0:0:0:0:
367,257,85094,6,0,L|372:125,1,97.5,6|0,0:0|0:0,0:0:0:0:
212,152,85428,1,8,1:2:0:0:
470,225,85594,2,0,L|363:224,1,97.5,2|0,0:2|0:0,0:0:0:0:
212,152,85928,1,2,0:2:0:0:
373,224,86094,1,8,1:2:0:0:
82,88,86261,6,0,P|28:117|93:216,1,195,2|2,1:2|1:2,0:0:0:0:
361,266,86761,2,0,L|375:147,1,97.5,8|2,1:2|0:2,0:0:0:0:
131,83,87094,2,0,L|118:223,1,97.5,2|2,1:2|0:2,0:0:0:0:
402,185,87428,1,8,1:2:0:0:
69,169,87594,5,2,1:2:0:0:
256,192,87761,12,0,89094,0:0:0:0:
