osu file format v14

[General]
AudioFilename: audio.mp3
AudioLeadIn: 0
PreviewTime: -1
Countdown: 0
SampleSet: Normal
StackLeniency: 0.7
Mode: 0
LetterboxInBreaks: 0
WidescreenStoryboard: 0

[Editor]
DistanceSpacing: 0.8
BeatDivisor: 4
GridSize: 8
TimelineZoom: 1

[Metadata]
Title:U Got That [Epic Metal Cover]
TitleUnicode:U Got That [Epic Metal Cover]
Artist:LittleVMills
ArtistUnicode:LittleVMills
Creator:Dziuras
Version:Metal
Source:
Tags:
BeatmapID:2052739
BeatmapSetID:980873

[Difficulty]
HPDrainRate:4
CircleSize:4
OverallDifficulty:4
ApproachRate:8.5
SliderMultiplier:2.2
SliderTickRate:1

[Events]
//Background and Video events
//Break Periods
//Storyboard Layer 0 (Background)
//Storyboard Layer 1 (Fail)
//Storyboard Layer 2 (Pass)
//Storyboard Layer 3 (Foreground)
//Storyboard Sound Samples

[TimingPoints]
518,468.75,4,1,0,100,1,0
518,-133.333333333333,4,2,0,75,0,0
15518,-100,4,2,0,75,0,0
28643,-100,4,3,0,75,0,0
30518,-66.6666666666667,4,1,0,75,0,0

[HitObjects]
196,82,518,5,4,0:0:0:0:
326,61,987,1,0,0:0:0:0:
346,123,1221,2,0,P|303:168|199:163,1,165.000006294251
152,126,1925,1,4,0:0:0:0:
129,187,2159,2,0,P|178:256|287:268,1,165.000006294251
314,251,2862,1,4,0:0:0:0:
363,207,3096,1,0,0:0:0:0:
363,207,3565,5,4,0:0:0:0:
309,246,3800,2,0,P|273:202|289:157,1,82.5000031471254
261,244,4268,2,0,P|225:200|241:155,1,82.5000031471254,4|0,0:0|0:0,0:0:0:0:
195,235,4737,1,0,0:0:0:0:
150,284,4971,2,0,P|81:240|101:167,1,165.000006294251,4|0,0:0|0:0,0:0:0:0:
145,122,5675,1,4,0:0:0:0:
203,91,5909,2,0,P|265:134|266:216,1,165.000006294251
207,245,6612,1,4,0:0:0:0:
145,267,6846,1,0,0:0:0:0:
145,267,7315,5,4,0:0:0:0:
123,204,7550,2,0,P|175:195|230:207,1,82.5000031471254
161,148,8018,2,0,P|213:139|268:151,1,82.5000031471254,4|0,0:0|0:0,0:0:0:0:
199,92,8487,1,0,0:0:0:0:
251,52,8721,2,0,P|319:45|403:104,1,165.000006294251,4|0,0:0|0:0,0:0:0:0:
418,158,9425,1,4,0:0:0:0:
352,153,9659,2,0,P|279:158|216:222,1,165.000006294251
188,289,10362,1,4,0:0:0:0:
258,310,10596,1,0,0:0:0:0:
258,310,11065,5,4,0:0:0:0:
297,256,11300,2,0,P|253:220|208:236,1,82.5000031471254
295,208,11768,2,0,P|251:172|206:188,1,82.5000031471254,4|0,0:0|0:0,0:0:0:0:
286,142,12237,1,0,0:0:0:0:
335,97,12471,2,0,P|291:28|218:48,1,165.000006294251,4|0,0:0|0:0,0:0:0:0:
173,92,13175,1,4,0:0:0:0:
142,150,13409,2,0,P|185:212|267:213,1,165.000006294251
296,154,14112,1,4,0:0:0:0:
318,92,14346,1,0,0:0:0:0:
318,92,14815,5,4,0:0:0:0:
255,70,15050,2,0,P|246:122|258:177,1,82.5000031471254
153,153,15518,5,4,0:0:0:0:
157,180,15635,1,0,0:0:0:0:
162,207,15753,1,0,0:0:0:0:
171,232,15870,1,0,0:0:0:0:
181,257,15987,2,0,L|200:317,3,55,4|0|0|0,0:0|0:0|0:0|0:0,0:0:0:0:
251,297,16456,2,0,L|233:244,3,55,4|0|0|0,0:0|0:0|0:0|0:0,0:0:0:0:
296,191,16925,2,0,L|340:146,1,55,4|0,0:0|0:0,0:0:0:0:
322,288,17159,2,0,L|380:329,1,55,4|0,0:0|0:0,0:0:0:0:
362,221,17393,5,4,0:0:0:0:
358,194,17510,1,0,0:0:0:0:
353,167,17628,1,0,0:0:0:0:
344,142,17745,1,0,0:0:0:0:
334,117,17862,2,0,L|315:57,3,55,4|0|0|0,0:0|0:0|0:0|0:0,0:0:0:0:
264,77,18331,2,0,L|282:130,3,55,4|0|0|0,0:0|0:0|0:0|0:0,0:0:0:0:
219,183,18800,2,0,L|175:228,1,55,4|0,0:0|0:0,0:0:0:0:
193,86,19034,2,0,L|135:45,1,55,4|0,0:0|0:0,0:0:0:0:
153,152,19268,5,4,0:0:0:0:
157,179,19385,1,0,0:0:0:0:
162,206,19503,1,0,0:0:0:0:
171,231,19620,1,0,0:0:0:0:
181,256,19737,2,0,L|200:316,3,55,4|0|0|0,0:0|0:0|0:0|0:0,0:0:0:0:
251,296,20206,2,0,L|233:243,3,55,4|0|0|0,0:0|0:0|0:0|0:0,0:0:0:0:
296,190,20675,2,0,L|340:145,1,55,4|0,0:0|0:0,0:0:0:0:
322,287,20909,2,0,L|380:328,1,55,4|0,0:0|0:0,0:0:0:0:
392,223,21143,5,4,0:0:0:0:
388,196,21260,1,0,0:0:0:0:
383,169,21378,1,0,0:0:0:0:
374,144,21495,1,0,0:0:0:0:
364,119,21612,2,0,L|345:59,3,55,4|0|0|0,0:0|0:0|0:0|0:0,0:0:0:0:
294,79,22081,2,0,L|312:132,3,55,4|0|0|0,0:0|0:0|0:0|0:0,0:0:0:0:
249,185,22550,2,0,L|205:230,1,55,4|0,0:0|0:0,0:0:0:0:
223,88,22784,2,0,L|165:47,1,55,4|0,0:0|0:0,0:0:0:0:
203,151,23018,5,4,0:0:0:0:
230,155,23135,1,0,0:0:0:0:
257,160,23253,1,0,0:0:0:0:
282,169,23370,1,0,0:0:0:0:
307,179,23487,2,0,L|367:198,3,55,4|0|0|0,0:0|0:0|0:0|0:0,0:0:0:0:
347,249,23956,2,0,L|294:231,3,55,4|0|0|0,0:0|0:0|0:0|0:0,0:0:0:0:
241,294,24425,2,0,L|196:338,1,55,4|0,0:0|0:0,0:0:0:0:
338,320,24659,2,0,L|379:378,1,55,4|0,0:0|0:0,0:0:0:0:
276,332,24893,5,4,0:0:0:0:
280,305,25010,1,0,0:0:0:0:
285,278,25128,1,0,0:0:0:0:
294,253,25245,1,0,0:0:0:0:
304,228,25362,2,0,L|323:168,3,55,4|0|0|0,0:0|0:0|0:0|0:0,0:0:0:0:
374,188,25831,2,0,L|356:241,3,55,4|0|0|0,0:0|0:0|0:0|0:0,0:0:0:0:
419,294,26300,2,0,L|463:339,1,55,4|0,0:0|0:0,0:0:0:0:
445,197,26534,2,0,L|503:156,1,55,4|0,0:0|0:0,0:0:0:0:
457,258,26768,5,4,0:0:0:0:
430,254,26885,1,0,0:0:0:0:
403,249,27003,1,0,0:0:0:0:
378,240,27120,1,0,0:0:0:0:
353,230,27237,2,0,L|293:211,3,55,4|0|0|0,0:0|0:0|0:0|0:0,0:0:0:0:
313,160,27706,2,0,L|366:178,3,55,4|0|0|0,0:0|0:0|0:0|0:0,0:0:0:0:
419,115,28175,2,0,L|464:71,1,55,4|0,0:0|0:0,0:0:0:0:
322,89,28409,2,0,L|281:31,1,55,4|0,0:0|0:0,0:0:0:0:
193,95,28643,5,12,0:0:0:0:
316,176,28800,1,8,0:0:0:0:
177,223,28956,1,8,0:0:0:0:
269,109,29112,1,12,0:0:0:0:
271,255,29268,1,8,0:0:0:0:
160,156,29425,1,8,0:0:0:0:
330,88,29581,1,12,0:0:0:0:
330,88,30518,6,0,P|235:114|241:263,1,247.500009441376,4|0,0:0|0:0,0:0:0:0:
307,254,30987,2,0,P|221:322|121:239,1,247.500009441376,4|0,0:0|0:0,0:0:0:0:
204,231,31456,2,0,P|152:135|235:35,1,247.500009441376,4|0,0:0|0:0,0:0:0:0:
311,43,31925,1,4,0:0:0:0:
311,43,32042,2,0,P|322:140|256:222,1,165.000006294251,8|0,0:0|0:0,0:0:0:0:
208,206,32393,6,0,P|209:251|375:263,1,247.500009441376,4|0,0:0|0:0,0:0:0:0:
447,250,32862,2,0,P|409:175|248:128,1,247.500009441376,4|0,0:0|0:0,0:0:0:0:
226,200,33331,1,4,0:0:0:0:
226,200,33448,2,0,P|141:213|82:154,1,165.000006294251,8|0,0:0|0:0,0:0:0:0:
164,136,33800,2,0,P|248:95|398:123,1,247.500009441376,4|0,0:0|0:0,0:0:0:0:
330,172,34268,6,0,P|396:248|306:339,1,247.500009441376,4|0,0:0|0:0,0:0:0:0:
283,260,34737,1,4,0:0:0:0:
283,260,34854,2,0,P|198:227|193:146,1,165.000006294251,8|0,0:0|0:0,0:0:0:0:
269,152,35206,2,0,P|215:86|92:167,1,247.500009441376,4|0,0:0|0:0,0:0:0:0:
12,134,35675,2,0,P|49:239|204:306,1,247.500009441376,4|0,0:0|0:0,0:0:0:0:
175,223,36143,5,4,0:0:0:0:
175,223,36260,2,0,P|277:223|311:322,1,165.000006294251,8|0,0:0|0:0,0:0:0:0:
251,326,36612,1,4,0:0:0:0:
251,326,36729,2,0,P|345:337|400:177,1,247.500009441376,8|0,0:0|0:0,0:0:0:0:
354,64,37315,5,4,0:0:0:0:
361,173,37471,2,0,L|290:164,1,55.0000020980836,8|0,0:0|0:0,0:0:0:0:
156,99,37784,2,0,P|115:152|162:225,1,165.000006294251,4|0,0:0|0:0,0:0:0:0:
164,220,38487,6,0,P|208:298|378:310,1,247.500009441376,4|0,0:0|0:0,0:0:0:0:
337,241,38956,2,0,P|403:181|304:89,1,247.500009441376,4|0,0:0|0:0,0:0:0:0:
295,167,39425,1,4,0:0:0:0:
295,167,39542,2,0,P|196:162|134:115,1,165.000006294251,8|0,0:0|0:0,0:0:0:0:
70,164,39893,2,0,P|98:265|241:281,1,247.500009441376,4|0,0:0|0:0,0:0:0:0:
195,212,40362,6,0,P|277:170|415:257,1,247.500009441376,4|0,0:0|0:0,0:0:0:0:
329,269,40831,1,4,0:0:0:0:
329,269,40948,2,0,P|238:312|161:274,1,165.000006294251,8|0,0:0|0:0,0:0:0:0:
227,223,41300,2,0,P|144:179|215:60,1,247.500009441376,4|0,0:0|0:0,0:0:0:0:
251,124,41768,2,0,P|336:146|291:276,1,247.500009441376,4|0,0:0|0:0,0:0:0:0:
355,336,42237,5,4,0:0:0:0:
355,336,42354,2,0,P|416:255|414:176,1,165.000006294251,8|0,0:0|0:0,0:0:0:0:
470,129,42706,2,0,P|384:101|249:191,1,247.500009441376,4|0,0:0|0:0,0:0:0:0:
335,201,43175,2,0,P|267:274|118:258,1,247.500009441376,4|0,0:0|0:0,0:0:0:0:
184,204,43643,2,0,P|193:156|233:186,3,82.5000031471254,4|0|0|0,0:0|0:0|0:0|0:0,0:0:0:0:
299,163,44112,6,0,P|290:211|250:181,3,82.5000031471254,4|0|0|0,0:0|0:0|0:0|0:0,0:0:0:0:
190,244,44581,2,0,B|146:265|146:265|203:279,2,82.5000031471254,0|4|0,0:0|0:0|0:0,0:0:0:0:
143,261,44971,2,0,L|84:261,1,55.0000020980836,8|0,0:0|0:0,0:0:0:0:
132,101,45284,2,0,P|200:108|227:97,1,82.5000031471254,4|0,0:0|0:0,0:0:0:0:
257,35,45518,6,0,P|347:69|392:219,1,247.500009441376,4|0,0:0|0:0,0:0:0:0:
312,210,45987,2,0,P|230:175|203:302,1,247.500009441376,4|0,0:0|0:0,0:0:0:0:
277,279,46456,2,0,P|374:283|419:138,1,247.500009441376,4|0,0:0|0:0,0:0:0:0:
347,142,46925,1,4,0:0:0:0:
347,142,47042,2,0,P|282:78|206:101,1,165.000006294251,8|0,0:0|0:0,0:0:0:0:
248,167,47393,6,0,P|157:195|198:331,1,247.500009441376,4|0,0:0|0:0,0:0:0:0:
262,321,47862,2,0,P|331:231|412:327,1,247.500009441376,4|0,0:0|0:0,0:0:0:0:
470,239,48331,1,4,0:0:0:0:
470,239,48448,2,0,P|437:147|371:121,1,165.000006294251,8|0,0:0|0:0,0:0:0:0:
369,39,48800,2,0,P|270:77|213:208,1,247.500009441376,4|0,0:0|0:0,0:0:0:0:
137,167,49268,6,0,P|126:276|263:244,1,247.500009441376,4|0,0:0|0:0,0:0:0:0:
313,320,49737,1,4,0:0:0:0:
313,320,49854,2,0,P|351:236|312:167,1,165.000006294251,8|0,0:0|0:0,0:0:0:0:
239,186,50206,2,0,P|266:104|401:131,1,247.500009441376,4|0,0:0|0:0,0:0:0:0:
472,169,50675,2,0,P|460:280|312:335,1,247.500009441376,4|0,0:0|0:0,0:0:0:0:
343,258,51143,5,4,0:0:0:0:
343,258,51260,2,0,P|247:279|174:259,1,165.000006294251,8|0,0:0|0:0,0:0:0:0:
166,182,51611,1,4,0:0:0:0:
169,183,51728,2,0,P|247:124|365:200,1,247.500009441376,8|0,0:0|0:0,0:0:0:0:
288,340,52314,5,4,0:0:0:0:
309,231,52471,2,0,L|239:234,1,55.0000020980836,8|0,0:0|0:0,0:0:0:0:
89,240,52783,2,0,P|50:281|92:306,2,82.5000031471254,4|0|0,0:0|0:0|0:0,0:0:0:0:
89,240,53252,6,0,L|130:195,3,41.2500015735627,0|0|0|0,2:0|2:0|2:0|2:0,0:0:0:0:
116,209,53486,2,0,P|150:122|291:45,1,247.500009441376,4|0,0:0|0:0,0:0:0:0:
302,125,53955,2,0,P|381:134|398:294,1,247.500009441376,4|0,0:0|0:0,0:0:0:0:
337,241,54424,1,4,0:0:0:0:
337,241,54541,2,0,P|253:290|168:273,1,165.000006294251,8|0,0:0|0:0,0:0:0:0:
203,201,54893,2,0,P|118:159|180:36,1,247.500009441376,4|0,0:0|0:0,0:0:0:0:
228,91,55361,6,0,P|293:171|185:267,1,247.500009441376,4|0,0:0|0:0,0:0:0:0:
258,337,55830,1,4,0:0:0:0:
258,337,55947,2,0,P|368:316|430:246,1,165.000006294251,8|0,0:0|0:0,0:0:0:0:
453,214,56299,2,0,P|431:117|302:46,1,247.500009441376,4|0,0:0|0:0,0:0:0:0:
293,127,56768,2,0,P|204:81|124:208,1,247.500009441376,4|0,0:0|0:0,0:0:0:0:
200,178,57236,5,4,0:0:0:0:
200,178,57353,2,0,P|289:207|315:285,1,165.000006294251,8|0,0:0|0:0,0:0:0:0:
234,286,57705,2,0,P|142:295|55:155,1,247.500009441376,4|0,0:0|0:0,0:0:0:0:
136,180,58174,2,0,P|160:87|305:25,1,247.500009441376,4|0,0:0|0:0,0:0:0:0:
309,103,58643,2,0,P|397:140|269:255,1,330.000012588501,4|4,0:0|0:0,0:0:0:0:
210,159,59346,5,0,0:0:0:0:
180,174,59463,1,0,0:0:0:0:
158,199,59580,2,0,B|120:232|121:231|174:213,2,82.5000031471254,4|0|4,0:0|0:0|0:0,0:0:0:0:
268,209,59971,2,0,L|223:264,1,55.0000020980836,8|0,0:0|0:0,0:0:0:0:
313,234,60166,2,0,L|385:285,2,82.5000031471254,0|4|0,0:0|0:0|0:0,0:0:0:0:
363,169,60518,6,0,P|299:84|99:75,1,247.500009441376,4|0,0:0|0:0,0:0:0:0:
167,133,60986,2,0,L|75:169,1,82.5000031471254,4|0,0:0|0:0,0:0:0:0:
170,183,61221,2,0,L|280:217,1,82.5000031471254,4|0,0:0|0:0,0:0:0:0:
169,231,61455,2,0,P|166:288|349:268,1,247.500009441376,4|4,0:0|0:0,0:0:0:0:
350,138,62158,1,4,0:0:0:0:
350,138,62627,6,0,P|273:84|194:105,1,165.000006294251,4|0,0:0|0:0,0:0:0:0:
263,156,62978,2,0,P|177:185|129:242,1,165.000006294251,4|0,0:0|0:0,0:0:0:0:
213,244,63330,2,0,P|193:315|319:304,1,247.500009441376,4|4,0:0|0:0,0:0:0:0:
335,110,64033,1,4,0:0:0:0:
176,114,64502,6,0,B|86:136|86:136|179:151,1,165.000006294251,4|0,0:0|0:0,0:0:0:0:
227,123,64853,2,0,B|309:146|309:146|222:160,1,165.000006294251,4|0,0:0|0:0,0:0:0:0:
178,180,65205,2,0,P|107:194|108:338,1,165.000006294251,4|0,0:0|0:0,0:0:0:0:
136,283,65557,2,0,P|206:268|206:125,1,165.000006294251,4|0,0:0|0:0,0:0:0:0:
246,123,65908,2,0,L|338:123,1,82.5000031471254,4|0,0:0|0:0,0:0:0:0:
