osu file format v14

[General]
AudioFilename: audio.mp3
AudioLeadIn: 0
PreviewTime: 122453
Countdown: 0
SampleSet: Normal
StackLeniency: 0.7
Mode: 1
LetterboxInBreaks: 0
WidescreenStoryboard: 1

[Editor]
DistanceSpacing: 4
BeatDivisor: 4
GridSize: 32
TimelineZoom: 3.499998

[Metadata]
Title:Camel by Camel Metal Cover
TitleUnicode:Camel by Camel Metal Cover
Artist:LittleVMills
ArtistUnicode:LittleVMills
Creator:Spooki
Version:Taiko Zone
Source:Minus8 Ankha Zone
Tags:electronic metal rock tiktok tik tok ankha zone dance animal crossing egyptian egypt sphinx funny cat meme trend lol lmao lyrics lyrical osu mania taiko oni don katsu
BeatmapID:3241917
BeatmapSetID:1587351

[Difficulty]
HPDrainRate:5.5
CircleSize:2
OverallDifficulty:6
ApproachRate:5
SliderMultiplier:1.4
SliderTickRate:1

[Events]
//Background and Video events
0,0,"Anhkazone.png",0,0
//Break Periods
//Storyboard Layer 0 (Background)
//Storyboard Layer 1 (Fail)
//Storyboard Layer 2 (Pass)
//Storyboard Layer 3 (Foreground)
//Storyboard Layer 4 (Overlay)
//Storyboard Sound Samples

[TimingPoints]
272,272.727272727273,4,1,0,100,1,0
272,-95.2380952380952,4,1,0,100,0,0
4362,-47.6190476190476,4,1,0,100,0,0
4431,-95.2380952380952,4,1,0,100,0,0
6817,-47.6190476190476,4,1,0,100,0,0
6953,-50,4,1,0,100,0,0
7090,-52.6315789473684,4,1,0,100,0,0
7226,-55.5555555555556,4,1,0,100,0,0
7294,-95.2380952380952,4,1,0,100,0,0
7772,-58.8235294117647,4,1,0,100,0,0
7908,-62.5,4,1,0,100,0,0
7976,-95.2380952380952,4,1,0,100,0,0
8181,-66.6666666666667,4,1,0,100,0,0
8317,-71.4285714285714,4,1,0,100,0,0
8385,-95.2380952380952,4,1,0,100,0,0
8590,-83.3333333333333,4,1,0,100,0,0
8590,-76.9230769230769,4,1,0,100,0,0
8658,-95.2380952380952,4,1,0,100,0,0
8999,-95.2380952380952,4,1,0,100,0,0
9067,-95.2380952380952,4,1,0,100,0,0
26453,-95.2380952380952,4,1,0,100,0,0
52567,-95.2380952380952,4,1,0,100,0,0
61294,-90.9090909090909,4,1,0,100,0,0
61362,-90.9090909090909,4,1,0,100,0,1
70090,-90.9090909090909,4,1,0,100,0,1
78749,-95.2380952380952,4,1,0,100,0,0
113726,-100,4,1,0,100,0,0
122453,-95.2380952380952,4,1,0,100,0,0
131181,-90.9090909090909,4,1,0,100,0,1
139908,-90.9090909090909,4,1,0,100,0,1
148635,-95.2380952380952,4,1,0,100,0,0
192272,-90.9090909090909,4,1,0,100,0,1
205362,-90.9090909090909,4,1,0,100,0,1
218453,-90.9090909090909,4,1,0,100,0,1
227181,-90.9090909090909,4,1,0,100,0,0

[HitObjects]
256,192,272,5,8,0:0:0:0:
256,192,408,1,0,0:0:0:0:
256,192,544,1,8,0:0:0:0:
256,192,681,1,0,0:0:0:0:
256,192,817,1,8,0:0:0:0:
256,192,1090,1,8,0:0:0:0:
256,192,1226,1,0,0:0:0:0:
256,192,1362,1,8,0:0:0:0:
256,192,1635,1,8,0:0:0:0:
256,192,1772,1,0,0:0:0:0:
256,192,1908,1,8,0:0:0:0:
256,192,2044,1,0,0:0:0:0:
256,192,2180,1,8,0:0:0:0:
256,192,2453,1,8,0:0:0:0:
256,192,2590,1,0,0:0:0:0:
256,192,2726,1,8,0:0:0:0:
256,192,2862,1,0,0:0:0:0:
256,192,2998,1,8,0:0:0:0:
256,192,3271,1,8,0:0:0:0:
256,192,3408,1,0,0:0:0:0:
256,192,3544,1,8,0:0:0:0:
256,192,3681,1,8,0:0:0:0:
256,192,3817,1,8,0:0:0:0:
256,192,3953,1,0,0:0:0:0:
256,192,4090,1,8,0:0:0:0:
256,192,4226,1,8,0:0:0:0:
256,192,4362,1,4,0:0:0:0:
256,192,4635,1,8,0:0:0:0:
256,192,4771,1,0,0:0:0:0:
256,192,4907,1,8,0:0:0:0:
256,192,5044,1,0,0:0:0:0:
256,192,5180,1,8,0:0:0:0:
256,192,5453,1,8,0:0:0:0:
256,192,5589,1,0,0:0:0:0:
256,192,5725,1,8,0:0:0:0:
256,192,5998,1,8,0:0:0:0:
256,192,6135,1,8,0:0:0:0:
256,192,6272,1,8,0:0:0:0:
256,192,6408,1,0,0:0:0:0:
256,192,6544,1,8,0:0:0:0:
256,192,6817,1,4,0:0:0:0:
256,192,6953,1,4,0:0:0:0:
256,192,7090,1,12,0:0:0:0:
256,192,7226,1,4,0:0:0:0:
256,192,7772,1,4,0:0:0:0:
256,192,7908,1,12,0:0:0:0:
256,192,8181,1,4,0:0:0:0:
256,192,8317,1,12,0:0:0:0:
256,192,8590,1,12,0:0:0:0:
256,192,8999,1,4,0:0:0:0:
256,192,9135,1,8,0:0:0:0:
256,192,9271,1,0,0:0:0:0:
256,192,9544,1,8,0:0:0:0:
256,192,9817,1,8,0:0:0:0:
256,192,9885,1,8,0:0:0:0:
256,192,9953,1,0,0:0:0:0:
256,192,10090,1,8,0:0:0:0:
256,192,10226,1,0,0:0:0:0:
256,192,10294,1,0,0:0:0:0:
256,192,10362,1,8,0:0:0:0:
256,192,10499,1,0,0:0:0:0:
256,192,10635,1,8,0:0:0:0:
256,192,10908,1,0,0:0:0:0:
256,192,11044,1,0,0:0:0:0:
256,192,11112,1,0,0:0:0:0:
256,192,11181,1,8,0:0:0:0:
256,192,11453,1,8,0:0:0:0:
256,192,11726,1,8,0:0:0:0:
256,192,11862,1,0,0:0:0:0:
256,192,11999,1,8,0:0:0:0:
256,192,12135,1,8,0:0:0:0:
256,192,12272,1,0,0:0:0:0:
256,192,12340,1,0,0:0:0:0:
256,192,12408,1,8,0:0:0:0:
256,192,12545,1,8,0:0:0:0:
256,192,12681,1,0,0:0:0:0:
256,192,12749,1,0,0:0:0:0:
256,192,12817,1,0,0:0:0:0:
256,192,12954,1,8,0:0:0:0:
256,192,13090,1,0,0:0:0:0:
256,192,13158,1,8,0:0:0:0:
256,192,13226,1,0,0:0:0:0:
256,192,13362,1,12,0:0:0:0:
256,192,13567,1,0,0:0:0:0:
256,192,13635,1,0,0:0:0:0:
256,192,13703,1,8,0:0:0:0:
256,192,13908,1,0,0:0:0:0:
256,192,14181,1,0,0:0:0:0:
256,192,14249,1,0,0:0:0:0:
256,192,14317,1,8,0:0:0:0:
256,192,14453,1,8,0:0:0:0:
256,192,14590,1,8,0:0:0:0:
256,192,14726,1,0,0:0:0:0:
256,192,14862,1,8,0:0:0:0:
256,192,14999,1,0,0:0:0:0:
256,192,15067,1,8,0:0:0:0:
256,192,15135,1,0,0:0:0:0:
256,192,15272,1,8,0:0:0:0:
256,192,15408,1,0,0:0:0:0:
256,192,15544,1,0,0:0:0:0:
256,192,15612,1,0,0:0:0:0:
256,192,15681,1,8,0:0:0:0:
256,192,15817,1,8,0:0:0:0:
256,192,15885,1,0,0:0:0:0:
256,192,15953,1,0,0:0:0:0:
256,192,16090,1,8,0:0:0:0:
256,192,16226,1,0,0:0:0:0:
256,192,16362,1,8,0:0:0:0:
256,192,16499,1,8,0:0:0:0:
256,192,16635,1,0,0:0:0:0:
256,192,16703,1,0,0:0:0:0:
256,192,16772,1,8,0:0:0:0:
256,192,16908,1,4,0:0:0:0:
256,192,17044,1,8,0:0:0:0:
256,192,17112,1,8,0:0:0:0:
256,192,17181,1,0,0:0:0:0:
256,192,17317,1,4,0:0:0:0:
256,192,17453,1,8,0:0:0:0:
256,192,17522,1,8,0:0:0:0:
256,192,17590,1,0,0:0:0:0:
256,192,17726,1,12,0:0:0:0:
256,192,17862,1,0,0:0:0:0:
256,192,17998,1,8,0:0:0:0:
256,192,18271,1,8,0:0:0:0:
256,192,18544,1,0,0:0:0:0:
256,192,18612,1,0,0:0:0:0:
256,192,18680,1,8,0:0:0:0:
256,192,18817,1,8,0:0:0:0:
256,192,18953,1,0,0:0:0:0:
256,192,19021,1,0,0:0:0:0:
256,192,19089,1,8,0:0:0:0:
256,192,19226,1,0,0:0:0:0:
256,192,19362,1,8,0:0:0:0:
256,192,19635,1,0,0:0:0:0:
256,192,19772,1,8,0:0:0:0:
256,192,19908,1,0,0:0:0:0:
256,192,19976,1,0,0:0:0:0:
256,192,20044,1,8,0:0:0:0:
256,192,20180,1,8,0:0:0:0:
256,192,20317,1,0,0:0:0:0:
256,192,20453,1,8,0:0:0:0:
256,192,20522,1,0,0:0:0:0:
256,192,20589,1,8,0:0:0:0:
256,192,20726,1,0,0:0:0:0:
256,192,20862,1,8,0:0:0:0:
256,192,20999,1,0,0:0:0:0:
256,192,21067,1,0,0:0:0:0:
256,192,21135,1,8,0:0:0:0:
256,192,21272,1,8,0:0:0:0:
256,192,21408,1,0,0:0:0:0:
256,192,21476,1,0,0:0:0:0:
256,192,21544,1,8,0:0:0:0:
256,192,21681,1,8,0:0:0:0:
256,192,21817,1,0,0:0:0:0:
256,192,21885,1,0,0:0:0:0:
256,192,21953,1,0,0:0:0:0:
256,192,22090,1,12,0:0:0:0:
256,192,22226,1,0,0:0:0:0:
256,192,22294,1,8,0:0:0:0:
256,192,22362,1,0,0:0:0:0:
256,192,22635,1,8,0:0:0:0:
256,192,22772,1,0,0:0:0:0:
256,192,22908,1,0,0:0:0:0:
256,192,22976,1,0,0:0:0:0:
256,192,23044,1,8,0:0:0:0:
256,192,23180,1,8,0:0:0:0:
256,192,23317,1,8,0:0:0:0:
256,192,23453,1,0,0:0:0:0:
256,192,23589,1,8,0:0:0:0:
256,192,23726,1,0,0:0:0:0:
256,192,23794,1,8,0:0:0:0:
256,192,23862,1,0,0:0:0:0:
256,192,23999,1,8,0:0:0:0:
256,192,24135,1,0,0:0:0:0:
256,192,24271,1,0,0:0:0:0:
256,192,24339,1,0,0:0:0:0:
256,192,24408,1,8,0:0:0:0:
256,192,24544,1,8,0:0:0:0:
256,192,24612,1,0,0:0:0:0:
256,192,24680,1,0,0:0:0:0:
256,192,24817,1,8,0:0:0:0:
256,192,24953,1,0,0:0:0:0:
256,192,25089,1,8,0:0:0:0:
256,192,25226,1,8,0:0:0:0:
256,192,25362,1,0,0:0:0:0:
256,192,25499,1,8,0:0:0:0:
256,192,25635,1,4,0:0:0:0:
256,192,25771,1,8,0:0:0:0:
256,192,25839,1,8,0:0:0:0:
256,192,25908,1,0,0:0:0:0:
256,192,26044,1,4,0:0:0:0:
256,192,26180,1,8,0:0:0:0:
256,192,26249,1,8,0:0:0:0:
256,192,26317,1,0,0:0:0:0:
256,192,26453,1,12,0:0:0:0:
256,192,26590,1,0,0:0:0:0:
256,192,26726,1,0,0:0:0:0:
256,192,26999,1,8,0:0:0:0:
256,192,27272,1,0,0:0:0:0:
256,192,27408,1,0,0:0:0:0:
256,192,27544,1,0,0:0:0:0:
256,192,27680,1,8,0:0:0:0:
256,192,28090,1,8,0:0:0:0:
256,192,28362,1,8,0:0:0:0:
256,192,28499,1,0,0:0:0:0:
256,192,28635,1,8,0:0:0:0:
256,192,28908,1,0,0:0:0:0:
256,192,29181,1,8,0:0:0:0:
256,192,29317,1,0,0:0:0:0:
256,192,29590,1,0,0:0:0:0:
256,192,29726,1,8,0:0:0:0:
256,192,29999,1,0,0:0:0:0:
256,192,30272,1,8,0:0:0:0:
256,192,30408,1,0,0:0:0:0:
256,192,30817,1,0,0:0:0:0:
256,192,30953,1,0,0:0:0:0:
256,192,31090,1,8,0:0:0:0:
256,192,31226,1,0,0:0:0:0:
256,192,31362,1,8,0:0:0:0:
256,192,31635,1,8,0:0:0:0:
256,192,31772,1,0,0:0:0:0:
256,192,31908,1,8,0:0:0:0:
256,192,32044,1,8,0:0:0:0:
256,192,32181,1,0,0:0:0:0:
256,192,32453,1,8,0:0:0:0:
256,192,32726,1,0,0:0:0:0:
256,192,32794,1,0,0:0:0:0:
256,192,32862,1,8,0:0:0:0:
256,192,32999,1,12,0:0:0:0:
256,192,33544,1,4,0:0:0:0:
256,192,34090,1,12,0:0:0:0:
256,192,34635,1,8,0:0:0:0:
256,192,34772,1,8,0:0:0:0:
256,192,34840,1,8,0:0:0:0:
256,192,34908,1,0,0:0:0:0:
256,192,35044,1,12,0:0:0:0:
256,192,35453,1,8,0:0:0:0:
256,192,35726,1,0,0:0:0:0:
256,192,35794,1,0,0:0:0:0:
256,192,35862,1,0,0:0:0:0:
256,192,35999,1,8,0:0:0:0:
256,192,36135,1,8,0:0:0:0:
256,192,36817,1,8,0:0:0:0:
256,192,37090,1,0,0:0:0:0:
256,192,37226,1,8,0:0:0:0:
256,192,37362,1,0,0:0:0:0:
256,192,37431,1,0,0:0:0:0:
256,192,37499,1,8,0:0:0:0:
256,192,37635,1,8,0:0:0:0:
256,192,37908,1,0,0:0:0:0:
256,192,37976,1,0,0:0:0:0:
256,192,38044,1,8,0:0:0:0:
256,192,38112,1,0,0:0:0:0:
256,192,38181,1,8,0:0:0:0:
256,192,38317,1,0,0:0:0:0:
256,192,38385,1,0,0:0:0:0:
256,192,38453,1,0,0:0:0:0:
256,192,38590,1,0,0:0:0:0:
256,192,38658,1,0,0:0:0:0:
256,192,38726,1,8,0:0:0:0:
256,192,38794,1,8,0:0:0:0:
256,192,38862,1,8,0:0:0:0:
256,192,38931,1,8,0:0:0:0:
256,192,38999,1,0,0:0:0:0:
256,192,39067,1,0,0:0:0:0:
256,192,39135,1,8,0:0:0:0:
256,192,39203,1,8,0:0:0:0:
256,192,39272,1,0,0:0:0:0:
256,192,39544,1,12,0:0:0:0:
256,192,39681,1,8,0:0:0:0:
256,192,39817,1,0,0:0:0:0:
256,192,39885,1,0,0:0:0:0:
256,192,39953,1,8,0:0:0:0:
256,192,40090,1,8,0:0:0:0:
256,192,40362,1,0,0:0:0:0:
256,192,40499,1,8,0:0:0:0:
256,192,40567,1,0,0:0:0:0:
256,192,40635,1,8,0:0:0:0:
256,192,40703,1,8,0:0:0:0:
256,192,40772,1,0,0:0:0:0:
256,192,40908,1,8,0:0:0:0:
256,192,41181,1,8,0:0:0:0:
256,192,41453,1,12,0:0:0:0:
256,192,41590,1,0,0:0:0:0:
256,192,41726,1,12,0:0:0:0:
256,192,42272,1,12,0:0:0:0:
256,192,42544,1,4,0:0:0:0:
256,192,42681,1,12,0:0:0:0:
256,192,43090,1,0,0:0:0:0:
256,192,43158,1,0,0:0:0:0:
256,192,43226,1,8,0:0:0:0:
256,192,43362,1,8,0:0:0:0:
256,192,43499,1,0,0:0:0:0:
256,192,43567,1,8,0:0:0:0:
256,192,43635,1,8,0:0:0:0:
256,192,43908,1,4,0:0:0:0:
256,192,44044,1,0,0:0:0:0:
256,192,44181,1,8,0:0:0:0:
256,192,44453,1,0,0:0:0:0:
256,192,44726,1,8,0:0:0:0:
256,192,44862,1,0,0:0:0:0:
256,192,44999,1,8,0:0:0:0:
256,192,45135,1,0,0:0:0:0:
256,192,45272,1,8,0:0:0:0:
256,192,45408,1,8,0:0:0:0:
256,192,45544,1,0,0:0:0:0:
256,192,45681,1,8,0:0:0:0:
256,192,45817,1,0,0:0:0:0:
256,192,46090,1,8,0:0:0:0:
256,192,46158,1,8,0:0:0:0:
256,192,46226,1,0,0:0:0:0:
256,192,46362,1,8,0:0:0:0:
256,192,46635,1,8,0:0:0:0:
256,192,46908,1,0,0:0:0:0:
256,192,47044,1,8,0:0:0:0:
256,192,47181,1,0,0:0:0:0:
256,192,47317,1,0,0:0:0:0:
256,192,47453,1,0,0:0:0:0:
256,192,47590,1,8,0:0:0:0:
256,192,47726,1,0,0:0:0:0:
256,192,47862,1,8,0:0:0:0:
256,192,47999,1,0,0:0:0:0:
256,192,48272,1,0,0:0:0:0:
256,192,48408,1,0,0:0:0:0:
256,192,48545,1,8,0:0:0:0:
256,192,48817,1,0,0:0:0:0:
256,192,49090,1,8,0:0:0:0:
256,192,49226,1,0,0:0:0:0:
256,192,49363,1,8,0:0:0:0:
256,192,49499,1,0,0:0:0:0:
256,192,49636,1,8,0:0:0:0:
256,192,49772,1,8,0:0:0:0:
256,192,49908,1,0,0:0:0:0:
256,192,50045,1,8,0:0:0:0:
256,192,50181,1,0,0:0:0:0:
256,192,50454,1,8,0:0:0:0:
256,192,50522,1,8,0:0:0:0:
256,192,50590,1,0,0:0:0:0:
256,192,50726,1,8,0:0:0:0:
256,192,50999,1,8,0:0:0:0:
256,192,51272,1,0,0:0:0:0:
256,192,51408,1,8,0:0:0:0:
256,192,51545,1,0,0:0:0:0:
256,192,51681,1,0,0:0:0:0:
256,192,51749,1,0,0:0:0:0:
256,192,51817,1,0,0:0:0:0:
256,192,51885,1,8,0:0:0:0:
256,192,51954,1,8,0:0:0:0:
256,192,52090,1,0,0:0:0:0:
256,192,52158,1,0,0:0:0:0:
256,192,52226,1,8,0:0:0:0:
256,192,52362,1,0,0:0:0:0:
256,192,52431,1,0,0:0:0:0:
256,192,52499,1,0,0:0:0:0:
256,192,52635,1,12,0:0:0:0:
256,192,52772,1,0,0:0:0:0:
256,192,52908,1,0,0:0:0:0:
256,192,52976,1,0,0:0:0:0:
256,192,53044,1,0,0:0:0:0:
256,192,53181,1,8,0:0:0:0:
256,192,53317,1,0,0:0:0:0:
256,192,53454,1,0,0:0:0:0:
256,192,53522,1,0,0:0:0:0:
256,192,53590,1,8,0:0:0:0:
256,192,53726,1,8,0:0:0:0:
256,192,53863,1,8,0:0:0:0:
256,192,53999,1,0,0:0:0:0:
256,192,54135,1,8,0:0:0:0:
256,192,54272,1,0,0:0:0:0:
256,192,54340,1,8,0:0:0:0:
256,192,54408,1,0,0:0:0:0:
256,192,54545,1,8,0:0:0:0:
256,192,54681,1,0,0:0:0:0:
256,192,54817,1,0,0:0:0:0:
256,192,54885,1,0,0:0:0:0:
256,192,54954,1,8,0:0:0:0:
256,192,55090,1,8,0:0:0:0:
256,192,55158,1,0,0:0:0:0:
256,192,55226,1,0,0:0:0:0:
256,192,55363,1,8,0:0:0:0:
256,192,55499,1,0,0:0:0:0:
256,192,55635,1,8,0:0:0:0:
256,192,55703,1,0,0:0:0:0:
256,192,55771,1,0,0:0:0:0:
256,192,55840,1,8,0:0:0:0:
256,192,55908,1,0,0:0:0:0:
256,192,56044,1,0,0:0:0:0:
256,192,56181,1,8,0:0:0:0:
256,192,56317,1,0,0:0:0:0:
256,192,56385,1,0,0:0:0:0:
256,192,56453,1,8,0:0:0:0:
256,192,56590,1,0,0:0:0:0:
256,192,56726,1,0,0:0:0:0:
256,192,56862,1,8,0:0:0:0:
256,192,56999,1,12,0:0:0:0:
256,192,57135,1,0,0:0:0:0:
256,192,57203,1,0,0:0:0:0:
256,192,57272,1,0,0:0:0:0:
256,192,57408,1,8,0:0:0:0:
256,192,57545,1,0,0:0:0:0:
256,192,57612,1,8,0:0:0:0:
256,192,57681,1,8,0:0:0:0:
256,192,57818,1,0,0:0:0:0:
256,192,57886,1,0,0:0:0:0:
256,192,57954,1,8,0:0:0:0:
256,192,58090,1,8,0:0:0:0:
256,192,58227,1,8,0:0:0:0:
256,192,58363,1,0,0:0:0:0:
256,192,58499,1,8,0:0:0:0:
256,192,58636,1,0,0:0:0:0:
256,192,58704,1,0,0:0:0:0:
256,192,58772,1,0,0:0:0:0:
256,192,58909,1,8,0:0:0:0:
256,192,59045,1,0,0:0:0:0:
256,192,59181,1,0,0:0:0:0:
256,192,59249,1,0,0:0:0:0:
256,192,59317,1,0,0:0:0:0:
256,192,59385,1,8,0:0:0:0:
256,192,59454,1,8,0:0:0:0:
256,192,59522,1,0,0:0:0:0:
256,192,59590,1,8,0:0:0:0:
256,192,59727,1,8,0:0:0:0:
256,192,59863,1,0,0:0:0:0:
256,192,59999,1,8,0:0:0:0:
256,192,60067,1,0,0:0:0:0:
256,192,60135,1,0,0:0:0:0:
256,192,60204,1,8,0:0:0:0:
256,192,60272,1,0,0:0:0:0:
256,192,60408,1,8,0:0:0:0:
256,192,60545,1,0,0:0:0:0:
256,192,60681,1,0,0:0:0:0:
256,192,60749,1,0,0:0:0:0:
256,192,60817,1,0,0:0:0:0:
256,192,60954,1,8,0:0:0:0:
256,192,61090,1,0,0:0:0:0:
256,192,61158,1,0,0:0:0:0:
256,192,61226,1,0,0:0:0:0:
256,192,61362,1,12,0:0:0:0:
256,192,61499,1,0,0:0:0:0:
256,192,61567,1,0,0:0:0:0:
256,192,61635,1,0,0:0:0:0:
256,192,61703,1,8,0:0:0:0:
256,192,61772,1,8,0:0:0:0:
256,192,61840,1,0,0:0:0:0:
256,192,61908,1,8,0:0:0:0:
256,192,61976,1,8,0:0:0:0:
256,192,62044,1,8,0:0:0:0:
256,192,62112,1,0,0:0:0:0:
256,192,62181,1,0,0:0:0:0:
256,192,62249,1,0,0:0:0:0:
256,192,62317,1,0,0:0:0:0:
256,192,62453,1,8,0:0:0:0:
256,192,62522,1,8,0:0:0:0:
256,192,62590,1,8,0:0:0:0:
256,192,62658,1,0,0:0:0:0:
256,192,62726,1,8,0:0:0:0:
256,192,62794,1,8,0:0:0:0:
256,192,62862,1,0,0:0:0:0:
256,192,62931,1,0,0:0:0:0:
256,192,62999,1,8,0:0:0:0:
256,192,63067,1,8,0:0:0:0:
256,192,63135,1,0,0:0:0:0:
256,192,63203,1,0,0:0:0:0:
256,192,63272,1,8,0:0:0:0:
256,192,63340,1,8,0:0:0:0:
256,192,63408,1,8,0:0:0:0:
256,192,63544,1,4,0:0:0:0:
256,192,63817,1,8,0:0:0:0:
256,192,63885,1,8,0:0:0:0:
256,192,63953,1,0,0:0:0:0:
256,192,64022,1,8,0:0:0:0:
256,192,64090,1,8,0:0:0:0:
256,192,64158,1,8,0:0:0:0:
256,192,64226,1,0,0:0:0:0:
256,192,64294,1,0,0:0:0:0:
256,192,64362,1,8,0:0:0:0:
256,192,64431,1,8,0:0:0:0:
256,192,64499,1,0,0:0:0:0:
256,192,64635,1,0,0:0:0:0:
256,192,64703,1,8,0:0:0:0:
256,192,64772,1,0,0:0:0:0:
256,192,64840,1,0,0:0:0:0:
256,192,64908,1,8,0:0:0:0:
256,192,64976,1,8,0:0:0:0:
256,192,65044,1,0,0:0:0:0:
256,192,65112,1,8,0:0:0:0:
256,192,65181,1,0,0:0:0:0:
256,192,65249,1,8,0:0:0:0:
256,192,65317,1,0,0:0:0:0:
256,192,65385,1,0,0:0:0:0:
256,192,65453,1,8,0:0:0:0:
256,192,65522,1,0,0:0:0:0:
256,192,65590,1,0,0:0:0:0:
256,192,65726,1,12,0:0:0:0:
256,192,65999,1,0,0:0:0:0:
256,192,66067,1,8,0:0:0:0:
256,192,66135,1,8,0:0:0:0:
256,192,66203,1,0,0:0:0:0:
256,192,66272,1,8,0:0:0:0:
256,192,66340,1,0,0:0:0:0:
256,192,66408,1,8,0:0:0:0:
256,192,66476,1,0,0:0:0:0:
256,192,66544,1,0,0:0:0:0:
256,192,66612,1,0,0:0:0:0:
256,192,66681,1,0,0:0:0:0:
256,192,66817,1,8,0:0:0:0:
256,192,66885,1,0,0:0:0:0:
256,192,66953,1,0,0:0:0:0:
256,192,67022,1,8,0:0:0:0:
256,192,67090,1,8,0:0:0:0:
256,192,67158,1,8,0:0:0:0:
256,192,67226,1,0,0:0:0:0:
256,192,67294,1,0,0:0:0:0:
256,192,67362,1,0,0:0:0:0:
256,192,67431,1,8,0:0:0:0:
256,192,67499,1,8,0:0:0:0:
256,192,67567,1,0,0:0:0:0:
256,192,67635,1,0,0:0:0:0:
256,192,67703,1,8,0:0:0:0:
256,192,67772,1,8,0:0:0:0:
256,192,67908,1,4,0:0:0:0:
256,192,68181,1,0,0:0:0:0:
256,192,68249,1,0,0:0:0:0:
256,192,68317,1,8,0:0:0:0:
256,192,68385,1,8,0:0:0:0:
256,192,68453,1,0,0:0:0:0:
256,192,68522,1,8,0:0:0:0:
256,192,68590,1,0,0:0:0:0:
256,192,68658,1,8,0:0:0:0:
256,192,68726,1,0,0:0:0:0:
256,192,68794,1,0,0:0:0:0:
256,192,68862,1,8,0:0:0:0:
256,192,68999,1,0,0:0:0:0:
256,192,69067,1,0,0:0:0:0:
256,192,69135,1,0,0:0:0:0:
256,192,69203,1,8,0:0:0:0:
256,192,69272,1,0,0:0:0:0:
256,192,69340,1,0,0:0:0:0:
256,192,69408,1,8,0:0:0:0:
256,192,69476,1,8,0:0:0:0:
256,192,69544,1,0,0:0:0:0:
256,192,69612,1,8,0:0:0:0:
256,192,69681,1,0,0:0:0:0:
256,192,69749,1,8,0:0:0:0:
256,192,69817,1,0,0:0:0:0:
256,192,69885,1,0,0:0:0:0:
256,192,69953,1,0,0:0:0:0:
256,192,70090,1,12,0:0:0:0:
256,192,70362,1,0,0:0:0:0:
256,192,70431,1,0,0:0:0:0:
256,192,70499,1,0,0:0:0:0:
256,192,70567,1,0,0:0:0:0:
256,192,70635,1,8,0:0:0:0:
256,192,70703,1,8,0:0:0:0:
256,192,70772,1,8,0:0:0:0:
256,192,70840,1,0,0:0:0:0:
256,192,70908,1,0,0:0:0:0:
256,192,70976,1,8,0:0:0:0:
256,192,71044,1,8,0:0:0:0:
256,192,71112,1,0,0:0:0:0:
256,192,71181,1,0,0:0:0:0:
256,192,71249,1,0,0:0:0:0:
256,192,71317,1,0,0:0:0:0:
256,192,71385,1,8,0:0:0:0:
256,192,71453,1,8,0:0:0:0:
256,192,71522,1,8,0:0:0:0:
256,192,71590,1,0,0:0:0:0:
256,192,71658,1,0,0:0:0:0:
256,192,71726,1,8,0:0:0:0:
256,192,71794,1,8,0:0:0:0:
256,192,71862,1,8,0:0:0:0:
256,192,71931,1,0,0:0:0:0:
256,192,71999,1,0,0:0:0:0:
256,192,72067,1,8,0:0:0:0:
256,192,72135,1,8,0:0:0:0:
256,192,72272,1,4,0:0:0:0:
256,192,72544,1,8,0:0:0:0:
256,192,72612,1,8,0:0:0:0:
256,192,72681,1,8,0:0:0:0:
256,192,72749,1,0,0:0:0:0:
256,192,72817,1,8,0:0:0:0:
256,192,72885,1,8,0:0:0:0:
256,192,72953,1,8,0:0:0:0:
256,192,73022,1,0,0:0:0:0:
256,192,73090,1,0,0:0:0:0:
256,192,73158,1,8,0:0:0:0:
256,192,73226,1,8,0:0:0:0:
256,192,73362,1,0,0:0:0:0:
256,192,73431,1,0,0:0:0:0:
256,192,73499,1,8,0:0:0:0:
256,192,73567,1,8,0:0:0:0:
256,192,73635,1,0,0:0:0:0:
256,192,73703,1,0,0:0:0:0:
256,192,73771,1,8,0:0:0:0:
256,192,73840,1,0,0:0:0:0:
256,192,73908,1,0,0:0:0:0:
256,192,73976,1,8,0:0:0:0:
256,192,74044,1,8,0:0:0:0:
256,192,74112,1,0,0:0:0:0:
256,192,74180,1,8,0:0:0:0:
256,192,74249,1,0,0:0:0:0:
256,192,74317,1,0,0:0:0:0:
256,192,74453,1,12,0:0:0:0:
256,192,74726,1,0,0:0:0:0:
256,192,74794,1,0,0:0:0:0:
256,192,74862,1,0,0:0:0:0:
256,192,74931,1,8,0:0:0:0:
256,192,74999,1,8,0:0:0:0:
256,192,75067,1,0,0:0:0:0:
256,192,75135,1,8,0:0:0:0:
256,192,75203,1,8,0:0:0:0:
256,192,75272,1,0,0:0:0:0:
256,192,75340,1,0,0:0:0:0:
256,192,75408,1,0,0:0:0:0:
256,192,75476,1,8,0:0:0:0:
256,192,75544,1,0,0:0:0:0:
256,192,75681,1,8,0:0:0:0:
256,192,75749,1,8,0:0:0:0:
256,192,75817,1,0,0:0:0:0:
256,192,75885,1,0,0:0:0:0:
256,192,75953,1,0,0:0:0:0:
256,192,76022,1,8,0:0:0:0:
256,192,76090,1,8,0:0:0:0:
256,192,76158,1,0,0:0:0:0:
256,192,76226,1,0,0:0:0:0:
256,192,76294,1,0,0:0:0:0:
256,192,76362,1,8,0:0:0:0:
256,192,76431,1,8,0:0:0:0:
256,192,76499,1,8,0:0:0:0:
256,192,76635,1,4,0:0:0:0:
256,192,76908,1,0,0:0:0:0:
256,192,76976,1,0,0:0:0:0:
256,192,77044,1,0,0:0:0:0:
256,192,77112,1,0,0:0:0:0:
256,192,77181,1,8,0:0:0:0:
256,192,77249,1,8,0:0:0:0:
256,192,77317,1,8,0:0:0:0:
256,192,77385,1,8,0:0:0:0:
256,192,77453,1,0,0:0:0:0:
256,192,77522,1,0,0:0:0:0:
256,192,77590,1,8,0:0:0:0:
256,192,77658,1,8,0:0:0:0:
256,192,77726,1,8,0:0:0:0:
256,192,77862,1,0,0:0:0:0:
256,192,77931,1,0,0:0:0:0:
256,192,77999,1,8,0:0:0:0:
256,192,78067,1,0,0:0:0:0:
256,192,78135,1,8,0:0:0:0:
256,192,78203,1,0,0:0:0:0:
256,192,78272,1,8,0:0:0:0:
256,192,78340,1,8,0:0:0:0:
256,192,78408,1,0,0:0:0:0:
256,192,78476,1,0,0:0:0:0:
256,192,78544,1,8,0:0:0:0:
256,192,78612,1,0,0:0:0:0:
256,192,78681,1,0,0:0:0:0:
256,192,78817,1,12,0:0:0:0:
