osu file format v14

[General]
AudioFilename: audio.mp3
AudioLeadIn: 0
PreviewTime: 62252
Countdown: 0
SampleSet: Normal
StackLeniency: 0.7
Mode: 1
LetterboxInBreaks: 0
WidescreenStoryboard: 0

[Editor]
Bookmarks: 34939
DistanceSpacing: 0.8
BeatDivisor: 2
GridSize: 8
TimelineZoom: 3.350002

[Metadata]
Title:Little Riddle
TitleUnicode:リトルリドル
Artist:LittlePOPS
ArtistUnicode:LittlePOPS
Creator:taiko_ryuki
Version:Kantan
Source:アイドルマスターシンデレラガールズ スターライトステージ
Tags:双葉杏 Futaba Anzu 五十嵐裕美 Igarashi Hiromi 城ヶ崎莉嘉 Jyougasaki Rika 山本希望 Yamamoto Nozomi 二宮飛鳥 Ninomiya Asuka 青木志貴 Aoki Shiki 白坂小梅 Shirasaka Koume 桜咲千依 Ousaki Chiyo 早坂美玲 Hayasaka Mirei 朝井彩加 Asai Ayaka THE iDOLM@STER Cinderella Girls Starlight Stage im@s アイマス ミズノゲンキ Mizuno Genki 睦月周平 Mutsuki Shuuhei
BeatmapID:1346263
BeatmapSetID:634124

[Difficulty]
HPDrainRate:8
CircleSize:2
OverallDifficulty:3
ApproachRate:5
SliderMultiplier:1.39999961862947
SliderTickRate:1

[Events]
//Background and Video events
0,0,"bg .jpg",0,0
//Break Periods
//Storyboard Layer 0 (Background)
//Storyboard Layer 1 (Fail)
//Storyboard Layer 2 (Pass)
//Storyboard Layer 3 (Foreground)
//Storyboard Sound Samples

[TimingPoints]
548,454.545454545455,4,1,0,85,1,0
62366,-100,4,1,0,95,0,1
89411,-100,4,1,0,85,0,0

[HitObjects]
168,168,548,5,0,0:0:0:0:
168,168,1457,1,2,0:0:0:0:
168,168,2366,1,0,0:0:0:0:
168,168,3275,1,2,0:0:0:0:
168,168,3957,1,0,0:0:0:0:
168,168,4638,1,2,0:0:0:0:
168,168,5093,1,2,0:0:0:0:
168,168,6002,1,0,0:0:0:0:
176,168,6911,1,2,0:0:0:0:
184,168,7593,1,0,0:0:0:0:
184,176,8729,1,0,0:0:0:0:
184,176,9638,1,0,0:0:0:0:
184,176,10548,1,2,0:0:0:0:
192,160,11229,1,0,0:0:0:0:
176,160,11911,1,2,0:0:0:0:
184,168,12366,1,2,0:0:0:0:
184,168,13275,1,0,0:0:0:0:
184,168,14184,1,2,0:0:0:0:
192,176,14866,1,0,0:0:0:0:
192,176,16457,1,6,0:0:0:0:
192,176,16911,1,0,0:0:0:0:
192,176,17820,1,0,0:0:0:0:
184,176,18729,1,2,0:0:0:0:
184,176,19638,1,2,0:0:0:0:
184,176,20548,1,0,0:0:0:0:
184,176,21457,1,0,0:0:0:0:
184,176,21911,1,2,0:0:0:0:
184,176,22366,1,0,0:0:0:0:
184,176,23275,1,2,0:0:0:0:
184,176,23729,1,2,0:0:0:0:
184,176,24184,1,4,0:0:0:0:
184,176,25093,1,2,0:0:0:0:
184,176,26002,1,0,0:0:0:0:
184,184,26457,5,0,0:0:0:0:
184,176,26911,1,2,0:0:0:0:
184,176,27820,1,0,0:0:0:0:
184,176,28729,1,2,0:0:0:0:
184,176,29638,1,0,0:0:0:0:
184,176,30093,1,0,0:0:0:0:
184,176,30548,1,2,0:0:0:0:
184,176,31457,1,0,0:0:0:0:
184,176,31911,1,0,0:0:0:0:
184,176,32366,1,0,0:0:0:0:
184,176,33275,1,0,0:0:0:0:
184,176,34184,1,2,0:0:0:0:
184,176,35093,1,2,0:0:0:0:
184,176,35548,1,2,0:0:0:0:
184,176,36002,1,2,0:0:0:0:
184,176,36911,1,0,0:0:0:0:
184,176,37820,1,0,0:0:0:0:
192,192,38729,1,0,0:0:0:0:
184,192,39184,1,2,0:0:0:0:
184,192,39638,1,2,0:0:0:0:
184,192,40548,1,0,0:0:0:0:
184,192,41002,1,0,0:0:0:0:
200,176,41457,1,2,0:0:0:0:
184,192,41911,1,2,0:0:0:0:
192,184,42366,1,0,0:0:0:0:
184,192,43275,1,0,0:0:0:0:
184,192,43957,1,6,0:0:0:0:
184,192,44411,1,6,0:0:0:0:
176,192,46002,1,0,0:0:0:0:
176,192,46911,1,2,0:0:0:0:
176,192,47820,1,0,0:0:0:0:
176,192,48275,1,0,0:0:0:0:
176,192,48729,1,2,0:0:0:0:
176,192,49638,1,0,0:0:0:0:
176,192,50548,1,2,0:0:0:0:
176,192,51229,1,0,0:0:0:0:
176,192,51911,1,0,0:0:0:0:
176,192,52366,1,2,0:0:0:0:
176,192,53048,1,4,0:0:0:0:
192,200,54866,1,4,0:0:0:0:
184,208,56002,1,6,0:0:0:0:
184,208,56684,1,6,0:0:0:0:
256,192,58502,12,0,60093,0:0:0:0:
256,192,60548,5,0,0:0:0:0:
256,192,61002,5,2,0:0:0:0:
256,192,61457,1,2,0:0:0:0:
264,200,62366,1,0,0:0:0:0:
264,200,62820,1,2,0:0:0:0:
264,200,63275,1,0,0:0:0:0:
264,200,64184,1,0,0:0:0:0:
264,200,64638,1,0,0:0:0:0:
264,200,65093,1,0,0:0:0:0:
264,200,66002,1,0,0:0:0:0:
264,200,66457,1,2,0:0:0:0:
264,200,66911,1,0,0:0:0:0:
264,200,67820,1,2,0:0:0:0:
264,200,68729,1,0,0:0:0:0:
264,200,69638,1,0,0:0:0:0:
264,200,70093,1,2,0:0:0:0:
264,200,70548,1,0,0:0:0:0:
264,200,71457,1,2,0:0:0:0:
264,200,71911,1,2,0:0:0:0:
264,200,72366,1,2,0:0:0:0:
264,200,73275,1,0,0:0:0:0:
264,200,73729,1,2,0:0:0:0:
264,200,74184,1,0,0:0:0:0:
264,200,75093,1,0,0:0:0:0:
264,200,76002,1,2,0:0:0:0:
256,168,76911,1,0,0:0:0:0:
264,168,77366,1,2,0:0:0:0:
264,168,77820,1,0,0:0:0:0:
264,168,78729,1,0,0:0:0:0:
264,168,79184,1,0,0:0:0:0:
264,168,79638,1,0,0:0:0:0:
256,176,80548,1,2,0:0:0:0:
256,176,81002,1,2,0:0:0:0:
256,176,81457,1,0,0:0:0:0:
256,176,82366,1,2,0:0:0:0:
256,176,82820,1,2,0:0:0:0:
256,176,83275,1,2,0:0:0:0:
272,200,84184,1,0,0:0:0:0:
272,200,84638,1,2,0:0:0:0:
272,200,85093,1,0,0:0:0:0:
272,200,86002,1,0,0:0:0:0:
272,200,86457,1,0,0:0:0:0:
272,200,86911,1,0,0:0:0:0:
272,200,87820,1,0,0:0:0:0:
272,200,88275,1,2,0:0:0:0:
272,200,88729,1,2,0:0:0:0:
264,200,89411,1,4,0:0:0:0:
272,184,91457,1,0,0:0:0:0:
272,184,92366,1,2,0:0:0:0:
264,184,93048,1,0,0:0:0:0:
264,184,94184,1,2,0:0:0:0:
264,184,95093,1,0,0:0:0:0:
264,184,96002,1,2,0:0:0:0:
224,200,96684,1,0,0:0:0:0:
224,200,97820,1,2,0:0:0:0:
224,200,98729,1,0,0:0:0:0:
224,200,99638,1,0,0:0:0:0:
224,200,100320,1,0,0:0:0:0:
224,200,101457,1,2,0:0:0:0:
224,200,102366,1,0,0:0:0:0:
224,200,103275,1,2,0:0:0:0:
224,200,103957,1,0,0:0:0:0:
224,200,105093,1,2,0:0:0:0:
224,200,106002,1,0,0:0:0:0:
224,200,106911,1,2,0:0:0:0:
224,200,107366,1,0,0:0:0:0:
224,200,108275,1,0,0:0:0:0:
224,200,108729,1,2,0:0:0:0:
224,200,109184,1,2,0:0:0:0:
224,200,110093,1,0,0:0:0:0:
224,200,110548,1,2,0:0:0:0:
24,176,111457,2,0,L|504:176,1,419.999885588841
216,184,113275,1,0,0:0:0:0:
216,192,114184,1,2,0:0:0:0:
216,192,114638,1,0,0:0:0:0:
216,192,115548,1,0,0:0:0:0:
216,192,116002,1,2,0:0:0:0:
216,192,116457,1,2,0:0:0:0:
216,176,117366,1,0,0:0:0:0:
216,176,117820,1,2,0:0:0:0:
16,200,118729,2,0,L|376:208,1,359.999885588841
256,168,121002,1,2,0:0:0:0:
256,168,121457,1,0,0:0:0:0:
288,168,122138,1,2,0:0:0:0:
