osu file format v14

[General]
AudioFilename: audio.mp3
AudioLeadIn: 0
PreviewTime: 59524
Countdown: 0
SampleSet: None
StackLeniency: 0.7
Mode: 0
LetterboxInBreaks: 0
WidescreenStoryboard: 0

[Editor]
Bookmarks: 1058,18189,29098,31825,34552,37280,40007,42564,45120,48018,50660,53558,56030,81768
DistanceSpacing: 1.5
BeatDivisor: 4
GridSize: 4
TimelineZoom: 0.5999995

[Metadata]
Title:Kimi Monogatari
TitleUnicode:Kimi Monogatari
Artist:Little by Little
ArtistUnicode:Little by Little
Creator:bleq
Version:todoke!
Source:
Tags:naruto kimi monogatari little by
BeatmapID:1464743
BeatmapSetID:692209

[Difficulty]
HPDrainRate:4
CircleSize:5
OverallDifficulty:7
ApproachRate:9
SliderMultiplier:1.50000000596046
SliderTickRate:1

[Events]
//Background and Video events
0,0,"vlcsnap-2017-11-06-21h51m49s199.png",0,0
//Break Periods
2,25206,27986
2,29297,50657
2,65775,81168
//Storyboard Layer 0 (Background)
//Storyboard Layer 1 (Fail)
//Storyboard Layer 2 (Pass)
//Storyboard Layer 3 (Foreground)
//Storyboard Sound Samples

[TimingPoints]
4637.96813974267,340.909090909091,4,2,0,40,1,0
59524,-100,4,3,0,70,0,1

[Colours]
Combo1 : 255,0,255
Combo2 : 255,128,192
Combo3 : 128,0,128

[HitObjects]
288,160,1143,6,0,L|352:160,1,37.5000001490115
224,224,1314,6,0,L|184:224,1,37.5000001490115
224,160,1484,6,0,L|224:112,1,37.5000001490115
284,224,1655,6,0,L|284:268,1,37.5000001490115
224,160,1825,6,0,P|192:132|132:128,2,75.000000298023
368,132,2336,5,0,0:0:0:0:
280,144,2507,1,0,0:0:0:0:
336,216,2677,1,0,0:0:0:0:
288,160,2848,6,0,P|320:132|380:128,2,75.000000298023
180,160,3359,5,0,0:0:0:0:
288,104,3530,1,0,0:0:0:0:
296,216,3700,2,0,L|376:244,1,75.000000298023
448,272,4041,5,0,0:0:0:0:
380,164,4211,1,0,0:0:0:0:
312,276,4382,1,0,0:0:0:0:
312,276,4467,1,0,0:0:0:0:
312,276,4552,2,0,L|272:200,1,75.000000298023
200,144,4893,5,0,0:0:0:0:
288,80,5064,1,0,0:0:0:0:
200,144,5234,2,0,P|232:128|280:152,1,75.000000298023
372,208,5575,5,0,0:0:0:0:
248,252,5745,1,0,0:0:0:0:
288,140,5916,2,0,L|216:148,1,37.5000001490115
284,108,6086,1,0,0:0:0:0:
280,80,6172,1,0,0:0:0:0:
276,56,6257,1,0,0:0:0:0:
184,168,6427,5,0,0:0:0:0:
108,252,6598,1,0,0:0:0:0:
232,280,6768,1,0,0:0:0:0:
108,252,6939,1,0,0:0:0:0:
184,168,7109,2,0,P|224:160|292:172,1,75.000000298023
352,176,7450,5,0,0:0:0:0:
456,248,7620,1,0,0:0:0:0:
452,136,7791,1,0,0:0:0:0:
352,176,7961,5,0,0:0:0:0:
352,176,8047,1,0,0:0:0:0:
352,176,8132,1,0,0:0:0:0:
452,136,8302,5,0,0:0:0:0:
352,176,8472,1,0,0:0:0:0:
236,224,8643,1,0,0:0:0:0:
256,116,8814,5,0,0:0:0:0:
256,116,8899,1,0,0:0:0:0:
256,116,8984,1,0,0:0:0:0:
120,84,9155,5,0,0:0:0:0:
128,212,9325,1,0,0:0:0:0:
220,140,9495,2,0,P|264:132|316:144,1,75.000000298023
224,136,9837,5,0,0:0:0:0:
256,144,9922,1,0,0:0:0:0:
280,152,10007,1,0,0:0:0:0:
392,136,10178,5,0,0:0:0:0:
304,172,10348,1,0,0:0:0:0:
252,96,10519,1,0,0:0:0:0:
184,187,10689,6,0,P|227:156|237:108,1,75.000000298023
184,188,11030,2,0,P|224:188|264:160,1,75.000000298023
184,188,11370,2,0,B|217:210|272:216|328:188,1,150.000000596046
416,136,11882,1,0,0:0:0:0:
344,56,12052,1,0,0:0:0:0:
218,82,12223,1,0,0:0:0:0:
184,99,12308,1,0,0:0:0:0:
159,124,12393,1,0,0:0:0:0:
139,197,12477,5,0,0:0:0:0:
137,236,12562,1,0,0:0:0:0:
148,273,12649,1,0,0:0:0:0:
206,316,12734,2,0,B|230:324|266:316|286:288,1,75.000000298023
390,246,13075,5,0,0:0:0:0:
455,110,13245,1,0,0:0:0:0:
290,124,13416,2,0,B|274:126|228:125|230:56,1,75.000000298023
217,9,13757,1,0,0:0:0:0:
300,120,13927,1,0,0:0:0:0:
152,136,14098,5,0,0:0:0:0:
244,80,14268,1,0,0:0:0:0:
240,184,14439,1,0,0:0:0:0:
240,184,14524,1,0,0:0:0:0:
240,184,14609,1,0,0:0:0:0:
155,284,14780,5,0,0:0:0:0:
299,310,14950,2,0,B|363:299|399:260|390:213,1,150.000000596046,0|0,2:2|2:2,2:2:0:0:
336,62,15461,5,0,0:0:0:0:
225,302,15632,1,0,0:0:0:0:
175,47,15802,1,0,0:0:0:0:
72,301,15973,1,0,0:0:0:0:
318,235,16143,5,0,0:0:0:0:
88,150,16314,1,0,0:0:0:0:
311,69,16484,1,0,0:0:0:0:
446,153,16655,5,0,0:0:0:0:
195,240,16825,1,0,0:0:0:0:
450,242,16995,1,0,0:0:0:0:
380,282,17166,2,0,B|363:295|318:308|278:311,1,75.000000298023
231,323,17507,1,0,0:0:0:0:
192,326,17592,1,0,0:0:0:0:
159,319,17677,1,0,0:0:0:0:
138,298,17762,1,0,0:0:0:0:
119,271,17848,1,0,0:0:0:0:
108,241,17933,2,0,P|106:204|110:197,1,37.5000001490115
131,40,18189,5,0,0:0:0:0:
339,43,18359,1,0,0:0:0:0:
457,191,18530,2,0,B|446:245|408:286|367:300|347:309,1,150.000000596046
228,156,19041,5,0,0:0:0:0:
344,120,19211,2,0,P|364:168|360:200,1,75.000000298023
340,268,19551,1,0,0:0:0:0:
336,280,19637,1,0,0:0:0:0:
332,292,19722,1,0,0:0:0:0:
252,260,19893,5,0,0:0:0:0:
352,200,20064,1,0,0:0:0:0:
272,184,20234,2,0,P|236:173|198:172,1,75.000000298023
86,167,20575,5,0,0:0:0:0:
50,307,20745,1,0,0:0:0:0:
170,260,20916,2,0,L|244:255,1,75.000000298023
369,248,21257,5,0,0:0:0:0:
421,112,21427,1,0,0:0:0:0:
275,145,21598,2,0,P|237:149|206:126,1,75.000000298023
116,54,21939,5,0,0:0:0:0:
73,224,22109,1,0,0:0:0:0:
212,171,22280,2,0,B|248:157|261:169|285:173|307:158,1,75.000000298023
376,168,22620,5,0,0:0:0:0:
420,224,22791,2,0,P|428:264|400:304,1,75.000000298023
392,280,23132,2,0,P|376:320|336:328,1,75.000000298023
336,316,23473,2,0,P|296:340|264:336,1,75.000000298023
200,288,23814,5,0,0:0:0:0:
156,184,23984,1,0,0:0:0:0:
100,56,24155,6,0,P|108:100|124:128,1,75.000000298023
156,184,24495,2,0,P|192:236|204:244,1,75.000000298023
256,280,24836,2,0,P|296:288|360:276,1,75.000000298023
152,78,28586,5,0,0:0:0:0:
174,96,28671,1,0,0:0:0:0:
199,114,28757,1,0,0:0:0:0:
301,172,28927,2,0,P|358:184|400:168,1,75.000000298023
172,276,51257,6,0,L|78:221,1,75.000000298023
116,96,51598,5,0,0:0:0:0:
248,72,51768,1,0,0:0:0:0:
372,144,51939,2,0,P|448:196|452:248,1,150.000000596046
400,332,52450,5,0,0:0:0:0:
248,316,52620,1,0,0:0:0:0:
176,232,52791,2,0,P|128:148|128:96,1,150.000000596046
340,160,53302,5,4,0:0:0:0:
340,160,53473,1,4,0:0:0:0:
96,176,53643,6,0,B|132:216|168:224|192:228,1,112.500000447034
196,192,53984,6,0,B|232:232|268:240|292:244,1,112.500000447034
288,192,54325,6,0,B|324:232|360:240|384:244,1,112.500000447034
168,148,55944,5,0,0:0:0:0:
316,76,56115,1,0,0:0:0:0:
244,272,56285,1,0,0:0:0:0:
208,180,56456,2,0,B|260:180|304:116|296:44|280:-4|120:4|200:132|212:116|320:244,1,412.500001639126
301,222,57564,2,0,B|249:222|205:158|213:86|229:38|389:46|309:174|297:158|189:286,1,412.500001639126
140,168,59524,5,0,0:0:0:0:
164,176,59609,1,0,0:0:0:0:
192,184,59695,1,0,0:0:0:0:
220,188,59780,1,0,0:0:0:0:
356,168,59950,1,0,0:0:0:0:
428,312,60121,1,0,0:0:0:0:
220,296,60291,1,0,0:0:0:0:
356,168,60462,6,0,P|332:156|292:112,1,75.000000298023
228,48,60802,1,0,0:0:0:0:
216,176,60973,1,0,0:0:0:0:
320,284,61143,5,0,0:0:0:0:
160,304,61314,1,0,0:0:0:0:
232,176,61484,1,0,0:0:0:0:
400,216,61655,5,0,0:0:0:0:
336,104,61825,1,0,0:0:0:0:
244,176,61996,1,0,0:0:0:0:
100,288,62166,5,0,0:0:0:0:
264,328,62337,1,0,0:0:0:0:
400,272,62507,5,0,0:0:0:0:
264,304,62678,1,0,0:0:0:0:
404,168,62848,1,0,0:0:0:0:
404,148,63019,2,0,B|360:120|316:116|256:144,1,150.000000596046
144,160,63530,5,0,0:0:0:0:
264,308,63700,1,0,0:0:0:0:
344,116,63871,1,0,0:0:0:0:
344,116,63956,1,0,0:0:0:0:
344,116,64041,1,0,0:0:0:0:
340,212,64212,5,0,0:0:0:0:
136,176,64382,1,0,0:0:0:0:
276,60,64553,1,0,0:0:0:0:
288,76,64638,1,0,0:0:0:0:
260,84,64723,1,0,0:0:0:0:
172,208,64894,5,0,0:0:0:0:
260,248,65064,1,0,0:0:0:0:
244,160,65234,1,0,0:0:0:0:
172,208,65405,2,0,L|252:208,1,75.000000298023
76,48,81768,5,0,0:0:0:0:
168,344,81939,1,0,0:0:0:0:
404,168,82109,1,0,0:0:0:0:
404,148,82280,2,0,B|360:120|316:116|256:144,1,150.000000596046
144,160,82791,5,0,0:0:0:0:
264,308,82961,1,0,0:0:0:0:
344,116,83132,1,0,0:0:0:0:
344,116,83217,1,0,0:0:0:0:
344,116,83302,1,0,0:0:0:0:
340,212,83473,5,0,0:0:0:0:
136,176,83643,1,0,0:0:0:0:
276,60,83814,1,0,0:0:0:0:
288,76,83899,1,0,0:0:0:0:
260,84,83984,1,0,0:0:0:0:
172,208,84155,5,0,0:0:0:0:
260,248,84325,1,0,0:0:0:0:
244,160,84495,1,0,0:0:0:0:
172,208,84666,2,0,L|252:208,1,75.000000298023
120,32,85007,5,0,0:0:0:0:
80,216,85177,1,0,0:0:0:0:
200,44,85348,5,0,0:0:0:0:
168,236,85518,1,0,0:0:0:0:
276,64,85689,5,0,0:0:0:0:
220,272,85859,1,0,0:0:0:0:
360,92,86030,5,0,0:0:0:0:
280,304,86200,5,0,0:0:0:0:
184,264,86370,5,0,0:0:0:0:
284,56,86541,1,0,0:0:0:0:
184,264,86711,5,0,0:0:0:0:
284,56,86882,1,0,0:0:0:0:
184,264,87052,1,0,0:0:0:0:
256,276,87223,5,0,0:0:0:0:
292,280,87308,1,0,0:0:0:0:
328,280,87393,1,0,0:0:0:0:
364,264,87478,1,0,0:0:0:0:
392,240,87564,1,0,0:0:0:0:
412,204,87649,1,0,0:0:0:0:
424,168,87734,1,4,0:0:0:0:
