osu file format v14

[General]
AudioFilename: my time is djent.mp3
AudioLeadIn: 0
PreviewTime: 11387
Countdown: 0
SampleSet: None
StackLeniency: 0.7
Mode: 3
LetterboxInBreaks: 0
SpecialStyle: 0
WidescreenStoryboard: 0

[Editor]
DistanceSpacing: 0.9
BeatDivisor: 4
GridSize: 4
TimelineZoom: 1.4

[Metadata]
Title:John Cena Theme Djent Cover
TitleUnicode:John Cena Theme Djent Cover
Artist:Little V Mills
ArtistUnicode:Little V Mills
Creator:Mage
Version:Normal
Source:
Tags:WWE World Wrestling Entertainment You Can't See Me Tha Trademarc The Time is Now
BeatmapID:971753
BeatmapSetID:453091

[Difficulty]
HPDrainRate:7
CircleSize:7
OverallDifficulty:6
ApproachRate:5
SliderMultiplier:1.4
SliderTickRate:1

[Events]
//Background and Video events
0,0,"Who is it.jpg",0,0
//Break Periods
//Storyboard Layer 0 (Background)
//Storyboard Layer 1 (Fail)
//Storyboard Layer 2 (Pass)
//Storyboard Layer 3 (Foreground)
//Storyboard Sound Samples
Sample,9987,0,"drum-hitnormal.wav",5
Sample,9987,0,"drum-hitnormal.wav",5
Sample,11366,0,"drum-hitnormal.wav",15
Sample,11366,0,"drum-hitnormal.wav",15
Sample,11711,0,"drum-hitnormal.wav",15
Sample,12056,0,"drum-hitclap.wav",15
Sample,12056,0,"drum-hitnormal.wav",15
Sample,12056,0,"drum-hitnormal.wav",15
Sample,12228,0,"drum-hitnormal.wav",15
Sample,12573,0,"drum-hitnormal.wav",15
Sample,12918,0,"drum-hitnormal.wav",15
Sample,13090,0,"drum-hitnormal.wav",15
Sample,13263,0,"drum-hitnormal.wav",15
Sample,13435,0,"drum-hitclap.wav",15
Sample,13435,0,"drum-hitnormal.wav",15
Sample,13607,0,"drum-hitnormal.wav",15
Sample,13607,0,"drum-hitnormal.wav",15
Sample,13780,0,"drum-hitnormal.wav",15
Sample,13952,0,"drum-hitnormal.wav",15
Sample,14125,0,"drum-hitnormal.wav",15
Sample,14125,0,"drum-hitnormal.wav",15
Sample,14469,0,"drum-hitnormal.wav",15
Sample,14814,0,"drum-hitclap.wav",15
Sample,14814,0,"drum-hitnormal.wav",15
Sample,14814,0,"drum-hitnormal.wav",15
Sample,14987,0,"drum-hitnormal.wav",15
Sample,14987,0,"drum-hitnormal.wav",15
Sample,15332,0,"drum-hitnormal.wav",15
Sample,16021,0,"drum-hitnormal.wav",15
Sample,16194,0,"drum-hitclap.wav",15
Sample,16194,0,"drum-hitnormal.wav",15
Sample,16711,0,"drum-hitnormal.wav",15
Sample,16883,0,"drum-hitnormal.wav",15
Sample,16883,0,"drum-hitnormal.wav",15
Sample,17228,0,"drum-hitnormal.wav",15
Sample,17573,0,"drum-hitclap.wav",15
Sample,17573,0,"drum-hitnormal.wav",15
Sample,17573,0,"drum-hitnormal.wav",15
Sample,17745,0,"drum-hitnormal.wav",15
Sample,17745,0,"drum-hitnormal.wav",15
Sample,18090,0,"drum-hitnormal.wav",15
Sample,18435,0,"drum-hitnormal.wav",15
Sample,18607,0,"drum-hitnormal.wav",15
Sample,18780,0,"drum-hitnormal.wav",15
Sample,18952,0,"drum-hitclap.wav",15
Sample,18952,0,"drum-hitnormal.wav",15
Sample,19125,0,"drum-hitnormal.wav",15
Sample,19125,0,"drum-hitnormal.wav",15
Sample,19297,0,"drum-hitnormal.wav",15
Sample,19469,0,"drum-hitnormal.wav",15
Sample,19642,0,"drum-hitnormal.wav",15
Sample,19987,0,"drum-hitnormal.wav",15
Sample,20332,0,"drum-hitclap.wav",15
Sample,20332,0,"drum-hitnormal.wav",15
Sample,20332,0,"drum-hitnormal.wav",15
Sample,20504,0,"drum-hitnormal.wav",15
Sample,20504,0,"drum-hitnormal.wav",15
Sample,20849,0,"drum-hitnormal.wav",15
Sample,21538,0,"drum-hitnormal.wav",15
Sample,21711,0,"drum-hit.wav",15
Sample,21711,0,"drum-hitnormal.wav",15
Sample,22056,0,"drum-hitclap.wav",15
Sample,22056,0,"drum-hitnormal.wav",15
Sample,22228,0,"drum-hitclap.wav",15
Sample,22228,0,"drum-hitclap.wav",15
Sample,22400,0,"drum-hitnormal.wav",15
Sample,22400,0,"drum-hitnormal.wav",15
Sample,22745,0,"drum-hitnormal.wav",15
Sample,22745,0,"drum-hitnormal.wav",15
Sample,23090,0,"drum-hitnormal.wav",15
Sample,23090,0,"drum-hitnormal.wav",15
Sample,23263,0,"drum-hitnormal.wav",15
Sample,23263,0,"drum-hitnormal.wav",15
Sample,23263,0,"drum-hitnormal.wav",15
Sample,23607,0,"drum-hitnormal.wav",15
Sample,23607,0,"drum-hitnormal.wav",15
Sample,23952,0,"drum-hitnormal.wav",15
Sample,24125,0,"drum-hitnormal.wav",15
Sample,24297,0,"drum-hitnormal.wav",15
Sample,24469,0,"drum-hitclap.wav",15
Sample,24469,0,"drum-hitnormal.wav",15
Sample,24642,0,"drum-hitnormal.wav",15
Sample,24642,0,"drum-hitnormal.wav",15
Sample,24814,0,"drum-hitnormal.wav",15
Sample,24987,0,"drum-hitnormal.wav",15
Sample,25159,0,"drum-hitnormal.wav",15
Sample,25504,0,"drum-hitnormal.wav",15
Sample,25504,0,"drum-hitnormal.wav",15
Sample,25849,0,"drum-hitnormal.wav",15
Sample,25849,0,"drum-hitnormal.wav",15
Sample,26021,0,"drum-hitnormal.wav",15
Sample,26021,0,"drum-hitnormal.wav",15
Sample,26021,0,"drum-hitnormal.wav",15
Sample,26366,0,"drum-hitnormal.wav",15
Sample,26366,0,"drum-hitnormal.wav",15
Sample,27056,0,"drum-hitnormal.wav",15
Sample,27228,0,"drum-hitclap.wav",15
Sample,27228,0,"drum-hitnormal.wav",15
Sample,27745,0,"drum-hitnormal.wav",15
Sample,27918,0,"drum-hitnormal.wav",15
Sample,27918,0,"drum-hitnormal.wav",15
Sample,28263,0,"drum-hitnormal.wav",15
Sample,28263,0,"drum-hitnormal.wav",15
Sample,28607,0,"drum-hitnormal.wav",15
Sample,28607,0,"drum-hitnormal.wav",15
Sample,28780,0,"drum-hitnormal.wav",15
Sample,28780,0,"drum-hitnormal.wav",15
Sample,28780,0,"drum-hitnormal.wav",15
Sample,29125,0,"drum-hitnormal.wav",15
Sample,29125,0,"drum-hitnormal.wav",15
Sample,29469,0,"drum-hitnormal.wav",15
Sample,29642,0,"drum-hitnormal.wav",15
Sample,29814,0,"drum-hitnormal.wav",15
Sample,29987,0,"drum-hit.wav",15
Sample,29987,0,"drum-hitnormal.wav",15
Sample,30159,0,"drum-hitnormal.wav",15
Sample,30159,0,"drum-hitnormal.wav",15
Sample,30332,0,"drum-hitnormal.wav",15
Sample,30504,0,"drum-hitnormal.wav",15
Sample,30676,0,"drum-hitnormal.wav",15
Sample,31021,0,"drum-hitnormal.wav",15
Sample,31021,0,"drum-hitnormal.wav",15
Sample,31366,0,"drum-hitnormal.wav",15
Sample,31366,0,"drum-hitnormal.wav",15
Sample,31538,0,"drum-hitnormal.wav",15
Sample,31538,0,"drum-hitnormal.wav",15
Sample,31538,0,"drum-hitnormal.wav",15
Sample,31883,0,"drum-hitnormal.wav",15
Sample,31883,0,"drum-hitnormal.wav",15
Sample,33435,0,"drum-hitnormal.wav",15
Sample,33780,0,"drum-hitnormal.wav",15
Sample,33952,0,"drum-hitnormal.wav",15
Sample,34125,0,"drum-hitclap.wav",15
Sample,34125,0,"drum-hitnormal.wav",15
Sample,34297,0,"drum-hitnormal.wav",15
Sample,34469,0,"drum-hitnormal.wav",15
Sample,34814,0,"drum-hitnormal.wav",15
Sample,35159,0,"drum-hitnormal.wav",15
Sample,35332,0,"drum-hitnormal.wav",15
Sample,35504,0,"drum-hit.wav",15
Sample,35504,0,"drum-hitnormal.wav",15
Sample,35676,0,"drum-hitnormal.wav",15
Sample,36021,0,"drum-hitnormal.wav",15
Sample,36194,0,"drum-hitnormal.wav",15
Sample,36194,0,"drum-hitnormal.wav",15
Sample,36366,0,"drum-hitnormal.wav",15
Sample,36538,0,"drum-hitnormal.wav",15
Sample,36883,0,"drum-hitclap.wav",15
Sample,36883,0,"drum-hitnormal.wav",15
Sample,37228,0,"drum-hitnormal.wav",15
Sample,37400,0,"drum-hitnormal.wav",15
Sample,37573,0,"drum-hitnormal.wav",15
Sample,37573,0,"drum-hitnormal.wav",15
Sample,37918,0,"drum-hitnormal.wav",15
Sample,38090,0,"drum-hitnormal.wav",15
Sample,38263,0,"drum-hit.wav",15
Sample,38263,0,"drum-hitnormal.wav",15
Sample,38435,0,"drum-hitnormal.wav",15
Sample,38780,0,"drum-hitnormal.wav",15
Sample,38952,0,"drum-hitnormal.wav",15
Sample,38952,0,"drum-hitnormal.wav",15
Sample,39297,0,"drum-hitnormal.wav",15
Sample,39642,0,"drum-hitclap.wav",15
Sample,39642,0,"drum-hitnormal.wav",15
Sample,39814,0,"drum-hitnormal.wav",15
Sample,39987,0,"drum-hitnormal.wav",15
Sample,40332,0,"drum-hitnormal.wav",15
Sample,40332,0,"drum-hitnormal.wav",15
Sample,40504,0,"drum-hitnormal.wav",15
Sample,40676,0,"drum-hitnormal.wav",15
Sample,40849,0,"drum-hitnormal.wav",15
Sample,41021,0,"drum-hitclap.wav",15
Sample,41021,0,"drum-hitnormal.wav",15
Sample,41021,0,"drum-hitnormal.wav",15
Sample,41194,0,"drum-hitnormal.wav",15
Sample,41366,0,"drum-hitnormal.wav",15
Sample,41538,0,"drum-hitnormal.wav",15
Sample,41711,0,"drum-hitnormal.wav",15
Sample,41711,0,"drum-hitnormal.wav",15
Sample,41883,0,"drum-hitnormal.wav",15
Sample,42056,0,"drum-hitnormal.wav",15
Sample,42228,0,"drum-hit.wav",15
Sample,42228,0,"drum-hitnormal.wav",15
Sample,42228,0,"drum-hitnormal.wav",15
Sample,42400,0,"drum-hitnormal.wav",15
Sample,42573,0,"drum-hit.wav",15
Sample,42573,0,"drum-hitnormal.wav",15
Sample,42573,0,"drum-hitnormal.wav",15
Sample,42745,0,"drum-hitnormal.wav",15
Sample,42918,0,"drum-hit.wav",15
Sample,42918,0,"drum-hitnormal.wav",15
Sample,42918,0,"drum-hitnormal.wav",15
Sample,43090,0,"drum-hitnormal.wav",15
Sample,43263,0,"drum-hitnormal.wav",15
Sample,43435,0,"drum-hitnormal.wav",15
Sample,43435,0,"drum-hitnormal.wav",15
Sample,43607,0,"drum-hitnormal.wav",15
Sample,43780,0,"drum-hitclap.wav",15
Sample,43780,0,"drum-hitnormal.wav",15
Sample,43952,0,"drum-hitnormal.wav",15
Sample,44125,0,"drum-hitclap.wav",15
Sample,44125,0,"drum-hitnormal.wav",15
Sample,44297,0,"drum-hitnormal.wav",15
Sample,44469,0,"drum-hitclap.wav",15
Sample,44469,0,"drum-hitnormal.wav",15
Sample,44814,0,"drum-hitnormal.wav",15
Sample,45159,0,"drum-hit.wav",15
Sample,45159,0,"drum-hitnormal.wav",15
Sample,45159,0,"drum-hitnormal.wav",15
Sample,45332,0,"drum-hitnormal.wav",15
Sample,45332,0,"drum-hitnormal.wav",15
Sample,45676,0,"drum-hitnormal.wav",15
Sample,45849,0,"drum-hitnormal.wav",15
Sample,45849,0,"drum-hitnormal.wav",15
Sample,46021,0,"drum-hitnormal.wav",15
Sample,46194,0,"drum-hitnormal.wav",15
Sample,46366,0,"drum-hitnormal.wav",15
Sample,46538,0,"drum-hit.wav",15
Sample,46538,0,"drum-hitnormal.wav",15
Sample,46883,0,"drum-hitclap.wav",15
Sample,46883,0,"drum-hitnormal.wav",15
Sample,47056,0,"drum-hitnormal.wav",15
Sample,47228,0,"drum-hitnormal.wav",15
Sample,47573,0,"drum-hitnormal.wav",15
Sample,47918,0,"drum-hit.wav",15
Sample,47918,0,"drum-hitnormal.wav",15
Sample,47918,0,"drum-hitnormal.wav",15
Sample,48607,0,"drum-hitclap.wav",15
Sample,48607,0,"drum-hitnormal.wav",15
Sample,48952,0,"drum-hitnormal.wav",15
Sample,49125,0,"drum-hitnormal.wav",15
Sample,49297,0,"drum-hitclap.wav",15
Sample,49297,0,"drum-hitnormal.wav",15
Sample,49642,0,"drum-hitclap.wav",15
Sample,49642,0,"drum-hitnormal.wav",15
Sample,49814,0,"drum-hitnormal.wav",15
Sample,49987,0,"drum-hitnormal.wav",15
Sample,49987,0,"drum-hitnormal.wav",15
Sample,50332,0,"drum-hitnormal.wav",15
Sample,50676,0,"drum-hitclap.wav",15
Sample,50676,0,"drum-hitnormal.wav",15
Sample,50849,0,"drum-hitnormal.wav",15
Sample,50849,0,"drum-hitnormal.wav",15
Sample,50849,0,"drum-hitnormal.wav",15
Sample,51194,0,"drum-hitnormal.wav",15
Sample,51366,0,"drum-hitclap.wav",15
Sample,51366,0,"drum-hitnormal.wav",15
Sample,51538,0,"drum-hitnormal.wav",15
Sample,51711,0,"drum-hitnormal.wav",15
Sample,51883,0,"drum-hitnormal.wav",15
Sample,52056,0,"drum-hitclap.wav",15
Sample,52400,0,"drum-hitnormal.wav",15
Sample,52573,0,"drum-hitnormal.wav",15
Sample,52745,0,"drum-hitnormal.wav",15
Sample,52745,0,"drum-hitnormal.wav",15
Sample,53090,0,"drum-hitnormal.wav",15
Sample,53435,0,"drum-hitclap.wav",15
Sample,53435,0,"drum-hitnormal.wav",15
Sample,53607,0,"drum-hitnormal.wav",15
Sample,53952,0,"drum-hitnormal.wav",15
Sample,54125,0,"drum-hitnormal.wav",15
Sample,54125,0,"drum-hitnormal.wav",15
Sample,54297,0,"drum-hitnormal.wav",15
Sample,54469,0,"drum-hitnormal.wav",15
Sample,54642,0,"drum-hitclap.wav",15
Sample,54642,0,"drum-hitnormal.wav",15
Sample,54814,0,"drum-hitnormal.wav",15
Sample,54987,0,"drum-hitnormal.wav",15
Sample,55159,0,"drum-hit.wav",15
Sample,55159,0,"drum-hitnormal.wav",15
Sample,55504,0,"drum-hitnormal.wav",10
Sample,56194,0,"drum-hitnormal.wav",10
Sample,57573,0,"drum-hitnormal.wav",10
Sample,58090,0,"drum-hitnormal.wav",10
Sample,58952,0,"drum-hitnormal.wav",10
Sample,60332,0,"drum-hitnormal.wav",10
Sample,60849,0,"drum-hitnormal.wav",10
Sample,61021,0,"drum-hitnormal.wav",10
Sample,61021,0,"drum-hitnormal.wav",10
Sample,61711,0,"drum-hitnormal.wav",10
Sample,63090,0,"drum-hitnormal.wav",10
Sample,63607,0,"drum-hitnormal.wav",10
Sample,64469,0,"drum-hitnormal.wav",10
Sample,65159,0,"drum-hitnormal.wav",10
Sample,65332,0,"drum-hitnormal.wav",10
Sample,65504,0,"drum-hitnormal.wav",10
Sample,65676,0,"drum-hitnormal.wav",10
Sample,65849,0,"drum-hitnormal.wav",10
Sample,66366,0,"drum-hitnormal.wav",10
Sample,66538,0,"drum-hitnormal.wav",10
Sample,66538,0,"drum-hitnormal.wav",10
Sample,66538,0,"drum-hitnormal.wav",10
Sample,67228,0,"drum-hitnormal.wav",10
Sample,67918,0,"drum-hitnormal.wav",10
Sample,67918,0,"drum-hitnormal.wav",10
Sample,68607,0,"drum-hitnormal.wav",10
Sample,69297,0,"drum-hitnormal.wav",10
Sample,69987,0,"drum-hitnormal.wav",10
Sample,70676,0,"drum-hitnormal.wav",10
Sample,70676,0,"drum-hitnormal.wav",10
Sample,71366,0,"drum-hitnormal.wav",10
Sample,71711,0,"drum-hitnormal.wav",10
Sample,71883,0,"drum-hitnormal.wav",10
Sample,72056,0,"drum-hitnormal.wav",10
Sample,72056,0,"drum-hitnormal.wav",10
Sample,72056,0,"drum-hitnormal.wav",10
Sample,72745,0,"drum-hitnormal.wav",10
Sample,73435,0,"drum-hitnormal.wav",10
Sample,74125,0,"drum-hitnormal.wav",10
Sample,74814,0,"drum-hitnormal.wav",10
Sample,75504,0,"drum-hitnormal.wav",10
Sample,76021,0,"drum-hitclap.wav",10
Sample,76194,0,"drum-hitnormal.wav",10
Sample,77573,0,"drum-hitnormal.wav",15
Sample,77573,0,"drum-hitnormal.wav",15
Sample,77918,0,"drum-hitnormal.wav",15
Sample,78263,0,"drum-hit.wav",15
Sample,78263,0,"drum-hitnormal.wav",15
Sample,78263,0,"drum-hitnormal.wav",15
Sample,78435,0,"drum-hitnormal.wav",15
Sample,78435,0,"drum-hitnormal.wav",15
Sample,78780,0,"drum-hitnormal.wav",15
Sample,79125,0,"drum-hitnormal.wav",15
Sample,79297,0,"drum-hitnormal.wav",15
Sample,79469,0,"drum-hitnormal.wav",15
Sample,79642,0,"drum-hitclap.wav",15
Sample,79642,0,"drum-hitnormal.wav",15
Sample,79814,0,"drum-hitnormal.wav",15
Sample,79814,0,"drum-hitnormal.wav",15
Sample,79987,0,"drum-hitnormal.wav",15
Sample,80159,0,"drum-hitnormal.wav",15
Sample,80332,0,"drum-hitnormal.wav",15
Sample,80332,0,"drum-hitnormal.wav",15
Sample,80676,0,"drum-hitnormal.wav",15
Sample,81021,0,"drum-hitclap.wav",15
Sample,81021,0,"drum-hitnormal.wav",15
Sample,81021,0,"drum-hitnormal.wav",15
Sample,81194,0,"drum-hitnormal.wav",15
Sample,81194,0,"drum-hitnormal.wav",15
Sample,81538,0,"drum-hitnormal.wav",15
Sample,82056,0,"drum-hitnormal.wav",15
Sample,82228,0,"drum-hitnormal.wav",15
Sample,82400,0,"drum-hit.wav",15
Sample,82400,0,"drum-hitnormal.wav",15
Sample,82745,0,"drum-hitnormal.wav",15
Sample,83090,0,"drum-hitnormal.wav",15
Sample,83090,0,"drum-hitnormal.wav",15
Sample,83435,0,"drum-hitnormal.wav",15
Sample,83780,0,"drum-hit.wav",15
Sample,83780,0,"drum-hitnormal.wav",15
Sample,83780,0,"drum-hitnormal.wav",15
Sample,83952,0,"drum-hitnormal.wav",15
Sample,83952,0,"drum-hitnormal.wav",15
Sample,84297,0,"drum-hitnormal.wav",15
Sample,84642,0,"drum-hitnormal.wav",15
Sample,84814,0,"drum-hitnormal.wav",15
Sample,84987,0,"drum-hitnormal.wav",15
Sample,85159,0,"drum-hit.wav",15
Sample,85159,0,"drum-hitnormal.wav",15
Sample,85332,0,"drum-hitnormal.wav",15
Sample,85332,0,"drum-hitnormal.wav",15
Sample,85504,0,"drum-hitnormal.wav",15
Sample,85676,0,"drum-hitnormal.wav",15
Sample,85849,0,"drum-hitnormal.wav",15
Sample,85849,0,"drum-hitnormal.wav",15
Sample,86194,0,"drum-hitnormal.wav",15
Sample,86538,0,"drum-hitclap.wav",15
Sample,86538,0,"drum-hitnormal.wav",15
Sample,86538,0,"drum-hitnormal.wav",15
Sample,86711,0,"drum-hitnormal.wav",15
Sample,86711,0,"drum-hitnormal.wav",15
Sample,87056,0,"drum-hitnormal.wav",15
Sample,87573,0,"drum-hitclap.wav",15
Sample,88607,0,"drum-hitnormal.wav",15
Sample,88607,0,"drum-hitnormal.wav",15
Sample,88952,0,"drum-hitnormal.wav",15
Sample,89297,0,"drum-hitclap.wav",15
Sample,89297,0,"drum-hitnormal.wav",15
Sample,89297,0,"drum-hitnormal.wav",15
Sample,89469,0,"drum-hitnormal.wav",15
Sample,89469,0,"drum-hitnormal.wav",15
Sample,89814,0,"drum-hitnormal.wav",15
Sample,90159,0,"drum-hitnormal.wav",15
Sample,90332,0,"drum-hitnormal.wav",15
Sample,90504,0,"drum-hitnormal.wav",15
Sample,90676,0,"drum-hitclap.wav",15
Sample,90676,0,"drum-hitnormal.wav",15
Sample,90849,0,"drum-hitnormal.wav",15
Sample,90849,0,"drum-hitnormal.wav",15
Sample,91021,0,"drum-hitnormal.wav",15
Sample,91194,0,"drum-hitnormal.wav",15
Sample,91366,0,"drum-hitnormal.wav",15
Sample,91711,0,"drum-hitnormal.wav",15
Sample,92056,0,"drum-hit.wav",15
Sample,92056,0,"drum-hitnormal.wav",15
Sample,92056,0,"drum-hitnormal.wav",15
Sample,92228,0,"drum-hitnormal.wav",15
Sample,92228,0,"drum-hitnormal.wav",15
Sample,92573,0,"drum-hitnormal.wav",15
Sample,93263,0,"drum-hitnormal.wav",15
Sample,93435,0,"drum-hit.wav",15
Sample,93435,0,"drum-hitnormal.wav",15
Sample,93952,0,"drum-hitnormal.wav",15
Sample,94125,0,"drum-hitnormal.wav",15
Sample,94125,0,"drum-hitnormal.wav",15
Sample,94469,0,"drum-hitnormal.wav",15
Sample,94814,0,"drum-hitclap.wav",15
Sample,94814,0,"drum-hitnormal.wav",15
Sample,94814,0,"drum-hitnormal.wav",15
Sample,94987,0,"drum-hitnormal.wav",15
Sample,94987,0,"drum-hitnormal.wav",15
Sample,95332,0,"drum-hitnormal.wav",15
Sample,95504,0,"drum-hitwhistle.wav",15
Sample,95504,0,"drum-hitclap.wav",15
Sample,95676,0,"drum-hitnormal.wav",15
Sample,95849,0,"drum-hitnormal.wav",15
Sample,96021,0,"drum-hitnormal.wav",15
Sample,96194,0,"drum-hitclap.wav",15
Sample,96194,0,"drum-hitnormal.wav",15
Sample,96366,0,"drum-hitnormal.wav",15
Sample,96366,0,"drum-hitnormal.wav",15
Sample,96538,0,"drum-hitnormal.wav",15
Sample,96711,0,"drum-hitnormal.wav",15
Sample,96883,0,"drum-hitnormal.wav",15
Sample,96883,0,"drum-hitnormal.wav",15
Sample,97228,0,"drum-hitnormal.wav",15
Sample,97573,0,"drum-hitclap.wav",15
Sample,97573,0,"drum-hitnormal.wav",15
Sample,97573,0,"drum-hitnormal.wav",15
Sample,97745,0,"drum-hitnormal.wav",15
Sample,97745,0,"drum-hitnormal.wav",15
Sample,98090,0,"drum-hitnormal.wav",15
Sample,98090,0,"drum-hitnormal.wav",15
Sample,98090,0,"drum-hitnormal.wav",15
Sample,98952,0,"drum-hitnormal.wav",15
Sample,99297,0,"drum-hitnormal.wav",15
Sample,99469,0,"drum-hitnormal.wav",15

[TimingPoints]
353,344.827586206897,4,3,1,5,1,0
11387,-100,4,3,1,15,0,0
55525,-100,4,3,1,10,0,0
77594,-100,4,3,1,15,0,1
99663,-100,4,3,1,15,0,0

[HitObjects]
475,192,353,128,0,1732:0:0:0:5:
329,192,353,1,0,0:0:0:5:
36,192,1732,128,0,3111:0:0:0:5:
182,192,1732,1,0,0:0:0:5:
402,192,3111,128,0,4490:0:0:0:5:
329,192,3111,1,0,0:0:0:5:
109,192,4490,128,0,5870:0:0:0:5:
182,192,4490,1,0,0:0:0:5:
329,192,5870,128,0,7249:0:0:0:5:
475,192,5870,1,0,0:0:0:5:
182,192,7249,128,0,8628:0:0:0:5:
36,192,7249,1,0,0:0:0:5:
475,192,8628,128,0,10008:0:0:0:5:
402,192,8628,1,0,0:0:0:5:
36,192,10008,128,0,11387:0:0:0:5:
109,192,10008,1,0,0:0:0:5:
475,192,11387,128,8,11732:0:0:0:15:
256,192,11387,1,6,0:0:0:15:
402,192,11732,128,8,12077:0:0:0:15:
182,192,11732,1,0,0:0:0:15:
36,192,12077,1,10,0:0:0:15:
109,192,12249,1,8,0:0:0:15:
475,192,12594,128,8,14146:0:0:0:15:
329,192,12594,1,0,0:0:0:15:
36,192,12939,1,8,0:0:0:15:
182,192,13111,1,8,0:0:0:15:
402,192,13284,1,8,0:0:0:15:
256,192,13456,1,10,0:0:0:15:
36,192,13628,1,8,0:0:0:15:
109,192,13801,1,8,0:0:0:15:
329,192,13973,1,8,0:0:0:15:
36,192,14146,128,8,14490:0:0:0:15:
256,192,14146,1,6,0:0:0:15:
109,192,14490,128,8,14835:0:0:0:15:
329,192,14490,1,0,0:0:0:15:
475,192,14835,1,10,0:0:0:15:
402,192,15008,1,8,0:0:0:15:
36,192,15353,128,8,16904:0:0:0:15:
182,192,15353,1,0,0:0:0:15:
475,192,15697,1,8,0:0:0:15:
329,192,15870,1,8,0:0:0:15:
109,192,16042,1,8,0:0:0:15:
256,192,16215,1,10,0:0:0:15:
475,192,16387,1,8,0:0:0:15:
329,192,16559,1,8,0:0:0:15:
109,192,16732,1,8,0:0:0:15:
475,192,16904,128,8,17249:0:0:0:15:
256,192,16904,1,6,0:0:0:15:
402,192,17249,128,8,17594:0:0:0:15:
182,192,17249,1,0,0:0:0:15:
109,192,17594,1,10,0:0:0:15:
36,192,17766,1,8,0:0:0:15:
256,192,18111,128,8,19663:0:0:0:15:
475,192,18111,1,0,0:0:0:15:
36,192,18456,1,8,0:0:0:15:
182,192,18628,1,8,0:0:0:15:
475,192,18801,1,8,0:0:0:15:
402,192,18973,1,10,0:0:0:15:
36,192,19146,1,8,0:0:0:15:
109,192,19318,1,8,0:0:0:15:
475,192,19490,1,8,0:0:0:15:
36,192,19663,128,6,20008:0:0:0:15:
329,192,19663,1,8,0:0:0:15:
109,192,20008,128,8,20353:0:0:0:15:
256,192,20008,1,0,0:0:0:15:
402,192,20353,1,10,0:0:0:15:
475,192,20525,1,8,0:0:0:15:
256,192,20870,128,8,22421:0:0:0:15:
109,192,20870,1,0,0:0:0:15:
36,192,21215,1,8,0:0:0:15:
182,192,21387,1,8,0:0:0:15:
475,192,21559,1,8,0:0:0:15:
402,192,21732,1,8,0:0:0:15:
109,192,21904,1,8,0:0:0:15:
182,192,22077,1,8,0:0:0:15:
36,192,22249,1,8,0:0:0:15:
475,192,22421,128,6,22766:0:0:0:15:
329,192,22421,1,8,0:0:0:15:
402,192,22766,128,8,23111:0:0:0:15:
182,192,22766,1,0,0:0:0:15:
329,192,23111,1,8,0:0:0:15:
36,192,23111,1,10,0:0:0:15:
109,192,23284,1,8,0:0:0:15:
256,192,23628,128,8,25180:0:0:0:15:
475,192,23628,1,0,0:0:0:15:
36,192,23973,1,8,0:0:0:15:
182,192,24146,1,8,0:0:0:15:
475,192,24318,1,8,0:0:0:15:
329,192,24490,1,10,0:0:0:15:
36,192,24663,1,8,0:0:0:15:
109,192,24835,1,8,0:0:0:15:
182,192,25008,1,8,0:0:0:15:
475,192,25180,128,2,25525:0:0:0:15:
329,192,25180,1,8,0:0:0:15:
402,192,25525,128,8,25870:0:0:0:15:
182,192,25525,1,0,0:0:0:15:
329,192,25870,1,10,0:0:0:15:
36,192,25870,1,8,0:0:0:15:
182,192,26042,1,8,0:0:0:15:
256,192,26387,128,8,27939:0:0:0:15:
402,192,26387,1,0,0:0:0:15:
475,192,26732,1,8,0:0:0:15:
329,192,26904,1,8,0:0:0:15:
36,192,27077,1,8,0:0:0:15:
182,192,27249,1,10,0:0:0:15:
402,192,27421,1,8,0:0:0:15:
109,192,27594,1,8,0:0:0:15:
475,192,27766,1,8,0:0:0:15:
109,192,27939,128,6,28284:0:0:0:15:
402,192,27939,1,8,0:0:0:15:
182,192,28284,128,8,28628:0:0:0:15:
329,192,28284,1,0,0:0:0:15:
36,192,28628,1,10,0:0:0:15:
402,192,28628,1,8,0:0:0:15:
329,192,28801,1,8,0:0:0:15:
36,192,29146,128,8,30697:0:0:0:15:
109,192,29146,1,0,0:0:0:15:
475,192,29490,1,8,0:0:0:15:
329,192,29663,1,8,0:0:0:15:
109,192,29835,1,8,0:0:0:15:
256,192,30008,1,8,0:0:0:15:
402,192,30180,1,8,0:0:0:15:
329,192,30353,1,8,0:0:0:15:
109,192,30525,1,8,0:0:0:15:
402,192,30697,128,8,31042:0:0:0:15:
182,192,30697,1,2,0:0:0:15:
475,192,31042,128,8,31387:0:0:0:15:
256,192,31042,1,0,0:0:0:15:
329,192,31387,1,10,0:0:0:15:
36,192,31387,1,8,0:0:0:15:
109,192,31559,1,8,0:0:0:15:
256,192,31904,128,8,33456:0:0:0:15:
475,192,31904,1,0,0:0:0:15:
329,192,32077,1,8,0:0:0:15:
36,192,32249,1,8,0:0:0:15:
182,192,32421,1,8,0:0:0:15:
475,192,32594,1,8,0:0:0:15:
329,192,32766,1,8,0:0:0:15:
36,192,32939,1,8,0:0:0:15:
182,192,33111,1,8,0:0:0:15:
329,192,33284,1,8,0:0:0:15:
475,192,33456,128,6,34835:0:0:0:15:
109,192,33456,1,8,0:0:0:15:
402,192,33801,1,8,0:0:0:15:
329,192,33973,1,8,0:0:0:15:
36,192,34146,1,10,0:0:0:15:
182,192,34318,1,8,0:0:0:15:
402,192,34490,1,8,0:0:0:15:
36,192,34835,128,2,36215:0:0:0:15:
256,192,34835,1,8,0:0:0:15:
109,192,35180,1,8,0:0:0:15:
182,192,35353,1,8,0:0:0:15:
475,192,35525,1,8,0:0:0:15:
329,192,35697,1,8,0:0:0:15:
109,192,36042,1,8,0:0:0:15:
329,192,36215,128,2,37594:0:0:0:15:
182,192,36215,1,8,0:0:0:15:
475,192,36387,1,8,0:0:0:15:
109,192,36559,1,8,0:0:0:15:
256,192,36904,1,10,0:0:0:15:
36,192,37249,1,8,0:0:0:15:
109,192,37421,1,8,0:0:0:15:
256,192,37594,1,2,0:0:0:15:
182,192,37594,128,8,38973:0:0:0:15:
475,192,37939,1,8,0:0:0:15:
329,192,38111,1,8,0:0:0:15:
36,192,38284,1,8,0:0:0:15:
109,192,38456,1,8,0:0:0:15:
329,192,38801,1,8,0:0:0:15:
402,192,38973,128,6,40353:0:0:0:15:
256,192,38973,1,8,0:0:0:15:
109,192,39318,1,8,0:0:0:15:
36,192,39663,1,10,0:0:0:15:
109,192,39835,1,8,0:0:0:15:
182,192,40008,1,8,0:0:0:15:
109,192,40353,128,2,41732:0:0:0:15:
329,192,40353,1,8,0:0:0:15:
256,192,40525,1,8,0:0:0:15:
475,192,40697,1,8,0:0:0:15:
329,192,40870,1,8,0:0:0:15:
36,192,41042,1,10,0:0:0:15:
182,192,41215,1,8,0:0:0:15:
475,192,41387,1,8,0:0:0:15:
402,192,41559,1,8,0:0:0:15:
182,192,41732,1,2,0:0:0:15:
329,192,41732,128,8,43111:0:0:0:15:
256,192,41904,1,8,0:0:0:15:
402,192,42077,1,8,0:0:0:15:
475,192,42249,1,8,0:0:0:15:
36,192,42421,1,8,0:0:0:15:
402,192,42594,1,8,0:0:0:15:
109,192,42766,1,8,0:0:0:15:
475,192,42939,1,8,0:0:0:15:
182,192,43111,128,8,44490:0:0:0:15:
36,192,43111,1,0,0:0:0:15:
475,192,43284,1,8,0:0:0:15:
402,192,43456,1,2,0:0:0:15:
36,192,43628,1,8,0:0:0:15:
109,192,43801,1,8,0:0:0:15:
475,192,43973,1,8,0:0:0:15:
329,192,44146,1,8,0:0:0:15:
36,192,44318,1,8,0:0:0:15:
256,192,44490,1,8,0:0:0:15:
475,192,44490,128,6,44835:0:0:0:15:
402,192,44835,128,8,45180:0:0:0:15:
182,192,44835,1,0,0:0:0:15:
36,192,45180,1,8,0:0:0:15:
109,192,45353,128,8,45697:0:0:0:15:
329,192,45697,128,8,47249:0:0:0:15:
475,192,45697,1,0,0:0:0:15:
402,192,45870,1,10,0:0:0:15:
256,192,46042,1,8,0:0:0:15:
36,192,46215,1,8,0:0:0:15:
109,192,46387,1,8,0:0:0:15:
256,192,46559,1,8,0:0:0:15:
475,192,46904,1,8,0:0:0:15:
402,192,47077,1,8,0:0:0:15:
36,192,47249,128,10,47594:0:0:0:15:
256,192,47249,1,0,0:0:0:15:
109,192,47594,128,8,47939:0:0:0:15:
182,192,47594,1,0,0:0:0:15:
475,192,47939,1,8,0:0:0:15:
402,192,48111,128,0,48456:0:0:0:15:
256,192,48456,128,8,50008:0:0:0:15:
36,192,48456,1,0,0:0:0:15:
109,192,48628,1,2,0:0:0:15:
475,192,48973,1,8,0:0:0:15:
402,192,49146,1,8,0:0:0:15:
182,192,49318,1,10,0:0:0:15:
329,192,49663,1,8,0:0:0:15:
402,192,49835,1,8,0:0:0:15:
475,192,50008,128,6,50353:0:0:0:15:
36,192,50008,1,0,0:0:0:15:
402,192,50353,128,8,50697:0:0:0:15:
182,192,50353,1,0,0:0:0:15:
109,192,50697,1,10,0:0:0:15:
36,192,50870,128,8,51215:0:0:0:15:
256,192,51215,128,8,52766:0:0:0:15:
475,192,51215,1,0,0:0:0:15:
402,192,51387,1,10,0:0:0:15:
182,192,51559,1,8,0:0:0:15:
329,192,51732,1,8,0:0:0:15:
36,192,51904,1,8,0:0:0:15:
109,192,52077,1,10,0:0:0:15:
475,192,52421,1,8,0:0:0:15:
402,192,52594,1,8,0:0:0:15:
109,192,52766,128,10,53111:0:0:0:15:
329,192,52766,1,8,0:0:0:15:
36,192,53111,128,8,53456:0:0:0:15:
256,192,53111,1,0,0:0:0:15:
402,192,53456,1,10,0:0:0:15:
475,192,53628,128,0,53973:0:0:0:15:
109,192,53973,128,8,55525:0:0:0:15:
329,192,53973,1,0,0:0:0:15:
256,192,54146,1,10,0:0:0:15:
475,192,54318,1,8,0:0:0:15:
402,192,54490,1,8,0:0:0:15:
36,192,54663,1,8,0:0:0:15:
182,192,54835,1,10,0:0:0:15:
475,192,55008,1,8,0:0:0:15:
329,192,55180,1,8,0:0:0:15:
256,192,55525,128,14,56904:0:0:0:10:
36,192,55525,1,0,0:0:0:10:
182,192,56215,1,8,0:0:0:10:
329,192,56215,1,8,0:0:0:10:
475,192,56904,128,0,58284:0:0:0:10:
109,192,56904,1,0,0:0:0:10:
182,192,57594,1,8,0:0:0:10:
329,192,57594,1,8,0:0:0:10:
329,192,58111,1,8,0:0:0:10:
36,192,58284,128,8,59663:0:0:0:10:
109,192,58284,1,0,0:0:0:10:
182,192,58973,1,8,0:0:0:10:
329,192,58973,1,8,0:0:0:10:
256,192,59663,128,0,61042:0:0:0:10:
475,192,59663,1,0,0:0:0:10:
182,192,60353,1,8,0:0:0:10:
329,192,60353,1,8,0:0:0:10:
36,192,60870,1,8,0:0:0:10:
402,192,61042,128,12,62421:0:0:0:10:
182,192,61042,1,8,0:0:0:10:
36,192,61732,1,8,0:0:0:10:
475,192,61732,1,8,0:0:0:10:
109,192,62421,128,0,63801:0:0:0:10:
329,192,62421,1,0,0:0:0:10:
36,192,63111,1,8,0:0:0:10:
475,192,63111,1,8,0:0:0:10:
475,192,63628,1,8,0:0:0:10:
329,192,63801,128,8,65180:0:0:0:10:
182,192,63801,1,0,0:0:0:10:
36,192,64490,1,8,0:0:0:10:
475,192,64490,1,8,0:0:0:10:
36,192,64835,1,8,0:0:0:10:
109,192,65008,1,8,0:0:0:10:
182,192,65180,128,8,66559:0:0:0:10:
475,192,65180,1,0,0:0:0:10:
402,192,65353,1,8,0:0:0:10:
109,192,65525,1,8,0:0:0:10:
256,192,65697,1,8,0:0:0:10:
475,192,65870,1,8,0:0:0:10:
36,192,65870,1,8,0:0:0:10:
36,192,66387,1,8,0:0:0:10:
475,192,66559,128,12,67939:0:0:0:10:
329,192,66559,1,8,0:0:0:10:
109,192,67249,1,8,0:0:0:10:
402,192,67249,1,8,0:0:0:10:
36,192,67939,128,0,69318:0:0:0:10:
182,192,67939,1,0,0:0:0:10:
109,192,68628,1,8,0:0:0:10:
402,192,68628,1,8,0:0:0:10:
402,192,69318,128,0,70697:0:0:0:10:
329,192,69318,1,0,0:0:0:10:
36,192,70008,1,8,0:0:0:10:
475,192,70008,1,8,0:0:0:10:
109,192,70697,128,0,72077:0:0:0:10:
182,192,70697,1,0,0:0:0:10:
329,192,71387,1,8,0:0:0:10:
182,192,71387,1,8,0:0:0:10:
475,192,71732,1,8,0:0:0:10:
402,192,71904,1,8,0:0:0:10:
329,192,72077,128,8,73456:0:0:0:10:
256,192,72077,1,12,0:0:0:10:
36,192,72766,1,8,0:0:0:10:
475,192,72766,1,8,0:0:0:10:
36,192,73456,128,0,74835:0:0:0:10:
475,192,73456,1,0,0:0:0:10:
402,192,74146,1,8,0:0:0:10:
109,192,74146,1,8,0:0:0:10:
475,192,74835,128,0,76215:0:0:0:10:
256,192,74835,1,0,0:0:0:10:
109,192,75525,1,8,0:0:0:10:
402,192,75525,1,8,0:0:0:10:
36,192,76042,1,8,0:0:0:10:
256,192,76215,128,8,77594:0:0:0:10:
109,192,76215,1,8,0:0:0:10:
475,192,77594,128,8,77939:0:0:0:15:
109,192,77594,1,6,0:0:0:15:
402,192,77939,128,8,78284:0:0:0:15:
182,192,77939,1,0,0:0:0:15:
36,192,78284,1,8,0:0:0:15:
109,192,78456,1,8,0:0:0:15:
256,192,78801,128,8,80353:0:0:0:15:
475,192,78801,1,0,0:0:0:15:
36,192,79146,1,8,0:0:0:15:
182,192,79318,1,8,0:0:0:15:
475,192,79490,1,8,0:0:0:15:
402,192,79663,1,10,0:0:0:15:
109,192,79835,1,8,0:0:0:15:
182,192,80008,1,8,0:0:0:15:
475,192,80180,1,8,0:0:0:15:
36,192,80353,128,10,80697:0:0:0:15:
329,192,80353,1,0,0:0:0:15:
109,192,80697,128,8,81042:0:0:0:15:
256,192,80697,1,0,0:0:0:15:
475,192,81042,1,10,0:0:0:15:
402,192,81215,1,8,0:0:0:15:
256,192,81559,128,8,83111:0:0:0:15:
36,192,81559,1,0,0:0:0:15:
475,192,81904,1,8,0:0:0:15:
402,192,82077,1,8,0:0:0:15:
36,192,82249,1,8,0:0:0:15:
109,192,82421,1,8,0:0:0:15:
475,192,82594,1,8,0:0:0:15:
329,192,82766,1,8,0:0:0:15:
36,192,82939,1,8,0:0:0:15:
475,192,83111,128,8,83456:0:0:0:15:
182,192,83111,1,6,0:0:0:15:
402,192,83456,128,8,83801:0:0:0:15:
256,192,83456,1,0,0:0:0:15:
109,192,83801,1,8,0:0:0:15:
36,192,83973,1,8,0:0:0:15:
475,192,84318,128,8,85870:0:0:0:15:
256,192,84318,1,0,0:0:0:15:
329,192,84663,1,8,0:0:0:15:
402,192,84835,1,8,0:0:0:15:
182,192,85008,1,8,0:0:0:15:
36,192,85180,1,8,0:0:0:15:
256,192,85353,1,8,0:0:0:15:
402,192,85525,1,8,0:0:0:15:
182,192,85697,1,8,0:0:0:15:
36,192,85870,128,8,86215:0:0:0:15:
329,192,85870,1,2,0:0:0:15:
109,192,86215,128,8,86559:0:0:0:15:
256,192,86215,1,0,0:0:0:15:
402,192,86559,1,10,0:0:0:15:
475,192,86732,1,8,0:0:0:15:
36,192,87077,128,8,88628:0:0:0:15:
256,192,87077,1,0,0:0:0:15:
329,192,87421,1,8,0:0:0:0:
475,192,87594,1,8,0:0:0:15:
329,192,87766,1,8,0:0:0:15:
109,192,87939,1,8,0:0:0:15:
256,192,88111,1,8,0:0:0:15:
109,192,88284,1,8,0:0:0:15:
329,192,88456,1,8,0:0:0:15:
402,192,88628,128,8,88973:0:0:0:15:
182,192,88628,1,6,0:0:0:15:
475,192,88973,128,8,89318:0:0:0:15:
256,192,88973,1,0,0:0:0:15:
109,192,89318,1,10,0:0:0:15:
182,192,89490,1,8,0:0:0:15:
256,192,89835,128,8,91387:0:0:0:15:
402,192,89835,1,0,0:0:0:15:
109,192,90180,1,8,0:0:0:15:
36,192,90353,1,8,0:0:0:15:
329,192,90525,1,8,0:0:0:15:
475,192,90697,1,10,0:0:0:15:
182,192,90870,1,8,0:0:0:15:
36,192,91042,1,8,0:0:0:15:
402,192,91215,1,8,0:0:0:15:
109,192,91387,128,2,91732:0:0:0:15:
475,192,91387,1,8,0:0:0:15:
182,192,91732,128,8,92077:0:0:0:15:
329,192,91732,1,0,0:0:0:15:
402,192,92077,1,8,0:0:0:15:
329,192,92249,1,8,0:0:0:15:
36,192,92594,128,8,94146:0:0:0:15:
182,192,92594,1,0,0:0:0:15:
475,192,92939,1,8,0:0:0:15:
329,192,93111,1,8,0:0:0:15:
109,192,93284,1,8,0:0:0:15:
182,192,93456,1,8,0:0:0:15:
402,192,93628,1,0,0:0:0:15:
329,192,93801,1,8,0:0:0:15:
109,192,93973,1,8,0:0:0:15:
402,192,94146,128,8,94490:0:0:0:15:
256,192,94146,1,6,0:0:0:15:
329,192,94490,128,8,94835:0:0:0:15:
182,192,94490,1,0,0:0:0:15:
36,192,94835,1,10,0:0:0:15:
182,192,95008,1,8,0:0:0:15:
475,192,95353,128,8,96904:0:0:0:15:
329,192,95353,1,0,0:0:0:15:
402,192,95525,1,8,0:0:0:15:
36,192,95697,1,8,0:0:0:15:
109,192,95870,1,8,0:0:0:15:
182,192,96042,1,8,0:0:0:15:
402,192,96215,1,10,0:0:0:15:
256,192,96387,1,8,0:0:0:15:
109,192,96559,1,8,0:0:0:15:
329,192,96732,1,8,0:0:0:15:
36,192,96904,128,2,97249:0:0:0:15:
182,192,96904,1,8,0:0:0:15:
109,192,97249,128,8,97594:0:0:0:15:
256,192,97249,1,0,0:0:0:15:
475,192,97594,1,10,0:0:0:15:
402,192,97766,1,8,0:0:0:15:
256,192,98111,128,6,99663:0:0:0:15:
109,192,98111,1,8,0:0:0:15:
36,192,98456,1,8,0:0:0:15:
182,192,98628,1,8,0:0:0:15:
475,192,98628,1,8,0:0:0:15:
402,192,98801,1,8,0:0:0:15:
109,192,98801,1,8,0:0:0:15:
329,192,98973,1,8,0:0:0:15:
36,192,99146,1,8,0:0:0:15:
182,192,99318,1,8,0:0:0:15:
402,192,99490,1,8,0:0:0:15:
109,192,99663,1,8,0:0:0:0:
