osu file format v14

[General]
AudioFilename: audio.mp3
AudioLeadIn: 0
PreviewTime: 90991
Countdown: 0
SampleSet: Soft
StackLeniency: 0.2
Mode: 0
LetterboxInBreaks: 0
WidescreenStoryboard: 1

[Editor]
DistanceSpacing: 1
BeatDivisor: 4
GridSize: 8
TimelineZoom: 2.2

[Metadata]
Title:Left-Right
TitleUnicode:left-ʇɥƃᴉɹ
Artist:Little Tybee
ArtistUnicode:Little Tybee
Creator:voynich
Version:-insane
Source:
Tags:For Distant Viewing
BeatmapID:1654308
BeatmapSetID:765388

[Difficulty]
HPDrainRate:5
CircleSize:4
OverallDifficulty:7
ApproachRate:9
SliderMultiplier:1.5
SliderTickRate:1

[Events]
//Background and Video events
0,0,"light.jpg",0,0
//Break Periods
//Storyboard Layer 0 (Background)
//Storyboard Layer 1 (Fail)
//Storyboard Layer 2 (Pass)
//Storyboard Layer 3 (Foreground)
//Storyboard Sound Samples

[TimingPoints]
43,306.122448979592,6,2,0,80,1,0
349,-100,6,2,0,30,0,0
3718,306.122448979592,6,2,0,30,1,0
10238,285.714285714286,6,3,0,60,1,0
10680,306.122448979592,6,2,0,60,1,0
10680,-66.6666666666667,6,2,0,60,0,0
11018,306.122448979592,6,1,0,40,1,0
11018,-66.6666666666667,6,1,0,40,0,0
22050,306.122448979592,6,1,0,50,1,0
22050,-66.6666666666667,6,1,0,50,0,0
33800,333.333333333333,4,1,0,50,1,0
33800,-200,4,1,0,50,0,0
35099,334.261838440111,4,2,0,40,1,0
47132,-100,4,1,0,40,0,0
47800,-133.333333333333,4,1,0,40,0,0
48387,334.261838440111,4,2,0,40,1,0
48387,-200,4,2,0,40,0,0
57579,-200,4,2,0,60,0,0
59417,-200,4,2,0,50,0,0
60726,334.261838440111,4,2,0,50,1,0
61394,-100,4,2,0,50,0,0
62035,334.261838440111,4,2,0,50,1,0
64906,334.261838440111,4,2,0,50,1,0
66213,334.261838440111,4,2,0,50,1,0
68390,334.261838440111,4,2,0,50,1,0
69727,-200,4,2,0,50,0,0
79048,334.261838440111,4,2,0,50,1,0
86373,334.261838440111,4,2,0,50,1,0
89695,334.261838440111,4,2,0,50,1,0
90995,433.212996389892,3,3,0,40,1,1
97029,433.212996389892,3,3,0,40,1,1
97896,428.571428571429,3,3,0,40,1,1
98538,-100,3,1,0,60,0,1
98753,-66.6666666666667,3,1,0,60,0,1
103229,428.571428571429,3,1,0,60,1,1
103229,-66.6666666666667,3,1,0,60,0,1
103635,434.782608695652,3,1,0,60,1,1
103635,-66.6666666666667,3,1,0,60,0,1
107548,428.571428571429,3,1,0,60,1,1
107548,-66.6666666666667,3,1,0,60,0,1
108803,430.10752688172,3,1,0,60,1,1
108803,-66.6666666666667,3,1,0,60,0,1
109018,430.10752688172,3,1,0,60,1,1
109018,-66.6666666666667,3,1,0,60,0,1
116729,430.10752688172,3,1,0,60,1,1
116729,-66.6666666666667,3,1,0,60,0,1
121729,-66.6666666666667,3,1,1,5,0,0

[HitObjects]
65,120,43,6,0,P|107:129|170:95,1,112.5,4|0,0:0|0:0,0:0:0:0:
211,27,349,1,0,0:0:0:0:
198,62,425,1,0,0:0:0:0:
197,99,502,1,0,0:0:0:0:
206,136,578,1,0,0:0:0:0:
225,168,655,2,0,P|235:216|209:316,1,150,2|2,0:0|0:0,0:0:0:0:
139,349,1114,2,0,L|131:299,6,37.5
53,351,1879,6,0,L|37:209,1,112.5,8|0,0:0|0:0,0:0:0:0:
64,168,2185,1,0,0:0:0:0:
97,151,2261,1,0,0:0:0:0:
134,152,2338,1,0,0:0:0:0:
167,170,2414,1,0,0:0:0:0:
188,200,2491,2,0,P|223:243|323:223,1,150,2|2,0:0|0:0,0:0:0:0:
368,143,2951,2,0,L|374:204,6,37.5
313,81,3718,6,0,P|361:62|437:98,1,112.5,8|0,0:0|0:0,0:0:0:0:
467,141,4024,1,0,0:0:0:0:
470,179,4100,1,0,0:0:0:0:
473,216,4177,1,0,0:0:0:0:
476,254,4253,1,0,0:0:0:0:
479,291,4330,2,0,P|420:247|348:265,1,150,2|2,0:0|0:0,0:0:0:0:
314,328,4789,2,0,L|317:375,6,37.5
222,358,5554,6,0,L|212:219,1,112.5,8|0,0:0|0:0,0:0:0:0:
83,198,5860,1,0,0:0:0:0:
103,167,5936,1,0,0:0:0:0:
135,147,6013,1,0,0:0:0:0:
172,143,6089,1,0,0:0:0:0:
209,155,6166,2,0,P|274:172|352:108,1,150,2|2,0:0|0:0,0:0:0:0:
379,31,6626,2,0,L|388:89,6,37.5
473,68,7391,6,0,P|475:128|430:219,1,150,8|0,0:0|0:0,0:0:0:0:
410,358,7850,1,0,0:0:0:0:
401,321,7926,1,0,0:0:0:0:
405,284,8003,1,2,0:0:0:0:
512,243,8309,1,8,1:0:0:0:
376,126,8462,2,0,L|306:132,6,37.5
297,207,9228,6,0,P|232:190|147:239,1,150,8|0,0:0|0:0,0:0:0:0:
117,368,9687,1,0,0:0:0:0:
124,331,9763,1,0,0:0:0:0:
118,294,9840,1,2,0:0:0:0:
240,114,10146,1,8,0:0:0:0:
321,74,10238,6,0,L|315:19,5,37.5,8|0|0|0|0|0,0:0|0:0|0:0|0:0|0:0|0:0,0:0:0:0:
395,111,10680,6,0,P|419:136|403:283,1,168.750006437302,4|0,0:0|0:0,0:0:0:0:
240,280,11018,6,0,L|366:300,1,112.500004291535,4|0,0:0|0:0,0:0:0:0:
359,196,11324,1,0,0:0:0:0:
169,228,11477,1,0,0:0:0:0:
169,228,11553,1,0,0:0:0:0:
169,228,11630,2,0,P|185:166|93:22,1,225.000008583069,8|0,0:0|0:0,0:0:0:0:
60,238,12089,2,0,L|71:301,6,56.2500021457673,0|0|0|0|0|0|8,0:0|0:0|0:0|0:0|0:0|0:0|0:0,0:0:0:0:
91,145,12854,6,0,P|159:174|260:72,1,225.000008583069,4|0,0:0|0:0,0:0:0:0:
337,123,13313,1,0,0:0:0:0:
337,123,13389,1,0,0:0:0:0:
337,123,13466,2,0,P|392:103|499:227,1,225.000008583069,8|0,0:0|0:0,0:0:0:0:
427,246,13926,2,0,L|416:309,5,56.2500021457673
333,338,14385,1,0,3:0:0:0:
276,334,14461,1,0,3:0:0:0:
220,330,14538,1,0,3:0:0:0:
164,326,14614,1,0,3:0:0:0:
108,323,14691,6,0,P|84:236|102:182,1,112.500004291535,4|0,0:0|0:0,0:0:0:0:
128,139,14997,1,0,0:0:0:0:
362,159,15150,1,0,0:0:0:0:
362,159,15226,1,0,0:0:0:0:
361,157,15303,2,8,P|284:232|181:202,1,225.000008583069,8|0,0:0|0:0,0:0:0:0:
261,144,15762,2,0,L|266:85,6,56.2500021457673,0|0|0|0|0|0|8,0:0|0:0|0:0|0:0|0:0|0:0|0:0,0:0:0:0:
441,127,16528,6,0,P|470:190|374:335,1,225.000008583069,4|0,0:0|0:0,0:0:0:0:
350,230,16987,1,0,0:0:0:0:
350,230,17063,1,0,0:0:0:0:
350,230,17140,2,0,B|242:248|175:181|175:181|151:189|153:213,1,225.000008583069,8|0,0:0|0:0,0:0:0:0:
181,294,17599,2,0,L|191:361,5,56.2500021457673
61,302,18058,1,0,3:0:0:0:
66,246,18134,1,0,3:0:0:0:
71,190,18211,1,0,3:0:0:0:
77,134,18287,1,0,3:0:0:0:
82,78,18364,6,0,P|166:68|198:15,1,112.500004291535,4|0,0:0|0:0,0:0:0:0:
281,18,18671,1,0,0:0:0:0:
373,154,18824,1,0,0:0:0:0:
373,154,18900,1,0,0:0:0:0:
373,154,18977,2,0,P|319:126|172:185,1,225.000008583069,8|0,0:0|0:0,0:0:0:0:
302,334,19436,6,0,L|303:270,1,56.2500021457673
222,254,19589,2,0,L|221:310,1,56.2500021457673
386,304,19742,2,0,L|387:240,1,56.2500021457673
305,199,19895,1,8,0:0:0:0:
305,199,20201,6,0,P|358:160|486:245,1,225.000008583069,4|0,0:0|0:0,0:0:0:0:
446,351,20660,1,0,0:0:0:0:
446,351,20737,1,0,0:0:0:0:
446,351,20813,2,0,B|412:331|365:336|365:336|312:388|229:369,1,225.000008583069,8|0,0:0|0:0,0:0:0:0:
144,308,21273,6,0,L|143:364,1,56.2500021457673
279,283,21426,2,0,L|280:227,1,56.2500021457673
26,258,21579,2,0,L|25:314,1,56.2500021457673
144,220,21732,1,8,0:0:0:0:
