osu file format v14

[General]
AudioFilename: audio.mp3
AudioLeadIn: 0
PreviewTime: -1
Countdown: 1
SampleSet: Soft
StackLeniency: 0.7
Mode: 0
LetterboxInBreaks: 0
WidescreenStoryboard: 0

[Editor]
DistanceSpacing: 2.8
BeatDivisor: 4
GridSize: 4
TimelineZoom: 1.8

[Metadata]
Title:dakara hitori ja nai
TitleUnicode:dakara hitori ja nai
Artist:Little Glee Monster
ArtistUnicode:Little Glee Monster
Creator:vladshumi
Version:beat
Source:my hero academia
Tags:
BeatmapID:1360703
BeatmapSetID:641740

[Difficulty]
HPDrainRate:6
CircleSize:4
OverallDifficulty:8
ApproachRate:9.2
SliderMultiplier:1.4
SliderTickRate:1

[Events]
//Background and Video events
0,0,"1579283-boku-no-hero-academia__3.jpg",0,0
//Break Periods
2,89027,93561
//Storyboard Layer 0 (Background)
//Storyboard Layer 1 (Fail)
//Storyboard Layer 2 (Pass)
//Storyboard Layer 3 (Foreground)
//Storyboard Layer 4 (Overlay)
//Storyboard Sound Samples

[TimingPoints]
828,333.333333333333,4,2,0,75,1,0
63994,-100,4,2,0,75,0,1
88827,-100,4,2,0,75,0,0
94161,-133.333333333333,4,2,0,75,0,0
104994,-100,4,2,0,75,0,0
131494,-100,4,2,0,75,0,1
160661,-100,4,2,0,75,0,0
172411,-133.333333333333,4,2,0,75,0,0
193994,-100,4,2,0,75,0,1
224827,-100,4,2,0,75,0,0

[Colours]
Combo1 : 201,239,129
Combo2 : 24,245,180
Combo3 : 62,227,140
Combo4 : 19,227,9

[HitObjects]
148,336,828,6,0,P|181:289|168:208,1,140,0|0,2:0|2:0,2:0:0:0:
72,112,1327,5,0,0:0:0:0:
28,192,1494,2,0,L|48:272,1,70
144,232,1827,5,0,0:0:0:0:
192,140,1994,2,0,L|164:64,1,70
103,301,2327,5,2,0:0:0:0:
252,197,2494,2,0,P|274:270|250:333,1,140
160,221,3494,6,0,P|142:157|168:73,1,140
261,277,3994,5,0,0:0:0:0:
287,89,4161,1,0,0:0:0:0:
173,239,4327,1,0,0:0:0:0:
347,166,4494,2,0,P|407:154|447:158,1,70
488,229,4827,2,0,P|493:263|487:298,2,70
414,267,5327,1,0,0:0:0:0:
414,267,5494,2,0,P|351:243|261:277,1,140
85,211,6161,6,0,P|130:206|173:223,1,70
298,234,6494,5,0,0:0:0:0:
117,278,6661,1,0,0:0:0:0:
300,225,6827,2,0,P|290:180|267:150,1,70
212,293,7161,1,0,0:0:0:0:
96,222,7327,5,0,0:0:0:0:
289,183,7494,1,0,0:0:0:0:
110,141,7661,1,0,0:0:0:0:
244,255,7827,2,0,B|281:284|320:265|320:265|354:288|362:320,1,140
92,280,8827,6,0,B|149:269|133:217|133:217|132:168|166:146|166:146|167:175|183:209,1,210
316,322,9494,5,0,0:0:0:0:
270,110,9661,1,0,0:0:0:0:
270,110,9827,6,0,P|255:174|235:191,1,70
162,138,10161,5,4,0:0:0:0:
132,239,10327,1,4,0:0:0:0:
238,71,10494,5,8,0:0:0:0:
212,218,10661,1,8,0:0:0:0:
348,156,10827,1,0,0:0:0:0:
357,180,10911,1,0,0:0:0:0:
359,205,10994,1,0,0:0:0:0:
353,230,11077,1,0,0:0:0:0:
344,250,11161,2,0,P|304:263|258:252,1,70
118,225,11494,2,0,P|166:211|201:215,1,70
364,328,11827,5,0,0:0:0:0:
304,152,11994,1,0,0:0:0:0:
244,284,12161,1,0,0:0:0:0:
372,212,12327,2,0,B|386:192|386:192|376:132,1,70
228,268,12661,5,0,0:0:0:0:
196,168,12827,2,0,L|208:75,1,70
0,184,13161,1,0,0:0:0:0:
120,136,13327,1,0,0:0:0:0:
72,264,13494,2,0,L|60:352,1,70
200,244,13827,5,0,0:0:0:0:
160,100,13994,1,0,0:0:0:0:
48,192,14161,1,0,0:0:0:0:
236,160,14327,2,0,P|272:160|315:180,2,70
140,97,14827,5,0,0:0:0:0:
220,260,14994,1,0,0:0:0:0:
328,92,15161,1,0,0:0:0:0:
72,192,15327,1,0,0:0:0:0:
168,72,15494,5,0,0:0:0:0:
152,268,15661,1,0,0:0:0:0:
48,104,15827,5,0,0:0:0:0:
80,304,15994,1,0,0:0:0:0:
168,48,16161,6,0,P|152:88|152:132,1,70
208,336,16494,2,0,P|224:292|228:236,1,70
224,96,16827,5,0,0:0:0:0:
340,204,16994,1,0,0:0:0:0:
208,88,17161,1,0,0:0:0:0:
227,269,17327,1,0,0:0:0:0:
404,128,17494,1,0,0:0:0:0:
176,180,17661,1,0,0:0:0:0:
352,28,17827,2,0,L|344:123,1,70
248,276,18161,2,0,L|260:196,1,70
136,132,18494,5,0,0:0:0:0:
152,304,18661,1,0,0:0:0:0:
64,92,18827,5,0,0:0:0:0:
225,242,18994,1,0,0:0:0:0:
148,52,19161,1,0,0:0:0:0:
96,236,19327,1,0,0:0:0:0:
256,88,19494,5,0,0:0:0:0:
168,328,19661,1,0,0:0:0:0:
176,40,19827,1,0,0:0:0:0:
300,272,19994,1,0,0:0:0:0:
124,144,20161,1,0,0:0:0:0:
160,336,20327,1,0,0:0:0:0:
280,88,20494,5,0,0:0:0:0:
292,100,20577,1,0,0:0:0:0:
304,112,20661,1,0,0:0:0:0:
312,128,20744,1,0,0:0:0:0:
316,144,20827,2,0,P|320:192|309:226,1,70
233,355,21161,2,0,P|220:308|221:264,1,70
368,248,21494,5,0,0:0:0:0:
192,172,21661,1,0,0:0:0:0:
336,120,21827,5,0,0:0:0:0:
208,276,21994,1,0,0:0:0:0:
176,96,22161,5,0,0:0:0:0:
420,196,22327,1,0,0:0:0:0:
56,252,22494,2,0,B|120:268|120:268|205:260,1,140
368,264,22994,5,0,0:0:0:0:
232,348,23161,5,0,0:0:0:0:
300,144,23327,1,0,0:0:0:0:
160,312,23494,2,0,B|188:266|188:266|180:174,1,140
66,191,23994,2,0,P|60:230|63:261,2,70
288,68,24494,5,0,0:0:0:0:
176,300,24661,1,0,0:0:0:0:
392,188,24827,1,0,0:0:0:0:
161,210,24994,1,0,0:0:0:0:
361,325,25161,1,0,0:0:0:0:
435,109,25327,1,0,0:0:0:0:
435,109,25494,6,0,B|472:145|472:145|471:246,1,140
315,227,25994,5,0,0:0:0:0:
315,227,26161,2,0,P|249:213|174:244,1,140
120,364,26661,1,0,0:0:0:0:
212,320,26827,2,0,B|236:304|236:304|308:300|308:300,1,70
376,352,27161,1,0,0:0:0:0:
317,143,27327,1,0,0:0:0:0:
259,261,27494,1,0,0:0:0:0:
231,45,27661,1,0,0:0:0:0:
406,148,27827,2,0,P|362:140|322:148,1,70
177,251,28161,6,0,P|209:267|253:270,1,70
222,104,28494,5,0,0:0:0:0:
255,269,28661,1,0,0:0:0:0:
99,207,28827,2,0,P|58:222|23:247,1,70
170,242,29161,2,0,P|180:198|157:153,1,70
115,88,29494,5,0,0:0:0:0:
269,112,29661,1,0,0:0:0:0:
112,319,29827,1,0,0:0:0:0:
261,127,29994,5,0,0:0:0:0:
383,262,30161,2,0,L|308:272,1,70
405,83,30494,1,0,0:0:0:0:
392,248,30661,1,0,0:0:0:0:
164,184,30827,2,0,P|144:237|228:264,1,140
358,165,31327,5,0,0:0:0:0:
358,165,31494,2,0,P|336:87|262:67,1,140
227,173,31994,1,0,0:0:0:0:
323,246,32161,2,0,B|338:284|338:284|331:334,2,70
268,92,32660,5,0,0:0:0:0:
232,280,32827,1,0,0:0:0:0:
162,156,32994,5,0,0:0:0:0:
354,174,33161,1,0,0:0:0:0:
171,158,33327,1,0,0:0:0:0:
308,68,33494,6,0,P|310:33|293:-13,2,70
345,145,33994,5,0,0:0:0:0:
204,100,34161,1,0,0:0:0:0:
312,240,34327,1,0,0:0:0:0:
296,64,34494,1,0,0:0:0:0:
224,240,34661,1,0,0:0:0:0:
364,160,34827,5,8,0:0:0:0:
324,288,34994,1,8,0:0:0:0:
272,172,35161,1,8,0:0:0:0:
144,180,35327,5,0,0:0:0:0:
204,72,35494,5,0,0:0:0:0:
272,172,35661,1,0,0:0:0:0:
332,40,35827,1,0,0:0:0:0:
440,180,35994,1,0,0:0:0:0:
360,310,36161,2,0,B|320:339|320:339|222:321,1,140
156,252,36661,1,0,0:0:0:0:
364,232,36827,1,0,0:0:0:0:
224,156,36994,1,0,0:0:0:0:
464,160,37161,5,8,0:0:0:0:
296,48,37327,1,8,0:0:0:0:
292,232,37494,1,8,0:0:0:0:
428,76,37661,1,8,0:0:0:0:
220,28,37827,6,0,P|173:71|171:152,1,140
256,124,38327,1,0,0:0:0:0:
256,124,38494,2,0,B|240:184|240:184|175:226,1,140
186,353,38994,1,0,0:0:0:0:
186,353,39161,6,0,B|228:312|228:312|315:312,1,140
356,220,39661,6,0,P|350:181|356:150,1,70
454,63,39994,1,0,0:0:0:0:
388,297,40161,2,0,P|444:245|420:171,1,140
311,80,40661,5,0,0:0:0:0:
301,74,40827,6,0,L|154:110,1,140
96,258,41327,1,0,0:0:0:0:
107,264,41494,2,0,L|246:234,1,140
345,86,42161,5,0,0:0:0:0:
176,297,42327,1,0,0:0:0:0:
175,26,42494,1,0,0:0:0:0:
307,242,42661,1,0,0:0:0:0:
280,40,42827,1,0,0:0:0:0:
139,222,42994,1,0,0:0:0:0:
69,27,43161,1,0,0:0:0:0:
328,275,43327,1,0,0:0:0:0:
328,275,43494,2,0,B|284:258|252:271|252:271|211:288|166:276|166:276|194:265|216:240,1,210
296,163,44161,5,0,0:0:0:0:
296,163,44327,2,0,P|335:162|376:179,2,70
143,126,44827,2,0,P|129:186|129:223,1,70
93,318,45161,1,0,0:0:0:0:
53,153,45327,1,0,0:0:0:0:
185,254,45494,2,0,B|230:266|243:309|243:309|217:282|186:280,1,140
196,167,46161,2,0,B|256:184|315:274|315:274|279:162,1,280
132,80,47161,5,0,0:0:0:0:
127,87,47327,2,0,B|114:153|114:153|157:239,1,140
448,272,48161,6,0,P|460:232|458:190,1,70
376,100,48494,2,0,P|368:136|367:179,1,70
350,374,48827,2,0,P|371:293|206:271,1,280
82,331,49661,5,0,0:0:0:0:
154,167,49827,1,0,0:0:0:0:
213,348,49994,1,0,0:0:0:0:
262,159,50161,2,0,P|329:185|405:171,1,140
453,55,50661,5,0,0:0:0:0:
457,58,50827,2,0,P|391:42|312:62,1,140
378,145,51327,5,0,0:0:0:0:
302,246,51494,2,0,B|196:271|152:227|152:227|79:212|40:284,1,280
126,323,52494,5,0,0:0:0:0:
76,0,52661,2,0,B|145:43|145:43|107:112|123:185,1,210
212,88,53494,6,0,P|199:135|201:168,1,70
291,200,53827,2,0,P|296:254|288:281,1,70
230,370,54161,2,0,B|217:334|188:308|188:308|242:247|189:163|189:163|178:209,1,280
58,319,54994,5,0,0:0:0:0:
102,117,55161,1,0,0:0:0:0:
143,251,55327,5,0,0:0:0:0:
170,43,55494,2,0,B|205:38|221:43|249:53,1,70
295,169,55827,1,0,0:0:0:0:
81,131,55994,1,0,0:0:0:0:
270,80,56161,2,0,P|323:79|393:138,1,140
354,276,56661,5,0,0:0:0:0:
347,277,56827,6,0,B|276:299|276:299|260:234|199:199|199:199|267:179|321:106|321:106|308:195,1,420
393,205,57994,2,0,B|429:130|414:59|414:59|454:149|483:256,1,350
301,174,59161,5,0,0:0:0:0:
280,350,59328,1,0,0:0:0:0:
177,154,59494,1,0,0:0:0:0:
168,313,59661,1,0,0:0:0:0:
268,56,59827,5,0,0:0:0:0:
56,168,59994,1,0,0:0:0:0:
260,64,60161,2,0,P|272:120|272:152,1,70
188,336,60494,2,0,P|180:296|196:236,1,70
448,200,60827,1,0,0:0:0:0:
328,48,60994,1,0,0:0:0:0:
300,335,61161,6,0,L|317:247,1,70
212,182,61494,2,0,L|280:200,1,70
324,264,61827,1,0,0:0:0:0:
79,332,61994,5,0,0:0:0:0:
164,132,62161,1,0,0:0:0:0:
276,304,62327,1,0,0:0:0:0:
184,16,62494,1,0,0:0:0:0:
27,268,62661,1,0,0:0:0:0:
242,153,62827,1,0,0:0:0:0:
106,327,62994,1,0,0:0:0:0:
20,155,63161,2,0,L|175:142,1,140
309,297,63994,5,0,0:0:0:0:
421,113,64161,1,0,0:0:0:0:
426,342,64327,1,0,0:0:0:0:
409,16,64494,1,0,0:0:0:0:
271,338,64661,2,0,B|291:272|291:272|281:201,1,140
186,81,65161,1,0,0:0:0:0:
201,200,65327,2,0,L|213:278,2,70
103,130,65827,5,0,0:0:0:0:
310,163,65994,1,0,0:0:0:0:
235,12,66161,1,0,0:0:0:0:
217,274,66327,2,0,B|249:322|249:322|272:326,2,70
63,166,66827,5,0,0:0:0:0:
223,63,66994,1,0,0:0:0:0:
114,296,67161,1,0,0:0:0:0:
303,199,67327,1,0,0:0:0:0:
103,311,67494,2,0,L|30:312,2,70
118,205,67994,5,0,0:0:0:0:
366,276,68161,1,0,0:0:0:0:
93,325,68327,1,0,0:0:0:0:
396,157,68494,6,0,L|322:152,1,70
118,138,68827,2,0,L|208:115,1,70
340,63,69161,1,0,0:0:0:0:
140,245,69327,1,0,0:0:0:0:
288,12,69494,1,0,0:0:0:0:
248,332,69661,1,0,0:0:0:0:
336,208,69827,1,0,0:0:0:0:
193,73,69994,1,0,0:0:0:0:
121,176,70161,5,4,0:0:0:0:
292,90,70327,1,4,0:0:0:0:
166,275,70494,1,4,0:0:0:0:
340,212,70661,1,4,0:0:0:0:
214,153,70827,1,0,0:0:0:0:
467,201,70994,5,0,0:0:0:0:
256,96,71161,1,0,0:0:0:0:
358,9,71327,1,0,0:0:0:0:
340,275,71494,2,0,L|325:355,1,70
81,320,71827,5,0,0:0:0:0:
91,297,71911,1,0,0:0:0:0:
107,283,71994,1,0,0:0:0:0:
131,276,72077,1,0,0:0:0:0:
152,280,72161,2,0,L|224:308,2,70
52,136,72661,5,0,0:0:0:0:
244,73,72827,1,0,0:0:0:0:
45,229,72994,5,0,0:0:0:0:
234,157,73160,1,0,0:0:0:0:
111,352,73327,5,0,0:0:0:0:
284,244,73494,2,0,L|360:220,2,70
128,368,73994,5,0,0:0:0:0:
196,148,74161,1,0,0:0:0:0:
40,300,74327,1,0,0:0:0:0:
308,168,74494,1,0,0:0:0:0:
96,96,74661,2,0,L|8:68,2,70
260,256,75161,5,0,0:0:0:0:
214,114,75327,5,0,0:0:0:0:
359,96,75494,2,0,P|372:152|363:181,1,70
399,317,75827,5,0,0:0:0:0:
295,140,75994,1,0,0:0:0:0:
316,328,76161,1,0,0:0:0:0:
236,39,76327,1,0,0:0:0:0:
66,274,76494,1,0,0:0:0:0:
66,274,76661,6,0,B|121:292|121:292|206:278,1,140
248,207,77161,2,0,B|203:204|203:204|166:210,2,70
367,192,77661,2,0,P|399:144|400:112,1,70
272,36,77994,5,0,0:0:0:0:
328,320,78161,1,0,0:0:0:0:
211,123,78327,2,0,P|183:153|170:200,2,70
456,324,78827,2,0,P|499:291|468:220,1,140
404,42,79327,5,0,0:0:0:0:
375,236,79494,1,0,0:0:0:0:
507,153,79661,1,0,0:0:0:0:
317,103,79827,1,0,0:0:0:0:
462,285,79994,5,0,0:0:0:0:
386,162,80161,1,0,0:0:0:0:
240,267,80327,1,0,0:0:0:0:
357,340,80494,5,0,0:0:0:0:
267,168,80661,1,0,0:0:0:0:
267,168,80827,2,0,B|196:176|196:176|115:229,1,140
205,308,81327,1,0,0:0:0:0:
205,308,81494,2,0,B|288:288|288:288|334:237,1,140
394,167,81994,1,0,0:0:0:0:
466,80,82161,2,0,P|441:12|374:31,1,140
160,328,82661,5,0,0:0:0:0:
260,92,82827,1,0,0:0:0:0:
372,324,82994,1,0,0:0:0:0:
104,140,83161,1,0,0:0:0:0:
352,68,83327,1,0,0:0:0:0:
192,272,83494,2,0,P|156:300|132:340,1,70
324,136,83827,5,0,0:0:0:0:
76,212,83994,1,0,0:0:0:0:
376,232,84161,5,0,0:0:0:0:
144,124,84327,1,0,0:0:0:0:
360,324,84494,5,0,0:0:0:0:
236,96,84661,1,0,0:0:0:0:
288,384,84827,5,0,0:0:0:0:
332,128,84994,1,0,0:0:0:0:
329,110,85161,6,0,B|328:65|328:65|285:86|309:154,1,140
328,324,85661,5,0,0:0:0:0:
352,100,85827,1,0,0:0:0:0:
200,280,85994,5,0,0:0:0:0:
296,32,86161,1,0,0:0:0:0:
284,288,86327,5,0,0:0:0:0:
216,64,86494,1,0,0:0:0:0:
372,272,86661,1,0,0:0:0:0:
184,144,86827,2,0,P|98:145|108:201,1,140
323,261,87327,5,0,0:0:0:0:
80,284,87494,1,0,0:0:0:0:
304,152,87661,1,0,0:0:0:0:
148,360,87827,1,0,0:0:0:0:
212,108,87994,5,0,0:0:0:0:
240,368,88161,1,0,0:0:0:0:
300,52,88327,1,0,0:0:0:0:
324,308,88494,2,0,P|349:221|342:147,1,140
124,72,94161,5,0,0:0:0:0:
156,189,94327,1,0,0:0:0:0:
214,69,94494,1,0,0:0:0:0:
256,201,94661,1,0,0:0:0:0:
316,77,94827,6,0,L|332:25,2,52.5000020027161
347,177,95327,5,0,0:0:0:0:
213,270,95494,5,0,0:0:0:0:
325,168,95661,1,0,0:0:0:0:
263,366,95827,1,0,0:0:0:0:
221,171,95994,1,0,0:0:0:0:
416,218,96161,1,0,0:0:0:0:
230,280,96327,5,0,0:0:0:0:
217,286,96411,1,0,0:0:0:0:
204,293,96494,1,0,0:0:0:0:
191,299,96577,1,0,0:0:0:0:
178,306,96661,1,0,0:0:0:0:
293,54,96827,5,0,0:0:0:0:
180,221,96994,1,0,0:0:0:0:
340,149,97161,1,0,0:0:0:0:
146,88,97327,1,0,0:0:0:0:
289,297,97494,1,0,0:0:0:0:
255,160,97661,5,0,0:0:0:0:
126,316,97827,1,0,0:0:0:0:
53,166,97994,1,0,0:0:0:0:
28,332,98161,1,0,0:0:0:0:
146,167,98327,2,0,L|141:112,2,52.5000020027161
200,299,98827,2,0,L|248:326,2,52.5000020027161
69,256,99327,2,0,L|9:272,1,52.5000020027161
323,134,99661,5,0,0:0:0:0:
232,314,99827,1,0,0:0:0:0:
250,107,99994,1,0,0:0:0:0:
156,297,100161,1,0,0:0:0:0:
380,212,100327,1,0,0:0:0:0:
302,340,100494,1,0,0:0:0:0:
337,92,100661,5,0,0:0:0:0:
323,69,100827,1,0,0:0:0:0:
307,47,100994,1,0,0:0:0:0:
288,28,101161,2,0,B|253:75|253:75|243:132,1,105.000004005432
281,310,101661,2,0,L|306:249,1,52.5000020027161
144,147,102327,5,0,0:0:0:0:
44,293,102494,1,0,0:0:0:0:
14,161,102661,1,0,0:0:0:0:
205,292,102827,1,0,0:0:0:0:
216,298,102994,2,0,B|257:318|257:318|328:316,1,105.000004005432
371,212,103494,2,0,L|436:190,2,52.5000020027161
266,195,103994,2,0,L|205:164,1,52.5000020027161
331,126,104327,2,0,L|382:91,1,52.5000020027161
265,14,104661,2,0,L|258:86,1,52.5000020027161
233,193,104994,5,0,0:0:0:0:
63,170,105161,1,0,0:0:0:0:
196,56,105327,1,0,0:0:0:0:
125,293,105494,1,0,0:0:0:0:
80,92,105661,1,0,0:0:0:0:
251,262,105827,1,0,0:0:0:0:
258,88,105994,1,0,0:0:0:0:
111,212,106161,1,0,0:0:0:0:
364,132,106327,2,0,P|392:116|438:106,2,70
223,218,106827,2,0,P|188:200|138:186,2,70
455,250,107327,5,0,0:0:0:0:
199,321,107494,1,0,0:0:0:0:
411,98,107827,5,0,0:0:0:0:
336,232,107994,1,0,0:0:0:0:
282,102,108161,1,0,0:0:0:0:
210,298,108327,1,0,0:0:0:0:
168,173,108494,5,0,0:0:0:0:
282,233,108661,1,0,0:0:0:0:
390,169,108827,1,0,0:0:0:0:
439,285,108994,1,0,0:0:0:0:
325,340,109161,1,0,0:0:0:0:
356,86,109327,1,0,0:0:0:0:
247,250,109494,1,0,0:0:0:0:
209,91,109661,2,0,L|134:73,2,70
437,116,110161,5,0,0:0:0:0:
180,210,110327,1,0,0:0:0:0:
383,353,110660,5,0,0:0:0:0:
451,199,110827,1,0,0:0:0:0:
286,236,110994,1,0,0:0:0:0:
351,291,111161,5,0,0:0:0:0:
333,144,111327,1,0,0:0:0:0:
210,197,111494,1,0,0:0:0:0:
229,65,111661,1,0,0:0:0:0:
252,279,111827,1,0,0:0:0:0:
145,148,111994,1,0,0:0:0:0:
326,94,112161,1,0,0:0:0:0:
326,94,112244,1,0,0:0:0:0:
326,94,112327,1,0,0:0:0:0:
326,94,112411,1,0,0:0:0:0:
326,94,112494,2,0,P|341:164|336:232,1,140
191,300,112994,5,0,0:0:0:0:
55,332,113161,5,0,0:0:0:0:
139,215,113327,1,0,0:0:0:0:
17,232,113494,1,0,0:0:0:0:
216,188,113661,1,0,0:0:0:0:
5,167,113827,1,0,0:0:0:0:
185,104,113994,2,0,P|226:109|266:128,1,70
331,272,114327,2,0,P|277:293|240:292,1,70
151,292,114661,5,0,0:0:0:0:
240,121,114827,1,0,0:0:0:0:
0,204,114994,1,0,0:0:0:0:
86,253,115161,5,0,0:0:0:0:
105,242,115244,1,0,0:0:0:0:
125,233,115327,1,0,0:0:0:0:
142,222,115411,1,0,0:0:0:0:
165,214,115494,2,0,L|331:217,1,140
399,333,115994,5,0,0:0:0:0:
437,137,116161,1,0,0:0:0:0:
325,269,116327,1,0,0:0:0:0:
356,103,116494,1,0,0:0:0:0:
246,226,116661,1,0,0:0:0:0:
246,226,116827,2,0,B|184:220|144:188|144:188|117:180|133:225,1,140
68,284,117327,1,0,0:0:0:0:
196,320,117494,2,0,P|263:314|332:288,1,140
376,176,118161,6,0,P|334:137|332:48,1,140
417,90,118661,2,0,L|501:92,2,70
185,143,119161,5,0,0:0:0:0:
409,197,119327,2,0,P|406:257|338:342,1,140
284,298,119827,1,0,0:0:0:0:
180,264,119994,1,0,0:0:0:0:
77,303,120161,2,0,L|-12:325,2,70
267,215,120661,1,0,0:0:0:0:
364,212,120827,2,0,P|336:144|256:116,1,140
71,207,121327,5,0,0:0:0:0:
211,127,121494,1,0,0:0:0:0:
136,259,121661,2,0,L|114:325,2,70
135,84,122161,1,0,0:0:0:0:
241,262,122327,1,0,0:0:0:0:
275,63,122494,1,0,0:0:0:0:
149,210,122661,1,0,0:0:0:0:
381,201,122827,6,0,B|364:99,1,70
281,209,123161,6,0,L|291:286,1,70
259,121,123494,6,0,P|208:170|207:239,1,140
164,316,123994,1,0,0:0:0:0:
240,140,124161,1,0,0:0:0:0:
257,342,124327,1,0,0:0:0:0:
331,77,124494,1,0,0:0:0:0:
348,264,124661,2,0,L|331:352,2,70
408,103,125161,6,0,P|403:61|371:54,1,70
240,124,125494,2,0,P|200:132|161:176,1,70
288,216,125827,2,0,P|264:232|255:287,1,70
446,204,126161,2,0,P|446:255|386:219,1,140
378,127,126661,5,0,0:0:0:0:
283,79,126827,1,0,0:0:0:0:
184,137,126994,1,0,0:0:0:0:
99,236,127161,2,0,B|111:273|111:273|142:304,1,70
287,264,127494,2,0,P|256:189|196:156,1,140
48,169,127994,1,0,0:0:0:0:
151,251,128161,1,0,0:0:0:0:
291,278,128327,1,0,0:0:0:0:
376,157,128494,2,0,P|391:111|366:73,1,70
237,86,128827,2,0,B|273:129|273:129|276:217,1,140
160,223,129327,5,0,0:0:0:0:
262,167,129494,1,0,0:0:0:0:
133,140,129661,1,0,0:0:0:0:
198,275,129827,5,0,0:0:0:0:
341,242,129994,2,0,P|392:183|254:153,1,280
137,337,130827,6,0,P|114:296|116:257,1,70
144,173,131161,6,0,P|188:189|224:221,1,70
195,248,131494,5,0,0:0:0:0:
282,67,131661,1,0,0:0:0:0:
316,275,131827,1,0,0:0:0:0:
184,65,131994,2,0,L|24:130,1,140
201,347,132494,1,0,0:0:0:0:
300,148,132661,1,0,0:0:0:0:
388,352,132827,1,0,0:0:0:0:
196,232,132994,2,0,L|110:254,2,70
336,256,133494,5,0,0:0:0:0:
408,84,133661,1,0,0:0:0:0:
452,272,133827,1,0,0:0:0:0:
296,80,133994,1,0,0:0:0:0:
252,308,134161,1,0,0:0:0:0:
204,16,134327,5,0,0:0:0:0:
116,328,134494,1,0,0:0:0:0:
372,152,134661,1,0,0:0:0:0:
36,192,134827,1,0,0:0:0:0:
124,24,134994,1,0,0:0:0:0:
224,328,135161,1,0,0:0:0:0:
312,20,135327,1,0,0:0:0:0:
300,196,135494,2,0,P|256:228|212:160,1,140
156,72,135994,5,0,0:0:0:0:
112,298,136161,1,0,0:0:0:0:
58,65,136327,1,0,0:0:0:0:
224,332,136494,1,0,0:0:0:0:
46,190,136661,2,0,B|81:156|81:156|194:137,1,140
418,102,137161,1,0,0:0:0:0:
323,327,137327,1,0,0:0:0:0:
266,72,137494,5,0,0:0:0:0:
93,305,137661,1,0,0:0:0:0:
164,47,137827,1,0,0:0:0:0:
187,215,137994,1,0,0:0:0:0:
75,162,138161,2,0,B|51:237|91:302,1,140
213,310,138661,5,0,0:0:0:0:
288,160,138827,6,0,L|295:78,1,70
114,177,139161,6,0,L|101:264,1,70
321,93,139494,6,0,P|265:88|231:112,1,70
167,288,139827,1,0,0:0:0:0:
136,86,139994,1,0,0:0:0:0:
289,196,140161,1,0,0:0:0:0:
87,177,140327,1,0,0:0:0:0:
223,25,140494,1,0,0:0:0:0:
198,226,140661,1,0,0:0:0:0:
312,59,140827,1,0,0:0:0:0:
292,166,140994,2,0,L|375:158,2,70
120,225,141494,6,0,L|50:258,1,70
228,105,141827,2,0,P|284:70|373:75,1,140
315,320,142327,5,0,0:0:0:0:
438,149,142494,1,0,0:0:0:0:
220,188,142661,1,0,0:0:0:0:
421,263,142827,1,0,0:0:0:0:
310,95,142994,1,0,0:0:0:0:
288,289,143161,1,0,0:0:0:0:
440,155,143327,1,0,0:0:0:0:
449,145,143494,2,0,P|443:77|401:116,1,140
359,306,143994,5,0,0:0:0:0:
252,104,144161,1,0,0:0:0:0:
156,314,144327,1,0,0:0:0:0:
331,178,144494,1,0,0:0:0:0:
241,330,144661,1,0,0:0:0:0:
162,94,144827,1,0,0:0:0:0:
29,294,144994,1,0,0:0:0:0:
161,221,145161,2,0,L|238:225,1,70
436,300,145494,6,0,P|432:252|436:208,1,70
364,88,145827,2,0,P|376:148|368:184,1,70
234,226,146161,2,0,L|323:207,2,70
124,158,146661,5,0,0:0:0:0:
38,328,146827,1,0,0:0:0:0:
222,240,146994,1,0,0:0:0:0:
8,203,147161,1,0,0:0:0:0:
170,340,147327,1,0,0:0:0:0:
312,298,147494,2,0,L|463:242,1,140
282,179,147994,5,0,0:0:0:0:
135,247,148161,1,0,0:0:0:0:
194,73,148327,1,0,0:0:0:0:
261,260,148494,1,0,0:0:0:0:
64,184,148661,1,0,0:0:0:0:
64,184,148827,2,0,P|44:212|40:264,1,70
135,247,149161,2,0,P|178:197|176:120,1,140
64,96,149661,5,0,0:0:0:0:
216,220,149827,1,0,0:0:0:0:
55,354,149994,5,0,0:0:0:0:
96,188,150161,1,0,0:0:0:0:
268,296,150327,1,0,0:0:0:0:
268,296,150494,2,0,B|284:272|284:272|288:224,1,70
132,288,150827,2,0,B|172:272|172:272|188:240,1,70
223,78,151161,5,0,0:0:0:0:
154,173,151327,1,0,0:0:0:0:
90,72,151494,1,0,0:0:0:0:
38,226,151661,1,0,0:0:0:0:
6,93,151827,1,0,0:0:0:0:
6,93,151994,2,0,L|168:74,1,140
336,211,152494,1,0,0:0:0:0:
220,198,152661,2,0,L|144:220,2,70
431,118,153161,5,0,0:0:0:0:
327,309,153327,1,0,0:0:0:0:
311,65,153494,1,0,0:0:0:0:
447,274,153661,1,0,0:0:0:0:
406,14,153827,1,0,0:0:0:0:
247,263,153994,2,0,L|238:348,1,70
108,280,154827,5,0,0:0:0:0:
276,88,154994,1,0,0:0:0:0:
280,316,155161,1,0,0:0:0:0:
132,63,155327,1,0,0:0:0:0:
192,224,155494,1,0,0:0:0:0:
296,80,155661,1,0,0:0:0:0:
292,328,155827,1,0,0:0:0:0:
144,48,155994,1,0,0:0:0:0:
200,296,156161,1,0,0:0:0:0:
280,116,156327,1,0,0:0:0:0:
112,294,156494,1,0,0:0:0:0:
175,103,156661,6,0,P|172:139|148:189,1,70
73,171,156994,2,0,P|86:225|100:243,1,70
193,309,157327,1,0,0:0:0:0:
283,135,157494,1,0,0:0:0:0:
304,311,157661,1,0,0:0:0:0:
176,99,157827,1,0,0:0:0:0:
120,240,157994,1,0,0:0:0:0:
280,64,158161,1,0,0:0:0:0:
400,284,158327,5,0,0:0:0:0:
368,36,158494,1,0,0:0:0:0:
235,343,158661,1,0,0:0:0:0:
188,112,158827,1,0,0:0:0:0:
388,288,158994,1,0,0:0:0:0:
324,120,159161,2,0,P|288:96|244:96,1,70
160,236,159494,2,0,P|204:244|236:228,1,70
320,172,159827,1,0,0:0:0:0:
96,100,159994,1,0,0:0:0:0:
60,220,160161,5,0,0:0:0:0:
288,104,160327,1,0,0:0:0:0:
288,104,160494,2,0,B|264:112|264:112|224:144,1,70
76,294,160827,6,0,B|154:279|154:279|203:225,1,140
272,115,161327,1,0,0:0:0:0:
133,60,161494,2,0,B|104:119|104:119|117:206,1,140
266,275,161994,1,0,0:0:0:0:
381,237,162161,2,0,P|377:152|429:155,1,140
475,223,162661,5,0,0:0:0:0:
428,316,162827,1,0,0:0:0:0:
324,308,162994,1,0,0:0:0:0:
280,212,163161,1,0,0:0:0:0:
316,112,163327,1,0,0:0:0:0:
212,36,163494,6,0,B|196:88|212:132|212:132|184:172|184:256,1,210
152,316,164161,2,0,P|96:303|117:223,1,140
209,158,164661,1,0,0:0:0:0:
321,194,164827,1,0,0:0:0:0:
416,142,164994,1,0,0:0:0:0:
378,37,165161,1,0,0:0:0:0:
378,37,165327,2,0,B|332:40|332:40|304:56|304:56|276:40|276:40|231:42,1,140
160,132,165827,2,0,L|140:272,1,140
250,317,166327,1,0,0:0:0:0:
279,234,166494,2,0,B|315:195|315:195|312:152|312:152|336:96,1,140
452,144,167494,5,0,0:0:0:0:
364,316,167661,1,0,0:0:0:0:
336,184,167827,1,0,0:0:0:0:
488,256,167994,1,0,0:0:0:0:
432,124,168161,1,0,0:0:0:0:
336,304,168327,1,0,0:0:0:0:
272,144,168494,2,0,B|272:124|240:96|204:100|204:100|200:128|208:152|208:152|228:176,1,140
244,300,168994,1,0,0:0:0:0:
320,192,169161,1,0,0:0:0:0:
144,156,169661,5,0,0:0:0:0:
276,300,169827,1,0,0:0:0:0:
316,112,169994,1,0,0:0:0:0:
192,300,170161,2,0,P|300:380|348:256,1,280
469,89,170994,5,0,0:0:0:0:
304,152,171161,1,0,0:0:0:0:
436,296,171327,1,0,0:0:0:0:
399,148,171494,2,0,P|303:63|202:153,1,280
208,340,172327,5,0,0:0:0:0:
112,184,172494,1,0,0:0:0:0:
64,356,172661,1,0,0:0:0:0:
144,280,172827,6,0,B|202:267|237:230|237:230|269:277|286:343|286:343|371:237|442:271|412:329,1,420.000016021729
354,77,174661,1,0,0:0:0:0:
293,161,174827,1,0,0:0:0:0:
268,264,174994,1,0,0:0:0:0:
268,264,175161,2,0,B|216:284|216:284|207:295|200:320|172:336,1,105.000004005432
88,308,175661,1,0,0:0:0:0:
80,208,175827,1,0,0:0:0:0:
120,116,175994,2,0,P|166:87|229:90,2,105.000004005432
206,172,176827,2,0,P|263:178|308:147,1,105.000004005432
345,57,177327,5,0,0:0:0:0:
440,154,177494,1,0,0:0:0:0:
376,284,177661,1,0,0:0:0:0:
267,220,177827,6,0,P|211:198|150:220,1,105.000004005432
215,301,178327,1,0,0:0:0:0:
103,273,178494,2,0,P|76:220|88:168,1,105.000004005432
141,95,178994,1,0,0:0:0:0:
272,104,179161,2,0,L|337:114,2,52.5000020027161
219,180,179661,2,0,L|160:182,2,52.5000020027161
368,200,180161,2,0,P|413:157|416:112,1,105.000004005432
328,32,180661,5,0,0:0:0:0:
256,88,180827,1,0,0:0:0:0:
240,176,180994,1,0,0:0:0:0:
268,260,181161,1,0,0:0:0:0:
349,295,181327,1,0,0:0:0:0:
410,229,181494,1,0,0:0:0:0:
368,149,181661,1,0,0:0:0:0:
282,110,181827,2,0,P|209:138|202:172,2,105.000004005432
348,194,182661,5,0,0:0:0:0:
290,261,182827,1,0,0:0:0:0:
200,263,182994,1,0,0:0:0:0:
137,198,183161,1,0,0:0:0:0:
139,109,183327,1,0,0:0:0:0:
205,48,183494,2,0,P|262:55|297:98,1,105.000004005432
406,49,185327,5,0,0:0:0:0:
368,160,185494,1,0,0:0:0:0:
308,64,185661,1,0,0:0:0:0:
272,196,185827,1,0,0:0:0:0:
204,64,185994,1,0,0:0:0:0:
176,212,186161,2,0,P|182:281|222:316,1,105.000004005432
116,34,186661,1,0,0:0:0:0:
252,240,186827,2,0,L|340:296,1,105.000004005432
395,229,187327,5,0,0:0:0:0:
455,162,187494,2,0,P|430:119|379:99,1,105.000004005432
336,248,187994,5,0,0:0:0:0:
296,140,188161,1,0,0:0:0:0:
232,236,188327,1,0,0:0:0:0:
196,124,188494,1,0,0:0:0:0:
136,224,188661,1,0,0:0:0:0:
292,136,188827,1,0,0:0:0:0:
312,312,188994,1,0,0:0:0:0:
196,176,189161,2,0,B|170:146|170:146|180:64,1,105.000004005432
224,332,189661,5,0,0:0:0:0:
44,288,189827,2,0,L|56:216,1,52.5000020027161
236,192,190161,1,0,0:0:0:0:
48,296,190327,1,0,0:0:0:0:
136,104,190494,1,0,0:0:0:0:
204,324,190661,1,0,0:0:0:0:
233,94,190827,6,0,B|291:77|291:77,2,52.5000020027161
178,169,191327,1,0,0:0:0:0:
191,278,191494,2,0,L|210:381,1,105.000004005432
291,113,191994,1,0,0:0:0:0:
290,258,192161,1,0,0:0:0:0:
212,72,192327,1,0,0:0:0:0:
392,160,192494,2,0,B|424:176|436:204,1,52.5000020027161
377,319,192827,2,0,B|368:304|344:296|344:296|332:272|344:248|384:244,1,105.000004005432
448,284,193327,1,0,0:0:0:0:
268,176,193494,5,0,0:0:0:0:
340,348,193661,1,0,0:0:0:0:
360,204,193827,1,0,0:0:0:0:
244,348,193994,1,0,0:0:0:0:
88,268,194161,5,0,0:0:0:0:
159,92,194327,1,0,0:0:0:0:
216,263,194494,1,0,0:0:0:0:
88,160,194661,1,0,0:0:0:0:
71,331,194827,1,0,0:0:0:0:
213,111,194994,1,0,0:0:0:0:
231,277,195161,1,0,0:0:0:0:
76,216,195327,1,0,0:0:0:0:
240,196,195494,5,0,0:0:0:0:
258,206,195577,1,0,0:0:0:0:
273,220,195661,1,0,0:0:0:0:
285,236,195744,1,0,0:0:0:0:
291,256,195827,1,0,0:0:0:0:
292,277,195911,1,0,0:0:0:0:
286,297,195994,1,0,0:0:0:0:
168,144,196161,5,0,0:0:0:0:
212,280,196327,1,0,0:0:0:0:
360,132,196494,5,0,0:0:0:0:
220,212,196661,1,0,0:0:0:0:
356,296,196827,2,0,B|278:325|278:325|200:323,1,140
72,272,197327,5,0,0:0:0:0:
236,116,197494,1,0,0:0:0:0:
221,323,197661,5,0,0:0:0:0:
100,152,197827,1,0,0:0:0:0:
143,346,197994,5,0,0:0:0:0:
220,112,198161,1,0,0:0:0:0:
112,272,198327,5,0,0:0:0:0:
248,216,198494,1,0,0:0:0:0:
140,152,198661,1,0,0:0:0:0:
200,348,198827,1,0,0:0:0:0:
141,280,198994,6,0,P|92:299|67:318,1,70
326,157,199327,2,0,P|380:142|398:130,1,70
144,128,199661,1,0,0:0:0:0:
288,260,199827,1,0,0:0:0:0:
208,44,199994,1,0,0:0:0:0:
116,240,200161,1,0,0:0:0:0:
320,107,200327,5,0,0:0:0:0:
400,208,200494,1,0,0:0:0:0:
296,268,200661,1,0,0:0:0:0:
416,48,200827,1,0,0:0:0:0:
480,312,200994,1,0,0:0:0:0:
296,181,201161,2,0,L|136:168,1,140
112,88,201661,1,0,0:0:0:0:
106,365,201827,5,0,0:0:0:0:
176,260,201994,1,0,0:0:0:0:
232,376,202161,1,0,0:0:0:0:
87,269,202327,5,0,0:0:0:0:
187,125,202494,1,0,0:0:0:0:
253,287,202661,1,0,0:0:0:0:
338,51,202827,1,0,0:0:0:0:
293,198,202994,1,0,0:0:0:0:
225,13,203161,1,0,0:0:0:0:
371,141,203327,1,0,0:0:0:0:
175,159,203494,6,0,P|251:155|292:198,1,140
240,324,203994,1,0,0:0:0:0:
192,216,204161,1,0,0:0:0:0:
88,304,204327,1,0,0:0:0:0:
188,112,204494,1,0,0:0:0:0:
96,112,204661,5,0,0:0:0:0:
176,336,204827,1,0,0:0:0:0:
284,160,204994,1,0,0:0:0:0:
88,248,205161,1,0,0:0:0:0:
292,284,205327,1,0,0:0:0:0:
208,84,205494,1,0,0:0:0:0:
113,305,205661,5,0,0:0:0:0:
205,165,205827,2,0,P|286:172|351:144,1,140
406,82,206327,2,0,P|335:68|265:93,1,140
228,353,206827,5,0,0:0:0:0:
292,188,206994,1,0,0:0:0:0:
156,288,207161,1,0,0:0:0:0:
320,308,207327,1,0,0:0:0:0:
184,188,207494,1,0,0:0:0:0:
244,336,207661,1,0,0:0:0:0:
296,59,207827,1,0,0:0:0:0:
296,59,207994,2,0,P|289:124|303:211,1,140
400,118,208494,5,0,0:0:0:0:
438,374,208661,1,0,0:0:0:0:
316,276,208827,2,0,P|234:240|168:237,1,140
50,324,209327,5,0,0:0:0:0:
152,160,209494,1,0,0:0:0:0:
152,280,209661,5,0,0:0:0:0:
40,140,209827,1,0,0:0:0:0:
8,304,209994,1,0,0:0:0:0:
8,304,210161,2,0,P|86:324|169:308,1,140
190,58,210661,1,0,0:0:0:0:
275,194,210827,2,0,B|317:257|317:257|319:324,1,140
193,321,211327,1,0,0:0:0:0:
131,209,211494,2,0,B|86:152|86:152|90:62,1,140
336,79,211994,5,0,0:0:0:0:
262,215,212161,1,0,0:0:0:0:
243,73,212327,1,0,0:0:0:0:
371,237,212494,1,0,0:0:0:0:
155,149,212661,1,0,0:0:0:0:
279,284,212827,1,0,0:0:0:0:
339,98,212993,5,0,0:0:0:0:
170,237,213161,1,0,0:0:0:0:
224,62,213327,1,0,0:0:0:0:
350,222,213494,1,0,0:0:0:0:
304,21,213661,1,0,0:0:0:0:
230,240,213827,2,0,P|234:315|286:293,1,140
132,328,214494,5,0,0:0:0:0:
100,120,214661,1,0,0:0:0:0:
32,272,214827,1,0,0:0:0:0:
220,220,214994,1,0,0:0:0:0:
36,80,215161,1,0,0:0:0:0:
80,276,215327,1,0,0:0:0:0:
248,132,215494,5,0,0:0:0:0:
168,312,215661,1,0,0:0:0:0:
148,88,215827,1,0,0:0:0:0:
272,272,215994,1,0,0:0:0:0:
220,36,216161,1,0,0:0:0:0:
144,244,216327,1,0,0:0:0:0:
308,48,216494,1,0,0:0:0:0:
359,260,216661,1,0,0:0:0:0:
364,44,216827,5,0,0:0:0:0:
276,248,216994,1,0,0:0:0:0:
164,44,217161,2,0,L|164:131,1,70
68,328,217494,1,0,0:0:0:0:
160,132,217661,1,0,0:0:0:0:
192,316,217827,1,0,0:0:0:0:
44,164,217994,1,0,0:0:0:0:
253,217,218161,2,0,B|344:219|344:219|396:191,2,140
185,125,218994,1,0,0:0:0:0:
88,56,219161,2,0,L|4:26,2,70
408,155,219661,5,0,0:0:0:0:
197,289,219827,1,0,0:0:0:0:
438,262,219994,1,0,0:0:0:0:
340,175,220161,2,0,P|248:180|198:210,1,140
72,316,220827,5,0,0:0:0:0:
134,171,220994,1,0,0:0:0:0:
192,318,221161,1,0,0:0:0:0:
201,107,221327,1,0,0:0:0:0:
139,248,221494,1,0,0:0:0:0:
126,39,221661,1,0,0:0:0:0:
227,243,221827,1,0,0:0:0:0:
141,149,221994,1,0,0:0:0:0:
192,340,222161,5,0,0:0:0:0:
279,170,222327,1,0,0:0:0:0:
364,323,222494,1,0,0:0:0:0:
340,113,222661,1,0,0:0:0:0:
279,283,222827,1,0,0:0:0:0:
219,95,222994,1,0,0:0:0:0:
371,44,223494,5,0,0:0:0:0:
117,278,223661,1,0,0:0:0:0:
220,40,223827,1,0,0:0:0:0:
378,363,223994,1,0,0:0:0:0:
296,74,224161,1,0,0:0:0:0:
226,346,224327,1,0,0:0:0:0:
171,157,224494,2,0,B|142:207|142:207|88:205|49:239,1,140
256,192,224994,12,0,226161,0:0:0:0:
