osu file format v14

[General]
AudioFilename: audio.mp3
AudioLeadIn: 0
PreviewTime: 63261
Countdown: 0
SampleSet: Soft
StackLeniency: 0.3
Mode: 2
LetterboxInBreaks: 0
WidescreenStoryboard: 1

[Editor]
Bookmarks: 4803,15470,26137,31470,42137,52803,63470,74137,84803
DistanceSpacing: 1.6
BeatDivisor: 4
GridSize: 16
TimelineZoom: 2.7

[Metadata]
Title:OVER (TV Size)
TitleUnicode:OVER (TV Size)
Artist:Little Glee Monster
ArtistUnicode:Little Glee Monster
Creator:Secre
Version:Cup
Source:BORUTO-ボルト- NARUTO NEXT GENERATIONS
Tags:boruto anime opening japanese chickenbible naruto Hikarukakera
BeatmapID:2522721
BeatmapSetID:1211978

[Difficulty]
HPDrainRate:2
CircleSize:2.5
OverallDifficulty:6
ApproachRate:6
SliderMultiplier:1.45
SliderTickRate:1

[Events]
//Background and Video events
0,0,"borutofamily.png"
//Break Periods
//Storyboard Layer 0 (Background)
//Storyboard Layer 1 (Fail)
//Storyboard Layer 2 (Pass)
//Storyboard Layer 3 (Foreground)
//Storyboard Layer 4 (Overlay)
//Storyboard Sound Samples

[TimingPoints]
1095,333.333333333333,4,2,1,60,1,0
31761,-117.647058823529,4,2,1,60,0,0
63761,-100,4,2,1,90,0,1
73094,-100,4,2,1,90,0,0
74428,-100,4,2,1,90,0,1
85094,-100,4,2,1,90,0,0
87761,-100,4,2,1,70,0,0
88094,-100,4,2,1,50,0,0
88428,-100,4,2,1,30,0,0
88761,-100,4,2,1,20,0,0
89094,-100,4,2,1,10,0,0

[Colours]
Combo1 : 69,69,69
Combo2 : 225,155,166
Combo3 : 191,191,191
Combo4 : 244,159,83

[HitObjects]
256,192,1095,12,0,4261,0:0:0:0:
281,155,4594,5,0,0:0:0:0:
208,155,4761,1,0,0:0:0:0:
136,155,4928,1,0,0:0:0:0:
208,155,5094,6,0,L|401:156,1,145,4|0,0:0|1:0,0:0:0:0:
213,252,5761,2,0,L|202:66,1,145,0|0,0:0|1:0,0:0:0:0:
279,90,6261,1,0,0:0:0:0:
132,113,6594,5,0,0:0:0:0:
279,90,6928,1,0,0:0:0:0:
427,161,7261,1,0,0:0:0:0:
427,161,7428,1,0,1:0:0:0:
283,170,7761,5,4,0:0:0:0:
210,171,7928,1,0,0:0:0:0:
138,172,8094,1,0,1:0:0:0:
280,170,8428,2,0,L|289:355,1,145,0|0,0:0|1:0,0:0:0:0:
206,314,8928,1,0,0:0:0:0:
350,225,9261,5,0,0:0:0:0:
206,314,9594,1,0,0:0:0:0:
136,288,9761,1,8,3:0:0:0:
136,288,9928,1,8,3:0:0:0:
206,314,10094,1,0,1:0:0:0:
361,218,10428,6,0,L|183:222,1,145,4|0,0:0|1:0,0:0:0:0:
360,98,11094,2,0,L|367:263,1,145,0|0,0:0|1:0,0:0:0:0:
212,262,11761,6,0,L|401:270,1,145,4|0,0:0|1:0,0:0:0:0:
216,277,12428,2,0,L|209:117,1,145,0|0,0:0|1:0,0:0:0:0:
368,82,13094,5,4,0:0:0:0:
376,160,13261,1,0,0:0:0:0:
307,170,13428,1,0,1:0:0:0:
150,176,13761,1,0,0:0:0:0:
78,181,13928,1,0,3:0:0:0:
150,176,14094,1,0,1:0:0:0:
331,93,14428,5,8,3:2:0:0:
333,163,14594,1,2,3:0:0:0:
264,173,14761,1,0,1:0:0:0:
264,173,14928,1,2,3:0:0:0:
333,163,15094,1,8,3:2:0:0:
404,159,15261,1,0,3:0:0:0:
333,163,15428,1,0,1:0:0:0:
181,239,15761,6,0,L|357:238,2,145,6|6|2,1:2|1:2|1:2,0:0:0:0:
44,174,16761,1,0,1:0:0:0:
44,174,16928,1,2,0:0:0:0:
180,152,17261,6,0,L|380:148,1,145,0|2,0:0|3:0,0:0:0:0:
186,203,17928,2,0,L|25:199,1,145,2|0,0:0|0:0,0:0:0:0:
108,138,18428,5,10,1:2:0:0:
181,136,18594,1,10,1:2:0:0:
250,136,18761,1,0,1:0:0:0:
392,205,19094,2,0,L|399:30,1,145,2|0,1:2|1:0,0:0:0:0:
327,62,19594,1,2,0:0:0:0:
176,202,19928,6,0,L|357:204,1,145,2|0,0:0|0:0,0:0:0:0:
392,174,20428,1,0,0:0:0:0:
497,145,20761,1,0,1:0:0:0:
410,128,20928,1,2,3:0:0:0:
320,156,21094,6,0,L|136:155,1,145,2|0,1:2|1:0,0:0:0:0:
305,100,21761,1,2,1:2:0:0:
373,97,21928,1,0,0:0:0:0:
305,100,22094,1,0,1:0:0:0:
161,217,22428,6,0,L|347:220,1,145,2|0,1:2|1:0,0:0:0:0:
241,153,22928,1,0,0:0:0:0:
173,152,23094,1,2,1:2:0:0:
308,97,23428,1,0,1:0:0:0:
308,97,23594,1,2,0:0:0:0:
234,119,23761,6,0,L|38:125,1,145,2|0,1:2|1:0,0:0:0:0:
241,117,24428,1,2,1:2:0:0:
376,105,24761,1,0,1:0:0:0:
376,105,24928,1,2,0:0:0:0:
299,199,25094,6,0,L|468:193,1,145,2|0,1:2|1:0,0:0:0:0:
380,130,25594,1,2,3:2:0:0:
231,137,25928,1,2,3:2:0:0:
166,139,26094,1,0,1:0:0:0:
231,137,26261,1,2,3:2:0:0:
311,102,26428,6,0,L|318:286,1,145,2|0,1:2|1:0,0:0:0:0:
240,243,26928,1,0,0:0:0:0:
110,222,27261,1,0,0:0:0:0:
110,222,27428,1,0,1:0:0:0:
177,168,27594,6,0,L|361:167,1,145,2|2,1:2|1:2,0:0:0:0:
252,108,28094,1,2,1:2:0:0:
109,192,28428,2,0,L|305:195,1,145,2|2,1:2|1:2,0:0:0:0:
102,121,29094,5,10,0:0:0:0:
252,140,29428,2,0,B|404:140|404:140|250:141,1,290,0|0,1:0|1:0,0:0:0:0:
172,218,30261,6,0,L|162:45,1,145,2|2,0:0|0:0,0:0:0:0:
246,58,30761,1,0,1:0:0:0:
411,172,31094,2,0,L|414:15,1,145,2|2,1:2|1:2,0:0:0:0:
258,65,31761,5,12,0:0:0:0:
189,68,31928,1,0,0:0:0:0:
258,65,32094,1,8,1:2:0:0:
383,86,32428,2,0,L|396:256,1,123.250002350807,0|0,0:0|1:0,0:0:0:0:
249,265,33094,6,0,L|410:260,1,123.250002350807,2|8,2:0|1:2,0:0:0:0:
236,265,33761,2,0,L|81:265,1,123.250002350807,0|0,0:0|1:0,0:0:0:0:
239,163,34428,5,2,2:0:0:0:
312,154,34594,1,0,0:0:0:0:
239,163,34761,1,8,1:2:0:0:
173,197,34928,2,0,L|168:48,1,123.250002350807,8|0,0:0|0:0,0:0:0:0:
239,163,35428,1,0,1:0:0:0:
366,226,35761,6,0,L|197:231,1,123.250002350807,2|8,2:0|1:2,0:0:0:0:
174,186,36261,1,8,0:0:0:0:
302,167,36594,1,0,0:0:0:0:
234,147,36761,1,0,1:0:0:0:
171,150,36928,1,0,0:0:0:0:
234,147,37094,6,0,L|372:148,1,123.250002350807,2|8,2:0|1:2,0:0:0:0:
197,253,37761,1,0,0:0:0:0:
337,252,38094,1,0,1:0:0:0:
168,273,38428,6,0,L|160:113,1,123.250002350807,2|8,2:0|1:2,0:0:0:0:
322,147,39094,2,0,L|143:148,1,123.250002350807,0|0,0:0|1:0,0:0:0:0:
334,116,39761,5,2,2:0:0:0:
400,111,39928,1,0,0:0:0:0:
334,116,40094,1,8,1:2:0:0:
274,139,40261,2,0,L|106:138,1,123.250002350807,8|0,0:0|0:0,0:0:0:0:
301,144,40928,6,0,L|464:144,1,123.250002350807
365,86,41428,1,8,1:2:0:0:
294,88,41594,1,8,0:0:0:0:
146,148,41928,1,2,0:0:0:0:
87,150,42094,1,0,1:0:0:0:
146,148,42261,1,2,0:0:0:0:
239,151,42428,5,6,2:0:0:0:
304,147,42594,1,0,0:0:0:0:
368,142,42761,1,0,1:0:0:0:
368,142,42928,1,2,0:0:0:0:
213,111,43261,1,2,0:0:0:0:
145,110,43428,1,0,1:0:0:0:
213,111,43594,1,0,0:0:0:0:
369,94,43928,5,2,0:0:0:0:
431,89,44094,1,2,0:0:0:0:
492,88,44261,1,2,0:0:0:0:
348,160,44594,1,2,0:0:0:0:
348,160,44761,1,0,1:0:0:0:
348,160,44928,1,0,0:0:0:0:
279,127,45094,5,2,0:0:0:0:
140,173,45428,1,0,1:0:0:0:
140,173,45594,1,2,0:0:0:0:
197,152,45761,2,0,L|331:210,1,123.250002350807,2|0,0:0|1:0,0:0:0:0:
152,233,46428,6,0,L|294:232,1,123.250002350807,2|0,0:0|1:0,0:0:0:0:
122,256,47094,2,0,L|110:86,1,123.250002350807,0|0,1:0|1:0,0:0:0:0:
277,116,47761,6,0,L|456:118,1,123.250002350807,2|0,0:0|1:0,0:0:0:0:
262,203,48428,1,2,0:0:0:0:
202,203,48594,1,2,0:0:0:0:
262,203,48761,1,0,1:0:0:0:
401,118,49094,6,0,L|416:289,1,123.250002350807,2|0,0:0|1:0,0:0:0:0:
350,250,49594,1,2,0:0:0:0:
228,193,49928,1,2,0:0:0:0:
289,191,50094,1,0,1:0:0:0:
351,190,50261,1,0,0:0:0:0:
283,186,50428,6,0,L|122:185,1,123.250002350807,2|0,0:0|1:0,0:0:0:0:
267,112,51094,2,0,L|280:278,1,123.250002350807,2|0,0:0|1:0,0:0:0:0:
130,292,51761,6,0,L|307:293,1,123.250002350807,2|0,0:0|1:0,0:0:0:0:
389,177,52428,1,2,0:0:0:0:
389,177,52594,1,0,0:0:0:0:
321,180,52761,1,0,1:0:0:0:
190,257,53094,6,0,L|185:109,1,123.250002350807,14|0,0:0|1:0,0:0:0:0:
262,111,53594,2,0,L|420:110,2,123.250002350807,2|2|0,0:0|0:0|0:0,0:0:0:0:
198,158,54428,5,0,0:0:0:0:
83,161,54761,1,0,1:0:0:0:
217,198,55094,2,0,L|359:199,1,123.250002350807,2|0,0:0|1:0,0:0:0:0:
190,119,55761,5,10,3:0:0:0:
310,132,56094,2,0,L|456:123,1,123.250002350807,0|2,1:0|0:0,0:0:0:0:
292,79,56761,6,0,L|145:81,1,123.250002350807,10|0,3:0|0:0,0:0:0:0:
281,173,57428,2,0,L|416:173,2,123.250002350807,0|0|0,1:0|3:0|1:0,0:0:0:0:
126,153,58428,5,6,0:0:0:0:
255,144,58761,2,0,L|346:143,2,61.6250011754036,0|2|0,1:0|0:0|0:0,0:0:0:0:
192,137,59261,1,2,0:0:0:0:
307,111,59594,1,0,0:0:0:0:
371,108,59761,5,0,3:0:0:0:
371,108,59928,1,0,0:0:0:0:
307,111,60094,1,0,1:0:0:0:
181,222,60428,2,0,L|332:221,1,123.250002350807,2|0,0:0|1:0,0:0:0:0:
137,273,61094,6,0,L|127:127,1,123.250002350807,2|0,0:0|1:0,0:0:0:0:
267,127,61761,1,0,1:0:0:0:
108,215,62094,6,0,L|274:216,1,123.250002350807,0|0,1:0|3:0,0:0:0:0:
171,153,62594,1,0,3:0:0:0:
92,157,62761,1,0,1:0:0:0:
171,153,62928,1,0,3:0:0:0:
301,125,63261,1,0,0:0:0:0:
368,114,63428,1,0,1:0:0:0:
301,125,63594,1,0,0:0:0:0:
227,182,63761,6,0,L|57:190,1,145,6|8,0:0|1:2,0:0:0:0:
224,184,64428,2,0,L|231:348,1,145,2|8,3:2|1:2,0:0:0:0:
157,344,64928,1,2,1:2:0:0:
307,238,65261,5,0,0:0:0:0:
446,207,65594,1,2,1:2:0:0:
307,238,65928,1,0,0:0:0:0:
240,238,66094,1,8,1:2:0:0:
307,238,66261,1,0,0:0:0:0:
379,233,66428,6,0,L|377:85,1,145,6|8,0:0|1:2,0:0:0:0:
237,132,67094,2,0,L|76:136,1,145,2|8,3:2|1:2,0:0:0:0:
161,70,67594,1,2,1:2:0:0:
302,73,67928,5,2,1:2:0:0:
161,70,68261,1,0,0:0:0:0:
93,99,68428,1,2,3:2:0:0:
93,99,68594,1,2,1:2:0:0:
161,70,68761,1,8,1:2:0:0:
302,152,69094,6,0,L|456:151,1,145,6|8,0:0|1:2,0:0:0:0:
371,88,69594,2,0,L|218:92,1,145,2|0,1:2|0:0,0:0:0:0:
151,98,70094,1,8,1:2:0:0:
295,104,70428,6,0,L|307:268,1,145,6|8,0:0|1:2,0:0:0:0:
230,257,70928,2,0,L|67:258,1,145,2|0,1:2|0:0,0:0:0:0:
157,188,71428,1,8,1:2:0:0:
293,193,71761,6,0,L|121:196,1,145,6|8,0:0|1:2,0:0:0:0:
297,131,72428,2,0,L|462:136,1,145,2|8,3:2|1:2,0:0:0:0:
286,185,73094,6,0,L|466:184,1,145,6|8,0:0|1:2,0:0:0:0:
358,120,73594,1,0,0:0:0:0:
285,185,73761,1,0,1:0:0:0:
285,185,73928,1,2,1:2:0:0:
358,120,74094,1,8,1:2:0:0:
221,153,74428,6,0,L|51:156,1,145,6|8,0:0|1:2,0:0:0:0:
226,98,75094,2,0,L|236:273,1,145,2|8,3:2|1:2,0:0:0:0:
159,260,75594,1,2,1:2:0:0:
308,193,75928,5,0,0:0:0:0:
308,193,76094,1,8,1:2:0:0:
235,194,76261,1,2,1:2:0:0:
359,142,76594,1,0,0:0:0:0:
422,138,76761,1,8,1:2:0:0:
359,142,76928,1,2,1:2:0:0:
297,143,77094,5,6,0:0:0:0:
235,143,77261,1,2,1:2:0:0:
171,147,77428,1,8,1:2:0:0:
318,163,77761,2,0,L|478:166,1,145,2|8,3:2|1:2,0:0:0:0:
386,93,78261,1,2,1:2:0:0:
231,114,78594,5,2,1:2:0:0:
386,93,78928,1,0,0:0:0:0:
454,91,79094,1,2,3:2:0:0:
454,91,79261,1,0,0:0:0:0:
386,93,79428,1,8,1:2:0:0:
248,134,79761,6,0,L|84:133,1,145,6|8,0:0|1:2,0:0:0:0:
252,131,80428,1,2,3:2:0:0:
319,124,80594,1,0,0:0:0:0:
252,131,80761,1,8,1:2:0:0:
177,201,80928,6,0,L|167:39,1,145,2|0,1:2|0:0,0:0:0:0:
243,59,81428,2,0,L|458:63,1,145,8|2,1:2|3:2,0:0:0:0:
246,169,82094,1,8,1:2:0:0:
233,93,82261,1,2,1:2:0:0:
298,94,82428,6,0,L|472:94,2,145,6|8|0,0:0|1:2|1:0,0:0:0:0:
158,168,83428,1,8,1:2:0:0:
229,143,83594,1,2,1:2:0:0:
304,108,83761,6,0,L|319:305,1,145,6|8,0:0|1:2,0:0:0:0:
242,266,84261,2,0,L|89:271,1,145
265,168,84928,1,2,1:2:0:0:
338,145,85094,5,6,0:0:0:0:
409,142,85261,1,0,0:0:0:0:
338,145,85428,1,8,1:2:0:0:
211,137,85761,1,0,0:0:0:0:
147,138,85928,1,2,0:2:0:0:
211,137,86094,1,8,1:2:0:0:
277,121,86261,6,0,L|288:302,1,145,2|2,1:2|1:2,0:0:0:0:
209,270,86761,1,8,1:2:0:0:
78,241,87094,1,2,1:2:0:0:
225,217,87428,1,8,1:2:0:0:
151,177,87594,5,2,1:2:0:0:
256,192,87928,12,0,89094,0:0:0:0:
