osu file format v14

[General]
AudioFilename: audio.mp3
AudioLeadIn: 0
PreviewTime: 58346
Countdown: 0
SampleSet: Soft
StackLeniency: 0.5
Mode: 0
LetterboxInBreaks: 0
WidescreenStoryboard: 0

[Editor]
Bookmarks: 16679,38013,54013
DistanceSpacing: 2
BeatDivisor: 4
GridSize: 32
TimelineZoom: 1.9

[Metadata]
Title:Dakara, Hitori ja Nai -TV Size-
TitleUnicode:だから、ひとりじゃない -TV Size-
Artist:Little Glee Monster
ArtistUnicode:Little Glee Monster
Creator:-Sh1n1-
Version:Sotarks' Plus Ultra
Source:僕のヒーローアカデミア 第2期
Tags:Boku no Hero Academia second Season ending shini arcwinolivirus akitoshi nardoxyribonucleic pentori sotarks iyiyo lasse mir critical_star
BeatmapID:1349998
BeatmapSetID:631624

[Difficulty]
HPDrainRate:6.2
CircleSize:4
OverallDifficulty:9
ApproachRate:9.3
SliderMultiplier:1.82
SliderTickRate:2

[Events]
//Background and Video events
Video,0,"video.mp4"
0,0,"BGSotarks.jpg",0,0
//Break Periods
//Storyboard Layer 0 (Background)
//Storyboard Layer 1 (Fail)
//Storyboard Layer 2 (Pass)
//Storyboard Layer 3 (Foreground)
//Storyboard Sound Samples

[TimingPoints]
680,333.333333333333,4,2,22,42,1,0
680,-121.951219512195,4,2,22,42,0,0
5513,-121.951219512195,4,2,22,52,0,0
6013,-89.2857142857143,4,2,22,72,0,0
6263,-89.2857142857143,4,2,22,5,0,0
6346,-89.2857142857143,4,2,22,72,0,0
11596,-89.2857142857143,4,2,22,5,0,0
11679,-89.2857142857143,4,2,22,72,0,0
13679,-81.9672131147541,4,2,22,72,0,0
16679,-98.0392156862745,4,2,22,62,0,0
16929,-98.0392156862745,4,2,22,5,0,0
17013,-98.0392156862745,4,2,22,62,0,0
17596,-98.0392156862745,4,2,22,5,0,0
17679,-98.0392156862745,4,2,22,62,0,0
18263,-98.0392156862745,4,2,22,5,0,0
18346,-98.0392156862745,4,2,22,62,0,0
38013,-161.290322580645,4,2,22,52,0,0
48179,-121.951219512195,4,2,22,52,0,0
48679,-161.290322580645,4,2,22,52,0,0
54013,-98.0392156862745,4,2,22,62,0,0
56679,-192.307692307692,4,2,22,62,0,0
57013,-138.888888888889,4,2,22,62,0,0
57346,-108.695652173913,4,2,22,62,0,0
57679,-89.2857142857143,4,2,22,62,0,0
59346,-81.9672131147541,4,2,22,72,0,1
83346,-98.0392156862745,4,2,22,62,0,0
84679,-81.9672131147541,4,2,22,72,0,0
86013,-70.4225352112676,4,2,22,82,0,1
87346,-81.9672131147541,4,2,22,72,0,0
87679,-50,4,2,22,72,0,0

[Colours]
Combo1 : 224,170,137
Combo2 : 83,96,100
Combo3 : 245,213,192
Combo4 : 247,126,250
SliderBorder : 255,255,255
SliderTrackOverride : 0,0,0

[HitObjects]
130,121,680,6,0,P|200:114|232:116,1,74.6200011386109,2|0,0:0|0:0,0:0:0:0:
161,40,1013,1,2,0:0:0:0:
258,47,1179,2,0,P|289:109|257:186,2,149.240002277222,2|2|2,0:0|0:0|0:0,0:0:0:0:
312,249,2013,2,0,P|283:263|220:249,1,74.6200011386109,2|0,0:0|0:0,0:0:0:0:
263,180,2346,1,2,0:0:0:0:
265,340,2513,2,0,P|190:325|159:255,2,149.240002277222,2|2|2,0:0|0:0|0:0,0:0:0:0:
251,102,3346,2,0,P|210:146|197:184,1,74.6200011386109,2|0,0:0|0:0,0:0:0:0:
239,21,3679,1,2,0:0:0:0:
259,218,3846,2,0,P|206:241|124:165,1,149.240002277222,2|0,0:0|0:0,0:0:0:0:
325,75,4346,5,8,3:0:0:0:
203,160,4513,1,8,3:0:0:0:
392,22,4679,5,8,1:0:0:0:
395,247,4846,1,8,3:0:0:0:
395,255,5179,5,4,3:0:0:0:
395,266,5513,5,0,3:0:0:0:
351,251,5596,1,0,3:0:0:0:
306,254,5679,1,0,3:0:0:0:
266,275,5762,1,0,3:0:0:0:
228,299,5846,1,0,3:0:0:0:
183,302,5929,1,0,3:0:0:0:
141,285,6013,6,0,B|109:201|185:226|138:106,1,152.880001866211,0|0,1:0|0:0,0:0:0:0:
137,106,6346,1,10,0:0:0:0:
61,287,6513,2,0,P|79:345|116:365,1,101.920001244141,2|0,1:0|3:0,0:0:0:0:
71,167,6846,1,2,1:0:0:0:
223,330,7013,1,8,0:0:0:0:
222,98,7179,5,0,1:0:0:0:
141,285,7346,1,0,3:0:0:0:
137,106,7513,1,0,1:0:0:0:
307,261,7679,1,10,0:0:0:0:
301,91,7846,1,2,1:0:0:0:
178,192,8013,1,0,3:0:0:0:
390,246,8179,1,2,1:0:0:0:
226,272,8346,1,8,0:0:0:0:
369,327,8513,1,2,3:0:0:0:
222,98,8679,6,0,P|151:101|102:120,1,101.920001244141,0|0,1:0|1:0,0:0:0:0:
308,49,9013,1,10,0:0:0:0:
76,53,9179,2,0,P|44:103|58:155,1,101.920001244141,2|0,1:0|3:0,0:0:0:0:
180,20,9513,1,0,1:0:0:0:
105,252,9679,1,8,0:0:0:0:
76,53,9846,1,2,3:0:0:0:
23,238,10013,5,2,3:0:0:0:
276,176,10179,1,0,1:0:0:0:
100,165,10346,5,10,0:0:0:0:
358,193,10512,1,0,1:0:0:0:
229,60,10679,5,2,3:0:0:0:
438,213,10845,1,0,1:0:0:0:
388,42,11013,5,10,0:0:0:0:
492,279,11179,1,2,3:0:0:0:
285,31,11346,6,0,B|210:25|168:48|168:48|152:127,1,152.880001866211,0|0,1:0|0:0,0:0:0:0:
156,117,11679,1,10,0:0:0:0:
255,309,11846,2,0,P|253:249|224:209,1,101.920001244141,2|0,1:0|3:0,0:0:0:0:
327,347,12179,1,2,1:0:0:0:
238,116,12346,1,8,0:0:0:0:
180,281,12513,1,2,3:0:0:0:
315,88,12679,5,0,1:0:0:0:
366,267,12846,1,0,1:0:0:0:
239,34,13013,1,10,0:0:0:0:
208,199,13179,1,2,1:0:0:0:
376,16,13346,1,0,3:0:0:0:
413,182,13513,1,2,1:0:0:0:
216,26,13679,2,0,B|128:26|128:26|92:80,1,111.019995426117,8|2,0:0|3:0,0:0:0:0:
102,68,13929,1,0,1:0:0:0:
89,90,14013,5,2,1:0:0:0:
461,113,14346,1,0,1:0:0:0:
77,200,14679,1,0,1:0:0:0:
465,289,15013,1,0,1:0:0:0:
64,319,15346,5,2,1:0:0:0:
465,289,15513,1,0,1:0:0:0:
77,200,15679,1,0,1:0:0:0:
460,144,15846,1,2,1:0:0:0:
92,83,16013,1,0,1:0:0:0:
458,5,16179,1,0,1:0:0:0:
266,242,16346,5,0,1:0:0:0:
263,204,16429,1,0,1:0:0:0:
278,167,16512,1,2,1:0:0:0:
282,130,16595,1,0,1:0:0:0:
272,91,16679,6,0,P|200:78|115:99,1,139.230000849792,6|0,1:0|0:0,0:0:0:0:
103,109,17013,1,8,0:0:0:0:
162,317,17179,1,2,1:0:0:0:
162,317,17346,2,0,L|169:167,1,139.230000849792,2|0,0:0|0:0,0:0:0:0:
196,155,17679,1,8,0:0:0:0:
81,244,17846,1,2,0:0:0:0:
256,218,18013,6,0,P|308:213|394:257,1,139.230000849792,2|0,1:0|0:0,0:0:0:0:
404,280,18346,1,8,0:0:0:0:
371,108,18513,1,2,1:0:0:0:
308,295,18679,1,2,0:0:0:0:
445,200,18846,1,0,1:0:0:0:
274,141,19013,1,8,0:0:0:0:
371,108,19179,1,2,0:0:0:0:
291,217,19346,6,0,L|139:206,1,139.230000849792,2|0,1:0|0:0,0:0:0:0:
114,188,19679,1,8,0:0:0:0:
347,156,19846,1,2,1:0:0:0:
347,156,20013,2,0,P|373:202|330:288,1,139.230000849792,2|0,0:0|0:0,0:0:0:0:
312,301,20346,1,8,0:0:0:0:
448,243,20513,1,2,0:0:0:0:
227,304,20679,6,0,B|140:332|176:264|58:306,1,139.230000849792,2|0,1:0|0:0,0:0:0:0:
60,311,21013,1,8,0:0:0:0:
198,226,21179,2,0,P|205:154|181:114,1,92.8200005665283,2|2,1:0|0:0,0:0:0:0:
312,301,21513,1,0,1:0:0:0:
128,182,21679,1,8,0:0:0:0:
266,91,21846,1,2,3:0:0:0:
227,304,22013,6,0,B|114:298|114:298|73:256,1,139.230000849792,2|0,1:0|0:0,0:0:0:0:
70,252,22346,1,8,0:0:0:0:
161,68,22513,2,0,P|149:138|127:181,1,92.8200005665283,2|2,1:0|0:0,0:0:0:0:
266,91,22846,1,0,1:0:0:0:
227,304,23013,1,8,0:0:0:0:
215,170,23179,1,2,3:0:0:0:
305,338,23346,6,0,P|362:333|412:267,1,139.230000849792,2|0,1:0|0:0,0:0:0:0:
413,239,23679,1,10,0:0:0:0:
227,304,23846,1,0,1:0:0:0:
320,121,24013,1,2,0:0:0:0:
329,259,24179,1,0,1:0:0:0:
269,54,24346,1,10,0:0:0:0:
241,215,24513,1,2,3:0:0:0:
375,47,24679,6,0,P|400:104|399:153,1,92.8200005665283,2|0,1:0|1:0,0:0:0:0:
206,119,25013,1,8,0:0:0:0:
470,64,25179,1,0,1:0:0:0:
336,187,25346,1,2,0:0:0:0:
375,47,25513,1,0,1:0:0:0:
367,267,25679,1,10,0:0:0:0:
305,111,25846,1,2,3:0:0:0:
280,294,26013,5,2,1:0:0:0:
447,244,26179,1,0,1:0:0:0:
220,140,26346,1,8,0:0:0:0:
163,362,26513,1,10,0:0:0:0:
140,211,26679,1,2,0:0:0:0:
321,197,26846,1,2,3:0:0:0:
124,67,27013,1,8,0:0:0:0:
77,302,27179,1,2,3:0:0:0:
220,117,27346,6,0,L|384:102,1,139.230000849792,2|0,1:0|0:0,0:0:0:0:
394,100,27679,1,8,0:0:0:0:
208,199,27846,2,0,P|153:172|142:134,1,92.8200005665283,2|2,1:0|0:0,0:0:0:0:
248,277,28179,1,0,1:0:0:0:
394,100,28346,1,8,0:0:0:0:
222,117,28513,1,2,3:2:0:0:
331,330,28679,6,0,L|332:178,1,139.230000849792,2|0,1:0|0:0,0:0:0:0:
321,157,29013,1,8,0:0:0:0:
248,277,29179,1,2,1:0:0:0:
411,222,29346,1,2,0:0:0:0:
259,101,29513,1,0,1:0:0:0:
331,330,29679,1,8,0:0:0:0:
397,129,29846,1,2,3:0:0:0:
248,277,30013,6,0,P|170:298|111:243,1,139.230000849792,2|0,1:0|0:0,0:0:0:0:
102,238,30346,1,8,0:0:0:0:
210,56,30513,2,0,P|208:100|167:157,1,92.8200005665283,2|2,1:0|0:0,0:0:0:0:
297,46,30846,1,0,1:0:0:0:
189,220,31013,1,8,0:0:0:0:
129,75,31179,1,2,3:2:0:0:
248,277,31346,6,0,P|326:298|385:243,1,139.230000849792,2|0,1:0|0:0,0:0:0:0:
390,236,31679,1,8,0:0:0:0:
297,46,31846,2,0,P|299:90|340:147,1,92.8200005665283,2|2,1:0|0:0,0:0:0:0:
210,56,32179,1,0,1:0:0:0:
308,223,32346,1,8,0:0:0:0:
378,65,32513,1,2,3:0:0:0:
174,183,32679,6,0,L|19:160,1,139.230000849792,2|0,1:0|0:0,0:0:0:0:
13,130,33013,1,8,0:0:0:0:
138,285,33179,1,2,1:0:0:0:
102,89,33346,1,0,0:0:0:0:
174,183,33513,1,0,1:0:0:0:
240,24,33679,1,8,0:0:0:0:
266,184,33846,1,2,3:2:0:0:
388,54,34013,6,0,P|411:127|425:227,1,139.230000849792,2|0,1:0|0:0,0:0:0:0:
417,231,34346,2,0,P|394:296|385:336,1,92.8200005665283,10|0,0:0|1:0,0:0:0:0:
337,159,34679,2,0,P|325:114|309:71,1,92.8200005665283,2|0,0:0|1:0,0:0:0:0:
283,329,35013,1,10,0:0:0:0:
241,129,35179,1,2,3:0:0:0:
179,315,35346,6,0,P|240:261|280:241,1,92.8200005665283,4|4,3:0|3:0,0:0:0:0:
171,67,35679,2,0,P|158:141|163:185,1,92.8200005665283,8|8,3:0|3:0,0:0:0:0:
264,338,36013,1,2,1:0:0:0:
240,115,36179,1,0,1:0:0:0:
167,329,36346,1,10,0:0:0:0:
329,244,36513,1,8,3:0:0:0:
158,158,36679,5,4,3:0:0:0:
364,154,36846,1,2,3:0:0:0:
239,318,37013,1,8,0:0:0:0:
240,115,37179,1,2,3:0:0:0:
413,227,37346,1,0,1:0:0:0:
172,268,37513,1,2,3:0:0:0:
314,87,37679,1,8,0:0:0:0:
323,329,37846,1,2,3:0:0:0:
396,30,38013,6,0,B|420:83|375:86|404:155,1,112.839995523316,4|0,1:0|0:0,0:0:0:0:
320,60,38513,1,4,3:0:0:0:
262,220,38679,2,0,P|213:211|192:206,1,56.4199977616578,8|2,0:0|0:0,0:0:0:0:
183,69,39013,2,0,P|232:78|253:83,1,56.4199977616578,2|2,0:0|1:0,0:0:0:0:
152,275,39346,2,0,P|122:209|146:160,2,112.839995523316,2|2|10,0:0|0:0|0:0,0:0:0:0:
205,205,40179,1,0,0:0:0:0:
348,223,40346,1,2,0:0:0:0:
364,209,40429,1,0,1:0:0:0:
388,191,40513,1,0,1:0:0:0:
412,174,40596,1,0,1:0:0:0:
435,155,40679,6,0,P|379:164|323:118,1,112.839995523316,2|0,1:0|0:0,0:0:0:0:
289,55,41179,1,4,3:0:0:0:
197,161,41346,2,0,L|73:142,1,112.839995523316,8|2,0:0|0:0,0:0:0:0:
160,276,41846,2,0,L|236:263,1,56.4199977616578,2|0,1:0|0:0,0:0:0:0:
293,343,42179,2,0,L|348:352,1,56.4199977616578,0|0,1:0|0:0,0:0:0:0:
429,284,42513,1,0,1:0:0:0:
331,157,42679,2,0,P|328:238|335:295,1,112.839995523316,10|2,0:0|0:0,0:0:0:0:
330,269,43179,1,6,3:0:0:0:
261,97,43346,6,0,P|212:101|132:74,1,112.839995523316,2|2,1:0|0:0,0:0:0:0:
71,36,43846,1,4,3:0:0:0:
134,169,44013,2,0,P|133:219|130:249,1,56.4199977616578,8|2,0:0|0:0,0:0:0:0:
38,333,44346,2,0,P|36:304|36:276,1,56.4199977616578,2|2,0:0|1:0,0:0:0:0:
210,247,44679,2,0,P|181:293|126:308,2,112.839995523316,2|2|10,0:0|0:0|0:0,0:0:0:0:
132,225,45513,1,0,0:0:0:0:
127,308,45679,1,2,0:0:0:0:
192,355,45846,1,2,3:0:0:0:
310,275,46013,6,0,B|255:281|255:281|205:243,1,112.839995523316,2|0,1:0|0:0,0:0:0:0:
278,188,46513,1,4,3:0:0:0:
340,351,46679,2,0,L|416:335,1,56.4199977616578,8|0,0:0|0:0,0:0:0:0:
437,255,47013,1,2,3:0:0:0:
354,155,47179,2,0,P|351:221|352:289,1,112.839995523316,2|2,1:0|1:0,0:0:0:0:
439,176,47679,1,0,3:0:0:0:
273,132,47846,1,0,1:0:0:0:
350,266,48013,1,10,0:0:0:0:
342,81,48179,2,0,P|353:143|352:173,1,74.6200011386109,2|2,3:0|0:0,0:0:0:0:
410,30,48513,1,2,3:0:0:0:
273,132,48679,6,0,L|149:117,1,112.839995523316,6|0,1:0|0:0,0:0:0:0:
86,62,49179,1,4,3:0:0:0:
58,204,49346,2,0,P|55:244|66:280,1,56.4199977616578,8|2,0:0|0:0,0:0:0:0:
160,174,49679,2,0,P|163:146|160:118,1,56.4199977616578,2|2,0:0|1:0,0:0:0:0:
151,257,50013,1,2,0:0:0:0:
242,168,50179,1,0,1:0:0:0:
86,82,50346,1,2,0:0:0:0:
160,174,50513,1,0,1:0:0:0:
291,60,50679,2,0,L|358:52,1,56.4199977616578,10|0,0:0|0:0,0:0:0:0:
188,62,51013,2,0,L|120:61,1,56.4199977616578,2|0,0:0|0:0,0:0:0:0:
247,142,51346,6,0,L|367:129,1,112.839995523316,2|0,1:0|0:0,0:0:0:0:
433,58,51846,1,4,3:0:0:0:
386,206,52013,2,0,P|385:246|388:266,1,56.4199977616578,8|0,0:0|0:0,0:0:0:0:
455,139,52346,1,2,0:0:0:0:
456,309,52513,2,0,P|462:273|462:244,1,56.4199977616578,2|0,1:0|0:0,0:0:0:0:
322,335,52846,2,0,P|316:307|315:279,1,56.4199977616578,0|0,1:0|0:0,0:0:0:0:
399,371,53179,1,0,1:0:0:0:
299,174,53346,1,8,0:0:0:0:
299,174,53679,5,2,1:0:0:0:
247,182,53763,1,0,1:0:0:0:
206,150,53846,1,8,3:0:0:0:
198,107,53929,1,4,3:0:0:0:
222,70,54013,6,0,B|246:136|192:138|217:206,1,139.230000849792,6|0,1:0|0:0,0:0:0:0:
228,238,54346,1,10,0:0:0:0:
152,93,54513,2,0,P|76:77|39:74,1,92.8200005665283,2|0,1:0|3:0,0:0:0:0:
299,174,54846,2,0,P|375:158|412:155,1,92.8200005665283,2|8,0:0|0:0,0:0:0:0:
142,226,55179,1,2,3:0:0:0:
305,88,55346,1,0,1:0:0:0:
240,268,55513,1,0,1:0:0:0:
226,41,55679,2,0,P|216:107|220:143,1,92.8200005665283,10|0,0:0|0:0,0:0:0:0:
324,302,56013,2,0,P|325:255|316:210,1,92.8200005665283,2|2,1:0|3:0,0:0:0:0:
140,80,56346,1,10,0:0:0:0:
240,268,56513,1,2,3:0:0:0:
396,41,56679,6,0,L|388:94,1,47.3199997111816,2|0,1:0|0:0,0:0:0:0:
442,201,57013,2,0,L|452:277,1,65.5200015996094,0|0,1:0|0:0,0:0:0:0:
322,143,57346,2,0,L|232:125,1,83.7199971895753,0|0,1:0|0:0,0:0:0:0:
136,219,57679,2,0,L|22:243,1,101.920001244141,0|0,1:0|0:0,0:0:0:0:
159,78,58013,5,2,1:0:0:0:
214,267,58179,1,8,3:0:0:0:
214,281,58513,5,4,3:0:0:0:
214,298,58846,5,8,3:0:0:0:
286,44,59013,1,4,3:0:0:0:
368,333,59179,1,4,3:0:0:0:
192,69,59346,6,0,B|121:54|64:73|64:73|84:128,1,166.529993139176,6|0,1:0|0:0,0:0:0:0:
102,182,59679,1,10,0:0:0:0:
286,44,59846,1,0,1:0:0:0:
133,261,60013,1,0,3:0:0:0:
192,69,60179,1,0,1:0:0:0:
167,341,60346,1,8,0:0:0:0:
284,150,60513,6,0,P|297:81|281:36,1,111.019995426117,2|0,1:0|0:0,0:0:0:0:
334,302,60846,1,0,1:0:0:0:
376,61,61013,2,0,P|444:39|485:54,1,111.019995426117,10|0,0:0|1:0,0:0:0:0:
421,313,61346,1,0,3:0:0:0:
432,119,61513,1,0,1:0:0:0:
509,322,61679,1,8,0:0:0:0:
479,50,61846,1,2,3:2:0:0:
363,219,62013,6,0,B|252:220|252:220|219:204|218:164,1,166.529993139176,4|0,1:0|0:0,0:0:0:0:
289,142,62346,1,10,0:0:0:0:
369,311,62513,1,2,1:0:0:0:
153,217,62679,2,0,P|148:151|190:112,1,111.019995426117,2|0,3:2|1:0,0:0:0:0:
363,219,63013,1,10,0:0:0:0:
152,298,63179,6,0,P|83:267|74:222,1,111.019995426117,2|0,1:0|0:0,0:0:0:0:
240,71,63513,1,2,1:0:0:0:
282,318,63679,1,8,0:0:0:0:
119,169,63846,1,2,1:0:0:0:
340,72,64013,1,2,3:2:0:0:
202,307,64179,1,2,1:0:0:0:
143,45,64346,2,0,B|252:18|252:18|238:76,1,166.529993139176,10|0,0:0|0:0,0:0:0:0:
182,121,64679,6,0,B|262:81|266:154|373:109,1,166.529993139176,6|0,1:0|0:0,0:0:0:0:
410,81,65013,1,12,0:0:0:0:
228,190,65179,2,0,P|220:261|235:310,1,111.019995426117,0|0,1:0|0:0,0:0:0:0:
309,38,65513,1,0,1:0:0:0:
303,239,65679,1,8,0:0:0:0:
421,73,65846,1,2,3:2:0:0:
391,303,66013,6,0,B|286:320|286:320|208:290,1,166.529993139176,2|0,1:0|0:0,0:0:0:0:
162,261,66346,1,8,0:0:0:0:
418,221,66513,1,2,1:0:0:0:
162,181,66679,2,0,P|99:207|81:248,1,111.019995426117,2|0,3:2|1:0,0:0:0:0:
356,150,67013,1,10,0:0:0:0:
162,98,67179,1,2,3:2:0:0:
232,300,67346,5,0,1:0:0:0:
302,71,67513,1,2,1:0:0:0:
321,274,67679,1,10,0:0:0:0:
237,143,67846,1,0,1:0:0:0:
487,91,68013,1,0,0:0:0:0:
367,348,68179,1,2,1:0:0:0:
366,157,68346,1,8,0:0:0:0:
481,272,68513,1,2,3:2:0:0:
241,234,68679,5,0,1:0:0:0:
392,82,68846,1,2,1:0:0:0:
379,266,69013,1,10,0:0:0:0:
219,75,69179,1,2,1:0:0:0:
180,294,69346,2,0,P|242:323|285:307,1,111.019995426117,2|2,0:0|1:0,0:0:0:0:
304,78,69679,1,10,0:0:0:0:
118,239,69846,1,2,1:0:0:0:
143,222,69929,1,0,1:0:0:0:
171,213,70013,6,0,B|256:182|252:260|347:216,1,166.529993139176,4|0,1:0|0:0,0:0:0:0:
401,187,70346,1,14,0:0:0:0:
298,60,70513,1,0,1:0:0:0:
206,288,70679,1,0,3:0:0:0:
298,146,70846,1,0,1:0:0:0:
378,324,71013,1,8,0:0:0:0:
160,219,71179,6,0,P|230:208|274:237,1,111.019995426117,2|0,1:0|0:0,0:0:0:0:
192,77,71513,1,0,1:0:0:0:
206,288,71679,2,0,P|136:299|92:270,1,111.019995426117,14|0,0:0|1:0,0:0:0:0:
296,152,72013,2,0,P|340:202|334:265,1,111.019995426117,0|0,3:0|1:0,0:0:0:0:
106,277,72346,1,8,0:0:0:0:
241,133,72513,1,2,1:0:0:0:
292,123,72596,1,0,1:0:0:0:
340,111,72679,6,0,B|449:90|449:90|435:173,1,166.529993139176,4|0,1:0|0:0,0:0:0:0:
419,221,73013,1,10,0:0:0:0:
303,38,73179,1,0,1:0:0:0:
272,223,73346,2,0,L|157:209,1,111.019995426117,2|0,3:2|1:0,0:0:0:0:
292,123,73679,1,10,0:0:0:0:
396,302,73846,6,0,L|511:288,1,111.019995426117,2|0,1:0|0:0,0:0:0:0:
253,308,74179,2,0,L|138:294,1,111.019995426117,2|8,1:0|0:0,0:0:0:0:
402,221,74513,2,0,L|517:207,1,111.019995426117,2|0,1:0|0:0,0:0:0:0:
272,223,74846,2,0,L|157:209,1,111.019995426117,2|8,1:0|0:0,0:0:0:0:
331,147,75179,1,2,3:2:0:0:
394,342,75346,6,0,P|396:264|421:150,1,166.529993139176,6|0,1:0|0:0,0:0:0:0:
460,112,75679,2,0,P|433:56|380:28,1,111.019995426117,12|0,0:0|1:0,0:0:0:0:
493,204,76013,1,0,3:0:0:0:
256,112,76179,1,0,1:0:0:0:
283,354,76346,2,0,P|352:350|408:338,1,111.019995426117,10|0,0:0|0:0,0:0:0:0:
344,85,76679,6,0,P|323:178|318:233,1,111.019995426117,6|0,1:0|0:0,0:0:0:0:
168,31,77013,1,8,0:0:0:0:
252,262,77179,1,0,1:0:0:0:
80,77,77346,2,0,P|101:170|106:225,1,111.019995426117,2|0,0:0|1:0,0:0:0:0:
273,30,77679,2,0,P|252:123|247:178,1,111.019995426117,10|0,0:0|0:0,0:0:0:0:
149,288,78013,5,4,3:0:0:0:
176,165,78179,1,4,3:0:0:0:
341,319,78346,1,8,3:0:0:0:
73,337,78513,1,8,3:0:0:0:
220,236,78679,1,0,1:0:0:0:
250,329,78846,1,0,1:0:0:0:
94,159,79013,1,8,0:0:0:0:
258,163,79179,1,0,0:0:0:0:
88,250,79346,5,4,3:0:0:0:
176,165,79513,1,4,3:0:0:0:
341,319,79679,1,8,3:0:0:0:
219,81,79846,1,8,3:0:0:0:
220,236,80013,1,0,1:0:0:0:
338,163,80179,1,0,1:0:0:0:
131,74,80346,1,8,0:0:0:0:
300,86,80513,1,0,0:0:0:0:
152,297,80679,5,0,1:0:0:0:
139,186,80846,1,0,0:0:0:0:
258,346,81013,1,8,0:0:0:0:
50,242,81179,1,8,0:0:0:0:
219,132,81346,1,4,3:0:0:0:
241,237,81513,1,4,3:0:0:0:
52,130,81679,1,8,3:0:0:0:
308,132,81846,1,0,0:0:0:0:
345,342,82013,5,0,1:0:0:0:
406,132,82179,1,0,1:0:0:0:
259,341,82346,1,10,0:0:0:0:
219,132,82513,1,0,1:0:0:0:
339,261,82679,1,2,0:0:0:0:
354,54,82846,1,2,1:0:0:0:
233,222,83013,2,0,P|170:207|136:115,1,166.529993139176,10|0,0:0|3:0,0:0:0:0:
157,47,83346,5,4,1:0:0:0:
157,47,83679,1,2,1:0:0:0:
140,278,83846,2,0,L|36:252,1,92.8200005665283,2|0,3:2|1:0,0:0:0:0:
219,132,84179,1,2,3:2:0:0:
266,338,84346,2,0,L|370:312,1,92.8200005665283,0|0,1:0|0:0,0:0:0:0:
302,57,84679,5,4,1:0:0:0:
302,57,85013,1,2,1:2:0:0:
173,311,85179,2,0,L|41:285,1,111.019995426117,2|0,3:2|1:0,0:0:0:0:
217,108,85513,1,2,3:2:0:0:
297,354,85679,2,0,L|429:328,1,111.019995426117,0|0,1:0|0:0,0:0:0:0:
116,195,86013,5,14,0:0:0:0:
363,164,86179,1,0,1:0:0:0:
76,125,86346,1,12,0:0:0:0:
424,214,86513,1,0,1:0:0:0:
41,243,86679,1,12,0:0:0:0:
431,114,86846,1,0,1:0:0:0:
0,173,87013,1,12,0:0:0:0:
449,227,87179,1,0,1:0:0:0:
100,40,87346,5,12,0:0:0:0:
