osu file format v14

[General]
AudioFilename: audio.mp3
AudioLeadIn: 0
PreviewTime: 58346
Countdown: 0
SampleSet: Normal
StackLeniency: 0.7
Mode: 1
LetterboxInBreaks: 0
WidescreenStoryboard: 0

[Editor]
DistanceSpacing: 0.6
BeatDivisor: 4
GridSize: 32
TimelineZoom: 1.1

[Metadata]
Title:Dakara, Hitori ja Nai -TV Size-
TitleUnicode:だから、ひとりじゃない -TV Size-
Artist:Little Glee Monster
ArtistUnicode:Little Glee Monster
Creator:-Sh1n1-
Version:Nardo's Oni
Source:僕のヒーローアカデミア 第2期
Tags:Boku no Hero Academia second Season ending shini arcwinolivirus akitoshi nardoxyribonucleic pentori sotarks iyiyo lasse mir critical_star
BeatmapID:1358191
BeatmapSetID:631624

[Difficulty]
HPDrainRate:5
CircleSize:5
OverallDifficulty:5
ApproachRate:7
SliderMultiplier:1.4
SliderTickRate:1

[Events]
//Background and Video events
0,0,"BGTaiko.jpg",0,10
//Break Periods
//Storyboard Layer 0 (Background)
//Storyboard Layer 1 (Fail)
//Storyboard Layer 2 (Pass)
//Storyboard Layer 3 (Foreground)
//Storyboard Sound Samples

[TimingPoints]
680,333.333333333333,4,1,0,50,1,0
4679,-100,4,1,0,65,0,0
6013,-100,4,1,0,80,0,0
16679,-100,4,1,0,70,0,0
38013,-100,4,1,0,60,0,0
54013,-100,4,1,0,70,0,0
59346,-100,4,1,0,80,0,1
83346,-100,4,1,0,70,0,0
87679,-100,4,1,0,40,0,0

[Colours]
Combo1 : 224,170,137
Combo2 : 83,96,100
Combo3 : 245,213,192
Combo4 : 247,126,250

[HitObjects]
256,192,680,5,0,0:0:0:0:
256,192,1013,1,0,0:0:0:0:
256,192,1179,1,8,0:0:0:0:
256,192,1513,1,8,0:0:0:0:
256,192,1846,1,0,0:0:0:0:
256,192,2013,1,0,0:0:0:0:
256,192,2346,1,0,0:0:0:0:
256,192,2513,1,8,0:0:0:0:
256,192,2846,1,8,0:0:0:0:
256,192,3179,1,8,0:0:0:0:
256,192,3346,1,8,0:0:0:0:
256,192,3679,1,0,0:0:0:0:
256,192,3846,1,8,0:0:0:0:
256,192,4179,1,8,0:0:0:0:
256,192,4346,1,0,0:0:0:0:
256,192,4513,1,0,0:0:0:0:
256,192,4679,1,12,0:0:0:0:
256,192,4846,1,8,0:0:0:0:
256,192,4929,1,0,0:0:0:0:
256,192,5013,1,0,0:0:0:0:
256,192,5179,1,8,0:0:0:0:
256,192,5346,1,0,0:0:0:0:
256,192,5513,1,8,0:0:0:0:
256,192,5596,1,8,0:0:0:0:
256,192,5679,1,0,0:0:0:0:
256,192,5763,1,0,0:0:0:0:
256,192,5846,1,8,0:0:0:0:
256,192,5929,1,0,0:0:0:0:
256,192,6013,1,8,0:0:0:0:
256,192,6346,1,8,0:0:0:0:
256,192,6513,1,0,0:0:0:0:
256,192,6846,1,0,0:0:0:0:
256,192,7013,1,8,0:0:0:0:
256,192,7179,1,0,0:0:0:0:
256,192,7263,1,0,0:0:0:0:
256,192,7346,1,0,0:0:0:0:
256,192,7513,1,0,0:0:0:0:
256,192,7679,1,8,0:0:0:0:
256,192,7846,1,0,0:0:0:0:
256,192,8179,1,8,0:0:0:0:
256,192,8346,1,8,0:0:0:0:
256,192,8513,1,0,0:0:0:0:
256,192,8596,1,0,0:0:0:0:
256,192,8679,1,0,0:0:0:0:
256,192,8846,1,0,0:0:0:0:
256,192,9013,1,8,0:0:0:0:
256,192,9179,1,0,0:0:0:0:
256,192,9513,1,0,0:0:0:0:
256,192,9679,1,8,0:0:0:0:
256,192,9846,1,0,0:0:0:0:
256,192,9929,1,0,0:0:0:0:
256,192,10013,1,8,0:0:0:0:
256,192,10179,1,0,0:0:0:0:
256,192,10346,1,8,0:0:0:0:
256,192,10513,1,8,0:0:0:0:
256,192,10596,1,8,0:0:0:0:
256,192,10679,1,0,0:0:0:0:
256,192,10846,1,0,0:0:0:0:
256,192,11013,1,8,0:0:0:0:
256,192,11179,1,8,0:0:0:0:
256,192,11346,1,0,0:0:0:0:
256,192,11679,1,8,0:0:0:0:
256,192,11846,1,0,0:0:0:0:
256,192,12179,1,0,0:0:0:0:
256,192,12346,1,8,0:0:0:0:
256,192,12513,1,0,0:0:0:0:
256,192,12596,1,0,0:0:0:0:
256,192,12679,1,0,0:0:0:0:
256,192,12846,1,0,0:0:0:0:
256,192,13013,1,8,0:0:0:0:
256,192,13179,1,0,0:0:0:0:
256,192,13513,1,8,0:0:0:0:
256,192,13679,1,8,0:0:0:0:
256,192,13846,1,0,0:0:0:0:
256,192,13929,1,8,0:0:0:0:
256,192,14013,1,8,0:0:0:0:
256,192,14179,1,0,0:0:0:0:
256,192,14346,1,8,0:0:0:0:
256,192,14513,1,0,0:0:0:0:
256,192,14596,1,0,0:0:0:0:
256,192,14679,1,8,0:0:0:0:
256,192,14763,1,8,0:0:0:0:
256,192,14846,1,0,0:0:0:0:
256,192,15013,1,8,0:0:0:0:
256,192,15179,1,0,0:0:0:0:
256,192,15346,1,8,0:0:0:0:
256,192,15513,1,0,0:0:0:0:
256,192,15596,1,0,0:0:0:0:
256,192,15679,1,8,0:0:0:0:
256,192,15846,1,8,0:0:0:0:
256,192,16013,1,0,0:0:0:0:
256,192,16096,1,8,0:0:0:0:
256,192,16179,1,0,0:0:0:0:
256,192,16263,1,0,0:0:0:0:
256,192,16346,1,8,0:0:0:0:
256,192,16429,1,0,0:0:0:0:
256,192,16513,1,8,0:0:0:0:
256,192,16596,1,8,0:0:0:0:
256,192,16679,1,0,0:0:0:0:
256,192,17013,1,8,0:0:0:0:
256,192,17179,1,0,0:0:0:0:
256,192,17346,1,0,0:0:0:0:
256,192,17679,1,0,0:0:0:0:
256,192,17846,1,8,0:0:0:0:
256,192,18013,1,8,0:0:0:0:
256,192,18346,1,8,0:0:0:0:
256,192,18513,1,0,0:0:0:0:
256,192,18679,1,0,0:0:0:0:
256,192,18846,1,0,0:0:0:0:
256,192,19013,1,8,0:0:0:0:
256,192,19179,1,8,0:0:0:0:
256,192,19346,1,0,0:0:0:0:
256,192,19679,1,8,0:0:0:0:
256,192,19846,1,0,0:0:0:0:
256,192,20013,1,0,0:0:0:0:
256,192,20346,1,8,0:0:0:0:
256,192,20513,1,0,0:0:0:0:
256,192,20679,1,8,0:0:0:0:
256,192,21013,1,8,0:0:0:0:
256,192,21179,1,0,0:0:0:0:
256,192,21346,1,0,0:0:0:0:
256,192,21513,1,8,0:0:0:0:
256,192,21679,1,8,0:0:0:0:
256,192,21846,1,0,0:0:0:0:
256,192,22013,1,0,0:0:0:0:
256,192,22346,1,8,0:0:0:0:
256,192,22513,1,0,0:0:0:0:
256,192,22679,1,0,0:0:0:0:
256,192,23013,1,0,0:0:0:0:
256,192,23179,1,8,0:0:0:0:
256,192,23346,1,8,0:0:0:0:
256,192,23679,1,8,0:0:0:0:
256,192,24013,1,0,0:0:0:0:
256,192,24179,1,0,0:0:0:0:
256,192,24346,1,8,0:0:0:0:
256,192,24513,1,8,0:0:0:0:
256,192,24679,1,0,0:0:0:0:
256,192,25013,1,8,0:0:0:0:
256,192,25179,1,8,0:0:0:0:
256,192,25346,1,0,0:0:0:0:
256,192,25513,1,0,0:0:0:0:
256,192,25679,1,8,0:0:0:0:
256,192,26013,1,0,0:0:0:0:
256,192,26179,1,0,0:0:0:0:
256,192,26346,1,8,0:0:0:0:
256,192,26513,1,8,0:0:0:0:
256,192,26679,1,0,0:0:0:0:
256,192,26846,1,8,0:0:0:0:
256,192,26929,1,8,0:0:0:0:
256,192,27013,1,0,0:0:0:0:
256,192,27179,1,8,0:0:0:0:
256,192,27346,1,0,0:0:0:0:
256,192,27679,1,8,0:0:0:0:
256,192,27846,1,0,0:0:0:0:
256,192,28013,1,0,0:0:0:0:
256,192,28346,1,0,0:0:0:0:
256,192,28513,1,8,0:0:0:0:
256,192,28679,1,8,0:0:0:0:
256,192,29013,1,8,0:0:0:0:
256,192,29179,1,0,0:0:0:0:
256,192,29346,1,0,0:0:0:0:
256,192,29513,1,0,0:0:0:0:
256,192,29679,1,8,0:0:0:0:
256,192,29846,1,8,0:0:0:0:
256,192,30013,1,0,0:0:0:0:
256,192,30346,1,8,0:0:0:0:
256,192,30513,1,0,0:0:0:0:
256,192,30679,1,0,0:0:0:0:
256,192,31013,1,8,0:0:0:0:
256,192,31179,1,0,0:0:0:0:
256,192,31346,1,8,0:0:0:0:
256,192,31679,1,8,0:0:0:0:
256,192,31846,1,0,0:0:0:0:
256,192,32013,1,0,0:0:0:0:
256,192,32179,1,8,0:0:0:0:
256,192,32346,1,8,0:0:0:0:
256,192,32513,1,0,0:0:0:0:
256,192,32679,1,0,0:0:0:0:
256,192,33013,1,8,0:0:0:0:
256,192,33179,1,0,0:0:0:0:
256,192,33346,1,0,0:0:0:0:
256,192,33679,1,0,0:0:0:0:
256,192,33846,1,8,0:0:0:0:
256,192,34013,1,8,0:0:0:0:
256,192,34346,1,8,0:0:0:0:
256,192,34679,1,0,0:0:0:0:
256,192,34846,1,0,0:0:0:0:
256,192,35013,1,8,0:0:0:0:
256,192,35346,1,8,0:0:0:0:
256,192,35513,1,0,0:0:0:0:
256,192,35679,1,8,0:0:0:0:
256,192,35846,1,8,0:0:0:0:
256,192,36013,1,0,0:0:0:0:
256,192,36179,1,0,0:0:0:0:
256,192,36346,1,8,0:0:0:0:
256,192,36679,1,0,0:0:0:0:
256,192,36846,1,8,0:0:0:0:
256,192,36929,1,8,0:0:0:0:
256,192,37013,1,0,0:0:0:0:
256,192,37179,1,8,0:0:0:0:
256,192,37346,1,0,0:0:0:0:
256,192,37513,1,8,0:0:0:0:
256,192,37679,1,0,0:0:0:0:
256,192,37763,1,0,0:0:0:0:
256,192,37846,1,8,0:0:0:0:
256,192,38013,1,4,0:0:0:0:
256,192,38346,1,0,0:0:0:0:
256,192,38679,1,8,0:0:0:0:
256,192,38846,1,0,0:0:0:0:
256,192,39013,1,0,0:0:0:0:
256,192,39179,1,0,0:0:0:0:
256,192,39346,1,8,0:0:0:0:
256,192,39679,1,8,0:0:0:0:
256,192,40013,1,0,0:0:0:0:
256,192,40346,1,8,0:0:0:0:
256,192,40429,1,0,0:0:0:0:
256,192,40513,1,8,0:0:0:0:
256,192,40596,1,8,0:0:0:0:
256,192,40679,1,0,0:0:0:0:
256,192,41013,1,8,0:0:0:0:
256,192,41179,1,0,0:0:0:0:
256,192,41346,1,8,0:0:0:0:
256,192,41679,1,0,0:0:0:0:
256,192,41846,1,0,0:0:0:0:
256,192,42179,1,0,0:0:0:0:
256,192,42346,1,8,0:0:0:0:
256,192,42513,1,0,0:0:0:0:
256,192,42679,1,8,0:0:0:0:
256,192,43013,1,0,0:0:0:0:
256,192,43346,1,8,0:0:0:0:
256,192,43679,1,0,0:0:0:0:
256,192,44013,1,8,0:0:0:0:
256,192,44179,1,0,0:0:0:0:
256,192,44346,1,0,0:0:0:0:
256,192,44513,1,0,0:0:0:0:
256,192,44679,1,8,0:0:0:0:
256,192,45013,1,8,0:0:0:0:
256,192,45346,1,0,0:0:0:0:
256,192,45679,1,8,0:0:0:0:
256,192,45846,1,8,0:0:0:0:
256,192,46013,1,0,0:0:0:0:
256,192,46346,1,8,0:0:0:0:
256,192,46513,1,0,0:0:0:0:
256,192,46679,1,8,0:0:0:0:
256,192,47013,1,0,0:0:0:0:
256,192,47179,1,0,0:0:0:0:
256,192,47513,1,0,0:0:0:0:
256,192,47679,1,8,0:0:0:0:
256,192,47846,1,0,0:0:0:0:
256,192,48013,1,8,0:0:0:0:
256,192,48096,1,8,0:0:0:0:
256,192,48179,1,8,0:0:0:0:
256,192,48263,1,8,0:0:0:0:
256,192,48346,1,0,0:0:0:0:
256,192,48513,1,8,0:0:0:0:
256,192,48679,1,4,0:0:0:0:
256,192,49013,1,0,0:0:0:0:
256,192,49346,1,8,0:0:0:0:
256,192,49513,1,0,0:0:0:0:
256,192,49679,1,0,0:0:0:0:
256,192,49846,1,0,0:0:0:0:
256,192,50013,1,8,0:0:0:0:
256,192,50346,1,8,0:0:0:0:
256,192,50679,1,0,0:0:0:0:
256,192,51013,1,8,0:0:0:0:
256,192,51179,1,8,0:0:0:0:
256,192,51346,1,0,0:0:0:0:
256,192,51679,1,8,0:0:0:0:
256,192,51846,1,0,0:0:0:0:
256,192,52013,1,8,0:0:0:0:
256,192,52346,1,0,0:0:0:0:
256,192,52513,1,0,0:0:0:0:
256,192,52846,1,0,0:0:0:0:
256,192,53013,1,8,0:0:0:0:
256,192,53179,1,0,0:0:0:0:
256,192,53346,1,8,0:0:0:0:
256,192,53513,1,8,0:0:0:0:
256,192,53679,1,0,0:0:0:0:
256,192,53763,1,8,0:0:0:0:
256,192,53846,1,0,0:0:0:0:
256,192,53929,1,0,0:0:0:0:
256,192,54013,1,8,0:0:0:0:
256,192,54346,1,0,0:0:0:0:
256,192,54513,1,8,0:0:0:0:
256,192,54679,1,8,0:0:0:0:
256,192,54846,1,0,0:0:0:0:
256,192,55013,1,8,0:0:0:0:
256,192,55179,1,8,0:0:0:0:
256,192,55263,1,8,0:0:0:0:
256,192,55346,1,0,0:0:0:0:
256,192,55513,1,0,0:0:0:0:
256,192,55679,1,8,0:0:0:0:
256,192,55846,1,0,0:0:0:0:
256,192,55929,1,0,0:0:0:0:
256,192,56013,1,0,0:0:0:0:
256,192,56179,1,0,0:0:0:0:
256,192,56346,1,8,0:0:0:0:
256,192,56513,1,8,0:0:0:0:
256,192,56596,1,8,0:0:0:0:
256,192,56679,1,0,0:0:0:0:
256,192,56846,1,0,0:0:0:0:
256,192,56929,1,0,0:0:0:0:
256,192,57013,1,8,0:0:0:0:
256,192,57179,1,8,0:0:0:0:
256,192,57346,1,0,0:0:0:0:
256,192,57429,1,8,0:0:0:0:
256,192,57513,1,0,0:0:0:0:
256,192,57596,1,0,0:0:0:0:
256,192,57679,1,8,0:0:0:0:
256,192,57763,1,8,0:0:0:0:
256,192,57846,1,0,0:0:0:0:
256,192,58013,1,12,0:0:0:0:
256,192,58513,1,0,0:0:0:0:
256,192,58679,1,8,0:0:0:0:
256,192,59013,1,0,0:0:0:0:
256,192,59179,1,8,0:0:0:0:
256,192,59346,1,4,0:0:0:0:
256,192,59679,1,8,0:0:0:0:
256,192,59846,1,0,0:0:0:0:
256,192,59929,1,0,0:0:0:0:
256,192,60013,1,0,0:0:0:0:
256,192,60179,1,8,0:0:0:0:
256,192,60346,1,0,0:0:0:0:
256,192,60429,1,0,0:0:0:0:
256,192,60513,1,8,0:0:0:0:
256,192,60596,1,8,0:0:0:0:
256,192,60679,1,0,0:0:0:0:
256,192,60846,1,0,0:0:0:0:
256,192,61013,1,8,0:0:0:0:
256,192,61179,1,8,0:0:0:0:
256,192,61263,1,8,0:0:0:0:
256,192,61346,1,0,0:0:0:0:
256,192,61513,1,8,0:0:0:0:
256,192,61679,1,0,0:0:0:0:
256,192,61763,1,8,0:0:0:0:
256,192,61846,1,0,0:0:0:0:
256,192,61929,1,0,0:0:0:0:
256,192,62013,1,8,0:0:0:0:
256,192,62179,1,0,0:0:0:0:
256,192,62346,1,8,0:0:0:0:
256,192,62513,1,8,0:0:0:0:
256,192,62679,1,0,0:0:0:0:
256,192,62763,1,0,0:0:0:0:
256,192,62846,1,0,0:0:0:0:
256,192,62929,1,0,0:0:0:0:
256,192,63013,1,8,0:0:0:0:
256,192,63179,1,0,0:0:0:0:
256,192,63513,1,0,0:0:0:0:
256,192,63679,1,8,0:0:0:0:
256,192,63846,1,0,0:0:0:0:
256,192,63929,1,0,0:0:0:0:
256,192,64013,1,0,0:0:0:0:
256,192,64179,1,0,0:0:0:0:
256,192,64346,1,8,0:0:0:0:
256,192,64513,1,8,0:0:0:0:
256,192,64679,1,0,0:0:0:0:
256,192,65013,1,8,0:0:0:0:
256,192,65179,1,8,0:0:0:0:
256,192,65346,1,0,0:0:0:0:
256,192,65513,1,8,0:0:0:0:
256,192,65596,1,8,0:0:0:0:
256,192,65679,1,8,0:0:0:0:
256,192,65846,1,0,0:0:0:0:
256,192,66013,1,0,0:0:0:0:
256,192,66346,1,8,0:0:0:0:
256,192,66513,1,0,0:0:0:0:
256,192,66596,1,8,0:0:0:0:
256,192,66679,1,0,0:0:0:0:
256,192,66846,1,0,0:0:0:0:
256,192,66929,1,0,0:0:0:0:
256,192,67013,1,8,0:0:0:0:
256,192,67096,1,0,0:0:0:0:
256,192,67179,1,8,0:0:0:0:
256,192,67263,1,8,0:0:0:0:
256,192,67346,1,0,0:0:0:0:
256,192,67513,1,0,0:0:0:0:
256,192,67679,1,8,0:0:0:0:
256,192,67846,1,8,0:0:0:0:
256,192,67929,1,8,0:0:0:0:
256,192,68013,1,0,0:0:0:0:
256,192,68179,1,8,0:0:0:0:
256,192,68346,1,8,0:0:0:0:
256,192,68513,1,0,0:0:0:0:
256,192,68596,1,8,0:0:0:0:
256,192,68679,1,8,0:0:0:0:
256,192,68763,1,8,0:0:0:0:
256,192,68846,1,0,0:0:0:0:
256,192,69013,1,8,0:0:0:0:
256,192,69179,1,0,0:0:0:0:
256,192,69346,1,8,0:0:0:0:
256,192,69429,1,0,0:0:0:0:
256,192,69513,1,0,0:0:0:0:
256,192,69596,1,0,0:0:0:0:
256,192,69679,1,8,0:0:0:0:
256,192,69846,1,8,0:0:0:0:
256,192,70013,1,4,0:0:0:0:
256,192,70346,1,8,0:0:0:0:
256,192,70513,1,0,0:0:0:0:
256,192,70596,1,0,0:0:0:0:
256,192,70679,1,0,0:0:0:0:
256,192,70846,1,8,0:0:0:0:
256,192,71013,1,8,0:0:0:0:
256,192,71096,1,8,0:0:0:0:
256,192,71179,1,0,0:0:0:0:
256,192,71263,1,0,0:0:0:0:
256,192,71346,1,8,0:0:0:0:
256,192,71513,1,0,0:0:0:0:
256,192,71679,1,8,0:0:0:0:
256,192,71846,1,8,0:0:0:0:
256,192,71929,1,8,0:0:0:0:
256,192,72013,1,0,0:0:0:0:
256,192,72179,1,8,0:0:0:0:
256,192,72346,1,8,0:0:0:0:
256,192,72429,1,0,0:0:0:0:
256,192,72513,1,8,0:0:0:0:
256,192,72596,1,8,0:0:0:0:
256,192,72679,1,0,0:0:0:0:
256,192,72846,1,0,0:0:0:0:
256,192,73013,1,8,0:0:0:0:
256,192,73346,1,0,0:0:0:0:
256,192,73513,1,0,0:0:0:0:
256,192,73596,1,0,0:0:0:0:
256,192,73679,1,8,0:0:0:0:
256,192,73846,1,0,0:0:0:0:
256,192,73929,1,0,0:0:0:0:
256,192,74013,1,8,0:0:0:0:
256,192,74096,1,8,0:0:0:0:
256,192,74179,1,0,0:0:0:0:
256,192,74346,1,8,0:0:0:0:
256,192,74513,1,0,0:0:0:0:
256,192,74596,1,0,0:0:0:0:
256,192,74679,1,0,0:0:0:0:
256,192,74846,1,8,0:0:0:0:
256,192,74929,1,8,0:0:0:0:
256,192,75013,1,8,0:0:0:0:
256,192,75179,1,0,0:0:0:0:
256,192,75346,1,8,0:0:0:0:
256,192,75679,1,8,0:0:0:0:
256,192,75846,1,8,0:0:0:0:
256,192,76013,1,0,0:0:0:0:
256,192,76179,1,8,0:0:0:0:
256,192,76263,1,8,0:0:0:0:
256,192,76346,1,8,0:0:0:0:
256,192,76429,1,8,0:0:0:0:
256,192,76513,1,0,0:0:0:0:
256,192,76679,1,0,0:0:0:0:
256,192,76846,1,8,0:0:0:0:
256,192,76929,1,0,0:0:0:0:
256,192,77013,1,8,0:0:0:0:
256,192,77179,1,8,0:0:0:0:
256,192,77346,1,0,0:0:0:0:
256,192,77513,1,0,0:0:0:0:
256,192,77596,1,0,0:0:0:0:
256,192,77679,1,8,0:0:0:0:
256,192,77846,1,8,0:0:0:0:
256,192,78013,1,4,0:0:0:0:
256,192,78346,1,8,0:0:0:0:
256,192,78513,1,8,0:0:0:0:
256,192,78679,1,0,0:0:0:0:
256,192,78846,1,0,0:0:0:0:
256,192,79013,1,8,0:0:0:0:
256,192,79179,1,8,0:0:0:0:
256,192,79263,1,8,0:0:0:0:
256,192,79346,1,0,0:0:0:0:
256,192,79679,1,8,0:0:0:0:
256,192,79846,1,8,0:0:0:0:
256,192,80013,1,0,0:0:0:0:
256,192,80179,1,0,0:0:0:0:
256,192,80346,1,8,0:0:0:0:
256,192,80513,1,0,0:0:0:0:
256,192,80596,1,8,0:0:0:0:
256,192,80679,1,0,0:0:0:0:
256,192,81013,1,8,0:0:0:0:
256,192,81179,1,8,0:0:0:0:
256,192,81346,1,0,0:0:0:0:
256,192,81513,1,0,0:0:0:0:
256,192,81679,1,8,0:0:0:0:
256,192,81846,1,8,0:0:0:0:
256,192,81929,1,8,0:0:0:0:
256,192,82013,1,0,0:0:0:0:
256,192,82179,1,8,0:0:0:0:
256,192,82346,1,0,0:0:0:0:
256,192,82513,1,0,0:0:0:0:
256,192,82596,1,0,0:0:0:0:
256,192,82679,1,8,0:0:0:0:
256,192,82763,1,8,0:0:0:0:
256,192,82846,1,0,0:0:0:0:
256,192,82929,1,0,0:0:0:0:
256,192,83013,1,8,0:0:0:0:
256,192,83096,1,0,0:0:0:0:
256,192,83179,1,8,0:0:0:0:
256,192,83346,1,4,0:0:0:0:
256,192,83679,1,8,0:0:0:0:
256,192,83846,1,0,0:0:0:0:
256,192,83929,1,0,0:0:0:0:
256,192,84013,1,0,0:0:0:0:
256,192,84179,1,8,0:0:0:0:
256,192,84346,1,8,0:0:0:0:
256,192,84513,1,0,0:0:0:0:
256,192,84679,1,8,0:0:0:0:
256,192,85013,1,8,0:0:0:0:
256,192,85179,1,0,0:0:0:0:
256,192,85263,1,0,0:0:0:0:
256,192,85346,1,0,0:0:0:0:
256,192,85513,1,8,0:0:0:0:
256,192,85679,1,8,0:0:0:0:
256,192,85846,1,0,0:0:0:0:
256,192,85929,1,0,0:0:0:0:
256,192,86013,1,8,0:0:0:0:
256,192,86096,1,8,0:0:0:0:
256,192,86179,1,0,0:0:0:0:
256,192,86346,1,8,0:0:0:0:
256,192,86513,1,0,0:0:0:0:
256,192,86596,1,0,0:0:0:0:
256,192,86679,1,8,0:0:0:0:
256,192,86846,1,0,0:0:0:0:
256,192,87013,1,8,0:0:0:0:
256,192,87179,1,8,0:0:0:0:
256,192,87346,1,4,0:0:0:0:
256,192,87679,1,0,0:0:0:0:
256,192,87846,1,0,0:0:0:0:
256,192,88013,1,8,0:0:0:0:
256,192,88346,1,0,0:0:0:0:
