osu file format v14

[General]
AudioFilename: audio.mp3
AudioLeadIn: 0
PreviewTime: 58346
Countdown: 0
SampleSet: Soft
StackLeniency: 0.2
Mode: 0
LetterboxInBreaks: 0
WidescreenStoryboard: 0

[Editor]
Bookmarks: 16679,38013,54013,58013,59346,70013,83346,86013,88679
DistanceSpacing: 0.7
BeatDivisor: 4
GridSize: 16
TimelineZoom: 2.1

[Metadata]
Title:Dakara, Hitori ja Nai -TV Size-
TitleUnicode:だから、ひとりじゃない -TV Size-
Artist:Little Glee Monster
ArtistUnicode:Little Glee Monster
Creator:-Sh1n1-
Version:Mir's Insane
Source:僕のヒーローアカデミア 第2期
Tags:Boku no Hero Academia second Season ending shini arcwinolivirus akitoshi nardoxyribonucleic pentori sotarks iyiyo lasse mir critical_star
BeatmapID:1350468
BeatmapSetID:631624

[Difficulty]
HPDrainRate:6
CircleSize:4
OverallDifficulty:8
ApproachRate:9
SliderMultiplier:1.76
SliderTickRate:1

[Events]
//Background and Video events
Video,0,"video.mp4"
0,0,"BGStd.jpg",0,0
//Break Periods
//Storyboard Layer 0 (Background)
//Storyboard Layer 1 (Fail)
//Storyboard Layer 2 (Pass)
//Storyboard Layer 3 (Foreground)
//Storyboard Sound Samples

[TimingPoints]
680,333.333333333333,4,2,22,42,1,0
680,-133.333333333333,4,2,22,42,0,0
5513,-133.333333333333,4,2,22,52,0,0
6013,-100,4,2,22,72,0,0
6263,-100,4,2,99,5,0,0
6346,-100,4,2,22,72,0,0
7429,-100,4,2,99,5,0,0
7512,-100,4,2,22,72,0,0
10263,-100,4,2,99,5,0,0
10346,-100,4,2,22,72,0,0
10596,-100,4,2,99,5,0,0
10679,-100,4,2,22,72,0,0
10929,-100,4,2,99,5,0,0
11012,-100,4,2,22,72,0,0
11596,-100,4,2,99,5,0,0
11679,-100,4,2,22,72,0,0
12929,-100,4,2,99,5,0,0
13012,-100,4,2,22,72,0,0
16679,-100,4,2,22,62,0,0
16929,-100,4,2,99,5,0,0
17013,-100,4,2,22,62,0,0
17429,-100,4,2,99,5,0,0
17513,-100,4,2,22,62,0,0
17596,-100,4,2,22,5,0,0
17679,-100,4,2,22,62,0,0
18263,-100,4,2,99,5,0,0
18346,-100,4,2,22,62,0,0
18763,-100,4,2,99,5,0,0
18847,-100,4,2,22,62,0,0
20096,-100,4,2,99,5,0,0
20180,-100,4,2,22,62,0,0
21429,-100,4,2,99,5,0,0
21513,-100,4,2,22,62,0,0
22763,-100,4,2,99,5,0,0
22847,-100,4,2,22,62,0,0
24096,-100,4,2,99,5,0,0
24180,-100,4,2,22,62,0,0
25429,-100,4,2,99,5,0,0
25513,-100,4,2,22,62,0,0
27596,-100,4,2,99,5,0,0
27680,-100,4,2,22,62,0,0
29429,-100,4,2,99,5,0,0
29513,-100,4,2,22,62,0,0
32096,-100,4,2,99,5,0,0
32180,-100,4,2,22,62,0,0
32929,-100,4,2,99,5,0,0
33013,-100,4,2,22,62,0,0
38013,-133.333333333333,4,2,22,52,0,0
42929,-133.333333333333,4,2,99,5,0,0
43013,-133.333333333333,4,2,22,52,0,0
48096,-133.333333333333,4,2,22,26,0,0
48179,-133.333333333333,4,2,22,52,0,0
48263,-133.333333333333,4,2,22,26,0,0
48346,-133.333333333333,4,2,22,52,0,0
54013,-133.333333333333,4,2,22,62,0,0
54263,-133.333333333333,4,2,99,5,0,0
54346,-133.333333333333,4,2,22,62,0,0
59346,-83.3333333333333,4,2,22,72,0,1
59596,-83.3333333333333,4,2,99,5,0,1
59679,-83.3333333333333,4,2,22,72,0,1
60929,-83.3333333333333,4,2,99,5,0,1
61012,-83.3333333333333,4,2,22,72,0,1
62263,-83.3333333333333,4,2,99,5,0,1
62346,-83.3333333333333,4,2,22,72,0,1
64596,-83.3333333333333,4,2,99,5,0,1
64679,-83.3333333333333,4,2,22,72,0,1
64929,-83.3333333333333,4,2,99,5,0,1
65013,-83.3333333333333,4,2,22,72,0,1
65429,-83.3333333333333,4,2,99,5,0,1
65512,-83.3333333333333,4,2,22,72,0,1
69929,-83.3333333333333,4,2,22,72,0,0
70013,-83.3333333333333,4,2,22,72,0,1
70263,-83.3333333333333,4,2,99,5,0,1
70346,-83.3333333333333,4,2,22,72,0,1
71429,-83.3333333333333,4,2,99,5,0,1
71512,-83.3333333333333,4,2,22,72,0,1
75596,-83.3333333333333,4,2,99,5,0,1
75679,-83.3333333333333,4,2,22,72,0,1
83263,-83.3333333333333,4,2,22,72,0,0
83346,-83.3333333333333,4,2,22,62,0,1
84679,-83.3333333333333,4,2,22,72,0,1
84929,-83.3333333333333,4,2,99,5,0,1
85012,-83.3333333333333,4,2,22,72,0,1
86013,-83.3333333333333,4,2,22,82,0,1
87346,-83.3333333333333,4,2,22,72,0,0
87679,-83.3333333333333,4,2,99,52,0,0
87846,-83.3333333333333,4,2,99,42,0,0
88013,-83.3333333333333,4,2,99,32,0,0
88346,-83.3333333333333,4,2,99,22,0,0
88388,-83.3333333333333,4,2,99,12,0,0

[Colours]
Combo1 : 250,140,210
Combo2 : 150,160,190
Combo3 : 250,140,160
Combo4 : 240,190,150

[HitObjects]
176,120,680,6,0,L|94:117,2,66.0000025177003,2|0|2,0:0|0:0|0:0,0:0:0:0:
250,70,1179,2,0,L|332:67,1,66.0000025177003,2|0,0:0|0:0,0:0:0:0:
380,142,1513,2,0,L|446:145,1,66.0000025177003,2|0,0:0|0:0,0:0:0:0:
332,67,1846,1,2,0:0:0:0:
294,156,2013,6,0,L|297:238,2,66.0000025177003,2|0|2,0:0|0:0|0:0,0:0:0:0:
212,258,2513,2,0,L|209:323,1,66.0000025177003,2|0,0:0|0:0,0:0:0:0:
301,318,2846,2,0,L|304:384,1,66.0000025177003,2|0,0:0|0:0,0:0:0:0:
206,344,3179,1,2,0:0:0:0:
88,345,3346,6,0,L|22:347,2,66.0000025177003,2|0|2,0:0|0:0|0:0,0:0:0:0:
146,255,3846,2,0,L|211:257,1,66.0000025177003,2|0,0:0|0:0,0:0:0:0:
301,317,4179,2,0,L|367:315,1,66.0000025177003,0|8,0:0|3:0,0:0:0:0:
296,220,4513,1,8,3:0:0:0:
454,354,4679,5,8,1:0:0:0:
454,354,4846,1,8,3:0:0:0:
418,175,5013,1,0,0:0:0:0:
374,280,5179,1,4,3:0:0:0:
418,175,5346,2,0,P|408:124|393:98,1,66.0000025177003,0|0,0:0|3:0,0:0:0:0:
183,38,5679,1,2,3:2:0:0:
183,38,5763,1,2,3:2:0:0:
183,38,5846,1,2,3:2:0:0:
183,38,5929,1,2,3:2:0:0:
183,38,6013,6,0,L|341:35,1,132,0|0,1:0|0:0,0:0:0:0:
354,37,6346,1,10,0:0:0:0:
295,229,6513,2,0,P|277:175|285:128,1,88,2|0,1:0|3:0,0:0:0:0:
512,122,6846,2,0,P|513:165|496:206,1,88,2|8,1:0|0:0,0:0:0:0:
237,340,7179,6,0,L|410:334,1,132,0|0,1:0|0:0,0:0:0:0:
409,334,7513,1,0,1:0:0:0:
295,229,7679,1,10,0:0:0:0:
159,301,7846,2,0,L|71:303,1,88,2|0,1:0|3:0,0:0:0:0:
368,334,8179,2,0,L|456:332,1,88,2|10,1:2|0:2,0:0:0:0:
502,226,8513,1,2,3:0:0:0:
374,30,8679,6,0,P|357:79|372:142,1,88,0|0,1:0|1:0,0:0:0:0:
400,207,9013,1,10,0:0:0:0:
247,129,9179,2,0,L|159:126,1,88,2|0,1:0|3:0,0:0:0:0:
264,279,9513,2,0,L|351:281,1,88,0|8,1:0|0:0,0:0:0:0:
123,208,9846,1,2,3:0:0:0:
123,208,9929,1,2,3:0:0:0:
123,208,10013,6,0,B|79:167|73:127|73:127|101:130|119:148,1,132,2|0,3:0|0:0,0:0:0:0:
191,228,10346,2,0,B|133:245|96:230|96:230|112:208|137:201,1,132,10|0,0:0|0:0,0:0:0:0:
243,179,10679,2,0,B|229:237|197:262|197:262|186:237|193:212,1,132,2|0,3:0|0:0,0:0:0:0:
217,102,11013,1,10,0:0:0:0:
106,137,11179,1,2,3:0:0:0:
336,136,11346,6,0,L|484:135,1,132,0|0,1:0|0:0,0:0:0:0:
507,136,11679,1,10,0:0:0:0:
356,333,11846,2,0,P|336:271|346:227,1,88,2|0,1:0|3:0,0:0:0:0:
512,262,12179,2,0,P|512:305|494:345,1,88,2|8,1:0|0:0,0:0:0:0:
356,333,12513,1,2,3:0:0:0:
219,370,12679,6,0,L|87:369,1,132,0|0,1:0|0:0,0:0:0:0:
56,343,13013,1,10,0:0:0:0:
193,186,13179,2,0,P|209:250|193:291,1,88,2|0,1:0|3:0,0:0:0:0:
36,166,13513,2,0,P|31:122|47:82,1,88,2|8,1:0|0:0,0:0:0:0:
141,14,13846,1,2,3:0:0:0:
359,135,14013,6,0,L|368:48,1,88,2|0,1:0|0:0,0:0:0:0:
275,210,14346,2,0,L|284:298,1,88,0|0,1:0|0:0,0:0:0:0:
256,111,14679,2,0,L|265:24,1,88,0|0,1:0|0:0,0:0:0:0:
172,186,15012,2,0,L|181:274,1,88,0|0,1:0|0:0,0:0:0:0:
125,80,15346,5,2,1:0:0:0:
181,274,15513,1,0,1:0:0:0:
125,80,15679,1,0,1:0:0:0:
303,88,15846,5,2,1:0:0:0:
78,204,16013,1,0,1:0:0:0:
303,88,16179,1,0,1:0:0:0:
253,269,16346,1,0,1:0:0:0:
225,303,16429,1,0,1:0:0:0:
188,326,16512,1,2,1:0:0:0:
145,336,16595,1,0,1:0:0:0:
102,331,16679,6,0,L|96:227,1,88,6|0,1:0|0:0,0:0:0:0:
28,176,17013,1,8,0:0:0:0:
131,40,17179,2,0,P|190:34|277:79,1,132,2|0,1:0|0:0,0:0:0:0:
286,87,17513,1,0,0:0:0:0:
474,44,17679,2,0,L|386:49,1,88,8|2,0:0|0:0,0:0:0:0:
278,204,18013,5,2,1:0:0:0:
278,204,18179,1,0,0:0:0:0:
286,87,18346,1,8,0:0:0:0:
369,230,18513,2,0,P|343:283|254:302,1,132,2|0,1:0|0:0,0:0:0:0:
238,305,18846,1,0,1:0:0:0:
272,116,19013,2,0,L|277:203,1,88,8|2,0:0|0:0,0:0:0:0:
71,259,19346,6,0,P|141:257|175:268,1,88,2|0,1:0|0:0,0:0:0:0:
238,305,19679,1,8,0:0:0:0:
129,171,19846,2,0,L|138:13,1,132,2|0,1:0|0:0,0:0:0:0:
139,0,20179,1,0,0:0:0:0:
358,113,20346,2,0,P|314:120|271:115,1,88,8|2,0:0|0:0,0:0:0:0:
157,261,20679,6,0,L|163:378,1,88,2|0,1:0|0:0,0:0:0:0:
324,318,21013,1,8,0:0:0:0:
157,261,21179,2,0,P|110:260|21:294,1,132,2|0,1:0|0:0,0:0:0:0:
3,317,21513,1,0,1:0:0:0:
0,110,21679,1,8,0:0:0:0:
74,185,21846,1,2,3:0:0:0:
232,61,22013,5,2,1:0:0:0:
232,61,22179,1,0,0:0:0:0:
99,80,22346,1,8,0:0:0:0:
235,149,22513,2,0,P|291:124|313:26,1,132,2|0,1:0|0:0,0:0:0:0:
310,23,22846,1,0,0:0:0:0:
219,170,23013,2,0,L|223:257,1,88,8|2,0:0|3:0,0:0:0:0:
364,334,23346,5,2,1:0:0:0:
364,334,23513,1,0,0:0:0:0:
323,221,23679,1,10,0:0:0:0:
429,384,23846,2,0,L|269:379,1,132,0|0,1:0|0:0,0:0:0:0:
257,377,24179,1,0,1:0:0:0:
414,224,24346,2,0,P|397:276|355:307,1,88,10|2,0:0|3:0,0:0:0:0:
323,221,24679,5,2,1:0:0:0:
377,137,24846,1,0,1:0:0:0:
164,164,25013,1,8,0:0:0:0:
251,124,25179,2,0,P|212:84|104:88,1,132,0|0,1:0|0:0,0:0:0:0:
101,87,25513,1,0,1:0:0:0:
160,251,25679,2,0,L|164:147,1,88,10|2,0:0|3:0,0:0:0:0:
101,342,26013,5,2,1:0:0:0:
198,352,26179,1,0,1:0:0:0:
60,261,26346,1,8,0:0:0:0:
198,352,26512,1,10,0:0:0:0:
254,279,26679,1,2,0:0:0:0:
156,268,26845,1,2,3:0:0:0:
297,364,27013,1,8,0:0:0:0:
216,192,27179,1,2,3:0:0:0:
216,192,27263,1,0,0:0:0:0:
216,192,27346,6,0,L|212:53,1,132,2|0,1:0|0:0,0:0:0:0:
211,20,27679,1,8,0:0:0:0:
340,125,27846,2,0,P|415:127|455:103,1,88,2|2,1:0|0:0,0:0:0:0:
489,39,28179,1,0,0:0:0:0:
483,207,28346,2,0,L|480:294,1,88,8|2,0:0|3:2,0:0:0:0:
350,358,28679,5,2,1:0:0:0:
350,358,28846,1,0,0:0:0:0:
303,209,29013,1,8,0:0:0:0:
272,329,29179,2,0,P|334:326|392:267,1,132,2|0,1:0|0:0,0:0:0:0:
406,248,29513,1,0,1:0:0:0:
216,248,29679,2,0,L|128:245,1,88,8|2,0:0|3:0,0:0:0:0:
101,21,30013,6,0,P|141:65|128:152,1,132,2|0,1:0|0:0,0:0:0:0:
114,165,30346,1,8,0:0:0:0:
239,89,30513,2,0,L|326:86,2,88,2|2|0,1:0|0:0|0:0,0:0:0:0:
38,128,31013,2,0,P|29:180|60:232,1,88,8|2,0:0|3:2,0:0:0:0:
170,330,31346,5,2,1:0:0:0:
170,330,31513,1,0,0:0:0:0:
128,245,31679,1,8,0:0:0:0:
84,331,31846,2,0,P|127:340|169:329,1,88,2|0,1:0|0:0,0:0:0:0:
261,285,32179,1,0,1:0:0:0:
416,358,32346,2,0,L|328:355,1,88,8|2,0:0|3:0,0:0:0:0:
325,59,32679,6,0,P|340:116|301:195,1,132,2|0,1:0|0:0,0:0:0:0:
285,210,33013,1,8,0:0:0:0:
100,169,33179,2,0,L|187:166,1,88,2|0,1:0|0:0,0:0:0:0:
285,210,33513,1,0,0:0:0:0:
229,24,33679,2,0,P|170:51|153:102,1,88,8|2,0:0|3:2,0:0:0:0:
71,349,34013,6,0,L|68:261,1,88,2|0,1:0|0:0,0:0:0:0:
187,166,34346,2,0,L|184:253,1,88,10|0,0:0|1:0,0:0:0:0:
83,350,34679,2,0,L|80:262,1,88,2|0,0:0|1:0,0:0:0:0:
199,167,35012,2,0,L|196:254,1,88,10|2,0:0|3:0,0:0:0:0:
276,349,35346,5,4,3:0:0:0:
276,349,35513,1,4,3:0:0:0:
372,192,35679,1,8,3:0:0:0:
196,254,35846,1,8,3:0:0:0:
196,254,36179,5,0,1:0:0:0:
249,96,36346,1,10,0:0:0:0:
296,256,36513,1,8,3:0:0:0:
170,160,36679,5,4,3:0:0:0:
170,160,36846,1,2,3:0:0:0:
296,256,37013,1,8,0:0:0:0:
328,167,37179,1,2,3:0:0:0:
196,254,37346,1,0,1:0:0:0:
170,160,37513,1,2,3:0:0:0:
296,256,37679,1,8,0:0:0:0:
137,328,37846,1,2,3:0:0:0:
356,340,38013,6,0,P|390:297|374:196,1,132.000005035401,4|0,1:0|0:0,0:0:0:0:
328,167,38513,1,4,3:0:0:0:
414,57,38679,1,8,0:0:0:0:
414,57,38846,2,0,L|409:125,2,66.0000025177003,2|2|2,0:0|0:0|1:0,0:0:0:0:
311,155,39346,6,0,P|261:153|220:133,1,66.0000025177003,2|0,0:0|0:0,0:0:0:0:
113,78,39679,2,0,P|144:69|177:71,1,66.0000025177003,2|0,0:0|0:0,0:0:0:0:
293,146,40013,2,0,P|243:144|202:124,1,66.0000025177003,10|0,0:0|0:0,0:0:0:0:
92,82,40346,1,2,0:0:0:0:
64,92,40429,2,0,L|12:96,2,33.0000012588501,0|0|0,1:0|1:0|1:0,0:0:0:0:
111,165,40679,6,0,P|122:203|106:303,1,132.000005035401,2|0,1:0|0:0,0:0:0:0:
88,384,41179,1,4,3:0:0:0:
196,286,41346,2,0,L|268:291,1,66.0000025177003,8|0,0:0|0:0,0:0:0:0:
333,236,41679,1,2,0:0:0:0:
419,364,41846,6,0,L|270:374,2,132.000005035401,2|0|0,1:0|1:0|1:0,0:0:0:0:
328,171,42679,2,0,P|327:219|348:262,1,66.0000025177003,10|0,0:0|0:0,0:0:0:0:
493,306,43013,2,0,P|500:273|497:241,1,66.0000025177003,2|6,0:0|3:0,0:0:0:0:
279,320,43346,6,0,P|245:277|261:176,1,132.000005035401,2|2,1:0|0:0,0:0:0:0:
307,147,43846,1,4,3:0:0:0:
221,37,44012,1,8,0:0:0:0:
221,37,44179,2,0,L|226:105,2,66.0000025177003,2|2|2,0:0|0:0|1:0,0:0:0:0:
47,147,44679,6,0,P|102:154|131:151,1,66.0000025177003,2|0,0:0|0:0,0:0:0:0:
221,37,45013,2,0,P|188:37|155:43,1,66.0000025177003,2|0,0:0|0:0,0:0:0:0:
54,136,45346,2,0,P|109:143|138:140,1,66.0000025177003,10|0,0:0|0:0,0:0:0:0:
228,26,45680,2,0,P|195:26|162:32,1,66.0000025177003,2|2,0:0|3:0,0:0:0:0:
213,257,46013,6,0,L|203:125,1,132.000005035401,2|0,1:0|0:0,0:0:0:0:
149,57,46513,1,4,3:0:0:0:
288,101,46679,2,0,L|358:95,1,66.0000025177003,8|0,0:0|0:0,0:0:0:0:
415,28,47013,1,2,3:0:0:0:
502,241,47179,2,0,P|469:237|402:155,1,132.000005035401,2|0,1:0|0:0,0:0:0:0:
323,316,47679,2,0,P|356:312|388:302,1,66.0000025177003,0|0,3:0|1:0,0:0:0:0:
179,206,48013,5,10,0:0:0:0:
172,234,48096,1,8,0:0:0:0:
173,263,48179,1,8,0:0:0:0:
181,291,48263,1,8,0:0:0:0:
199,314,48346,1,2,0:0:0:0:
262,245,48513,1,2,3:0:0:0:
122,348,48679,6,0,P|97:305|99:199,1,132.000005035401,6|0,1:0|0:0,0:0:0:0:
179,206,49179,1,4,3:0:0:0:
96,88,49346,1,8,0:0:0:0:
96,88,49513,2,0,L|91:153,2,66.0000025177003,2|2|2,0:0|0:0|1:0,0:0:0:0:
342,99,50013,6,0,P|283:92|248:98,1,66.0000025177003,2|0,0:0|1:0,0:0:0:0:
179,206,50346,2,0,P|211:206|244:199,1,66.0000025177003,2|0,0:0|1:0,0:0:0:0:
336,112,50679,2,0,P|277:105|242:111,1,66.0000025177003,10|0,0:0|0:0,0:0:0:0:
173,219,51012,2,0,P|205:219|238:212,1,66.0000025177003,2|0,0:0|0:0,0:0:0:0:
405,56,51346,6,0,P|421:88|377:192,2,132.000005035401,2|0|8,1:0|0:0|0:0,0:0:0:0:
336,112,52179,1,0,0:0:0:0:
225,36,52346,1,2,0:0:0:0:
65,142,52513,6,0,L|196:132,2,132.000005035401,2|0|0,1:0|1:0|1:0,0:0:0:0:
35,284,53346,1,8,0:0:0:0:
35,284,53679,5,2,1:0:0:0:
64,281,53763,1,0,1:0:0:0:
93,278,53846,1,8,3:0:0:0:
122,275,53929,1,4,3:0:0:0:
151,271,54013,6,0,P|205:282|254:328,1,99.0000037765504,6|0,1:0|0:0,0:0:0:0:
252,334,54346,1,10,0:0:0:0:
341,181,54513,2,0,L|337:259,1,66.0000025177003,2|0,1:0|3:0,0:0:0:0:
236,128,54846,2,0,L|240:206,1,66.0000025177003,2|8,0:0|0:0,0:0:0:0:
331,49,55179,1,2,3:0:0:0:
331,49,55263,1,0,0:0:0:0:
331,49,55346,5,0,1:0:0:0:
419,109,55513,1,0,1:0:0:0:
239,193,55679,2,0,L|236:128,1,66.0000025177003,10|0,0:0|0:0,0:0:0:0:
337,246,56012,2,0,L|341:181,1,66.0000025177003,2|2,1:0|3:0,0:0:0:0:
253,359,56346,2,0,L|249:293,1,66.0000025177003,10|2,0:0|3:0,0:0:0:0:
80,208,56679,5,2,1:0:0:0:
80,208,56846,1,2,0:0:0:0:
133,313,57013,1,0,1:0:0:0:
133,313,57180,1,2,0:0:0:0:
180,153,57346,5,0,1:0:0:0:
133,313,57513,1,2,0:0:0:0:
180,153,57679,1,0,1:0:0:0:
133,313,57846,1,2,0:0:0:0:
180,153,58013,5,2,1:0:0:0:
342,150,58179,1,8,3:0:0:0:
342,150,58513,6,0,P|303:129|285:32,1,132.000005035401,4|8,3:0|3:0,0:0:0:0:
279,49,58929,1,8,0:3:0:0:
279,49,59013,1,12,3:3:0:0:
210,142,59179,1,6,3:0:0:0:
210,142,59263,1,2,0:0:0:0:
210,142,59346,6,0,L|37:139,1,158.399995166016,6|0,1:0|0:0,0:0:0:0:
14,136,59679,1,10,0:0:0:0:
97,328,59846,2,0,P|108:275|91:221,1,105.599996777344,0|0,1:0|3:0,0:0:0:0:
14,136,60179,1,0,1:0:0:0:
14,278,60346,1,8,0:0:0:0:
197,264,60513,1,2,1:0:0:0:
197,264,60596,1,2,0:0:0:0:
197,264,60679,6,0,P|275:243|370:261,1,158.399995166016,2|0,0:0|0:0,0:0:0:0:
392,263,61013,1,10,0:0:0:0:
345,51,61179,2,0,L|350:182,1,105.599996777344,0|0,1:0|3:0,0:0:0:0:
392,263,61513,1,0,1:0:0:0:
439,153,61679,1,8,0:0:0:0:
318,333,61846,1,2,1:2:0:0:
318,333,61929,1,0,1:0:0:0:
318,333,62013,6,0,L|145:330,1,158.399995166016,4|0,1:0|0:0,0:0:0:0:
122,333,62346,1,10,0:0:0:0:
63,148,62513,1,2,1:0:0:0:
150,200,62679,2,0,P|97:245|24:246,1,105.599996777344,2|0,3:2|1:0,0:0:0:0:
158,82,63013,1,10,0:0:0:0:
231,281,63179,6,0,P|267:318|317:332,1,105.599996777344,2|0,1:0|0:0,0:0:0:0:
413,167,63513,2,0,P|362:181|326:218,1,105.599996777344,2|8,1:0|0:0,0:0:0:0:
416,384,63846,2,0,L|416:262,1,105.599996777344,2|2,1:0|3:2,0:0:0:0:
332,112,64179,1,2,1:0:0:0:
230,279,64346,2,0,P|175:282|98:194,1,158.399995166016,10|2,0:0|0:0,0:0:0:0:
98,179,64679,6,0,L|278:167,1,158.399995166016,6|0,1:0|0:0,0:0:0:0:
293,163,65013,1,12,0:0:0:0:
108,85,65179,2,0,P|43:98|1:188,1,158.399995166016,0|0,1:0|0:0,0:0:0:0:
7,210,65513,1,0,1:0:0:0:
33,13,65679,1,8,0:0:0:0:
98,179,65846,1,2,3:2:0:0:
226,53,66013,6,0,L|344:45,1,105.599996777344,2|0,1:0|0:0,0:0:0:0:
486,175,66346,1,8,0:0:0:0:
433,67,66513,1,2,1:0:0:0:
405,215,66679,2,0,P|472:264|517:257,1,105.599996777344,2|0,3:2|1:0,0:0:0:0:
364,134,67013,1,10,0:0:0:0:
331,276,67179,6,0,L|225:283,1,105.599996777344,2|2,3:2|1:0,0:0:0:0:
128,289,67513,1,2,1:0:0:0:
205,55,67679,2,0,P|220:106|183:184,1,105.599996777344,10|0,0:0|1:0,0:0:0:0:
130,108,68013,1,0,0:0:0:0:
298,21,68179,2,0,L|305:126,1,105.599996777344,2|8,1:0|0:0,0:0:0:0:
220,344,68513,6,0,L|227:238,1,105.599996777344,2|2,3:2|1:0,0:0:0:0:
343,275,68846,1,2,1:0:0:0:
111,256,69013,2,0,P|64:209|62:148,1,105.599996777344,10|2,0:0|1:0,0:0:0:0:
168,38,69346,1,2,0:0:0:0:
151,172,69513,1,2,1:0:0:0:
69,47,69679,1,10,0:0:0:0:
272,131,69846,1,2,1:0:0:0:
272,131,69929,1,0,1:0:0:0:
272,131,70013,6,0,P|347:134|440:67,1,158.399995166016,4|0,1:0|0:0,0:0:0:0:
442,66,70346,1,10,0:0:0:0:
415,297,70513,2,0,L|427:180,1,105.599996777344,0|0,1:0|3:0,0:0:0:0:
442,66,70846,1,0,1:0:0:0:
321,25,71013,1,8,0:0:0:0:
291,288,71179,6,0,L|94:278,1,158.399995166016,2|0,1:0|0:0,0:0:0:0:
95,277,71513,1,0,1:0:0:0:
255,99,71679,2,0,P|220:174|172:200,1,105.599996777344,10|0,0:0|1:0,0:0:0:0:
95,277,72013,1,0,3:0:0:0:
141,105,72179,1,0,1:0:0:0:
209,316,72346,1,8,0:0:0:0:
99,193,72513,1,2,1:0:0:0:
99,193,72596,1,0,1:0:0:0:
99,193,72679,6,0,L|204:187,1,105.599996777344,4|0,1:0|0:0,0:0:0:0:
361,106,73013,2,0,L|255:100,1,105.599996777344,10|0,0:0|1:0,0:0:0:0:
436,178,73346,2,0,P|462:128|447:49,1,105.599996777344,2|0,3:2|1:0,0:0:0:0:
361,106,73679,1,10,0:0:0:0:
371,240,73846,6,0,P|421:266|500:251,1,105.599996777344,2|0,1:0|0:0,0:0:0:0:
321,326,74179,2,0,P|271:352|192:337,1,105.599996777344,2|8,1:0|0:0,0:0:0:0:
145,220,74513,2,0,P|197:219|243:244,1,105.599996777344,2|0,1:0|0:0,0:0:0:0:
58,346,74846,2,0,L|60:223,1,105.599996777344,2|8,1:0|0:0,0:0:0:0:
62,134,75179,1,2,3:2:0:0:
341,225,75346,6,0,L|182:222,1,158.399995166016,6|0,1:0|0:0,0:0:0:0:
145,220,75679,1,12,0:0:0:0:
226,124,75846,1,0,1:0:0:0:
167,309,76013,1,0,3:0:0:0:
143,134,76179,1,0,1:0:0:0:
167,309,76346,2,0,P|99:299|56:246,1,105.599996777344,10|0,0:0|0:0,0:0:0:0:
68,76,76679,6,0,P|137:40|209:68,1,158.399995166016,6|0,1:0|0:0,0:0:0:0:
235,95,77013,1,8,0:0:0:0:
143,134,77179,1,0,1:0:0:0:
306,161,77346,2,0,L|426:168,1,105.599996777344,2|0,0:0|1:0,0:0:0:0:
177,270,77679,2,0,L|57:277,1,105.599996777344,10|0,0:0|0:0,0:0:0:0:
143,134,78013,5,4,3:0:0:0:
143,134,78179,1,4,3:0:0:0:
321,122,78346,1,8,3:0:0:0:
238,182,78513,1,8,3:0:0:0:
302,35,78679,2,0,P|366:45|399:77,1,105.599996777344,0|0,1:0|1:0,0:0:0:0:
327,227,79013,2,0,L|320:107,1,105.599996777344,8|0,0:0|0:0,0:0:0:0:
411,291,79346,5,4,3:0:0:0:
411,291,79513,1,4,3:0:0:0:
244,330,79679,1,8,3:0:0:0:
335,348,79846,1,8,3:0:0:0:
219,240,80013,2,0,P|168:268|153:343,1,105.599996777344,0|0,1:0|1:0,0:0:0:0:
312,254,80346,2,0,L|305:134,1,105.599996777344,8|0,0:0|0:0,0:0:0:0:
110,21,80679,5,0,1:0:0:0:
110,21,80846,1,4,3:0:0:0:
324,17,81013,1,8,0:0:0:0:
123,143,81179,1,8,0:0:0:0:
305,148,81346,2,0,P|320:196|302:263,1,105.599996777344,4|4,3:0|3:0,0:0:0:0:
253,358,81679,1,8,0:0:0:0:
204,249,81846,6,0,L|332:249,1,105.599996777344,0|0,0:0|1:0,0:0:0:0:
188,156,82179,1,0,1:0:0:0:
127,317,82346,2,0,L|-1:317,1,105.599996777344,10|0,0:0|1:0,0:0:0:0:
181,137,82679,1,2,0:0:0:0:
139,333,82846,1,2,1:0:0:0:
174,119,83013,2,0,P|227:79|329:97,1,158.399995166016,10|0,0:0|0:0,0:0:0:0:
332,116,83346,6,0,L|145:119,1,158.399995166016,4|0,1:0|0:0,0:0:0:0:
136,119,83679,1,2,1:0:0:0:
231,312,83846,2,0,P|264:259|260:206,1,105.599996777344,2|0,3:2|1:0,0:0:0:0:
44,98,84179,2,0,P|46:150|76:192,1,105.599996777344,2|0,3:2|1:0,0:0:0:0:
172,235,84513,1,0,0:0:0:0:
233,98,84679,6,0,P|302:83|402:121,1,158.399995166016,4|0,1:0|0:0,0:0:0:0:
412,132,85013,1,2,1:2:0:0:
369,311,85179,2,0,L|367:205,1,105.599996777344,2|0,3:2|1:0,0:0:0:0:
413,26,85513,2,0,L|411:131,1,105.599996777344,2|0,3:2|1:0,0:0:0:0:
367,205,85846,1,0,0:0:0:0:
200,68,86013,5,14,0:0:0:0:
74,85,86179,1,0,1:0:0:0:
301,145,86346,1,8,0:0:0:0:
200,68,86512,1,0,1:0:0:0:
318,271,86679,5,8,0:0:0:0:
301,145,86845,1,0,1:0:0:0:
241,373,87013,1,8,0:0:0:0:
318,271,87179,1,0,1:0:0:0:
200,68,87346,5,12,0:0:0:0:
200,68,87679,1,2,0:0:0:0:
200,68,87846,1,2,0:0:0:0:
124,98,88013,2,0,P|158:140|222:147,1,105.599996777344,2|0,0:0|0:0,0:0:0:0:
279,102,88346,6,0,L|283:133,16,26.399999194336,2|0|0|0|0|0|0|0|0|0|0|0|0|0|0|0|0,0:0|0:0|0:0|0:0|0:0|0:0|0:0|0:0|0:0|0:0|0:0|0:0|0:0|0:0|0:0|0:0|0:0,0:0:0:0:
