osu file format v14

[General]
AudioFilename: audio.mp3
AudioLeadIn: 0
PreviewTime: 58346
Countdown: 0
SampleSet: Soft
StackLeniency: 0.2
Mode: 0
LetterboxInBreaks: 0
WidescreenStoryboard: 0

[Editor]
DistanceSpacing: 0.9
BeatDivisor: 4
GridSize: 16
TimelineZoom: 1.799999

[Metadata]
Title:Dakara, Hitori ja Nai -TV Size-
TitleUnicode:だから、ひとりじゃない -TV Size-
Artist:Little Glee Monster
ArtistUnicode:Little Glee Monster
Creator:-Sh1n1-
Version:Lasse's Expert
Source:僕のヒーローアカデミア 第2期
Tags:Boku no Hero Academia second Season ending shini arcwinolivirus akitoshi nardoxyribonucleic pentori sotarks iyiyo lasse mir critical_star
BeatmapID:1350403
BeatmapSetID:631624

[Difficulty]
HPDrainRate:7.2
CircleSize:4.3
OverallDifficulty:8.7
ApproachRate:9.2
SliderMultiplier:1.92
SliderTickRate:1

[Events]
//Background and Video events
Video,0,"video.mp4"
0,0,"BGStd.jpg",0,0
//Break Periods
//Storyboard Layer 0 (Background)
//Storyboard Layer 1 (Fail)
//Storyboard Layer 2 (Pass)
//Storyboard Layer 3 (Foreground)
//Storyboard Sound Samples

[TimingPoints]
680,333.333333333333,4,2,22,42,1,0
680,-142.857142857143,4,2,22,42,0,0
5513,-142.857142857143,4,2,22,52,0,0
6013,-83.3333333333333,4,2,22,72,0,0
6263,-90.9090909090909,4,2,99,5,0,0
6346,-90.9090909090909,4,2,22,72,0,0
7179,-125,4,2,22,72,0,0
7679,-90.9090909090909,4,2,22,72,0,0
8679,-125,4,2,22,72,0,0
9013,-90.9090909090909,4,2,22,72,0,0
11346,-125,4,2,22,72,0,0
11596,-90.9090909090909,4,2,99,5,0,0
11679,-90.9090909090909,4,2,22,72,0,0
12679,-125,4,2,22,72,0,0
13013,-90.9090909090908,4,2,22,72,0,0
13679,-90.9090909090908,4,2,22,72,0,0
16679,-111.111111111111,4,2,22,62,0,0
16929,-111.111111111111,4,2,99,5,0,0
17013,-111.111111111111,4,2,22,62,0,0
17346,-111.111111111111,4,2,22,62,0,0
17596,-111.111111111111,4,2,22,5,0,0
17679,-111.111111111111,4,2,22,62,0,0
18263,-111.111111111111,4,2,99,5,0,0
18346,-111.111111111111,4,2,22,62,0,0
36679,-114.942528735632,4,2,22,62,0,0
38013,-200,4,2,22,52,0,0
42929,-200,4,2,99,5,0,0
43013,-200,4,2,22,52,0,0
48013,-111.111111111111,4,2,22,52,0,0
48096,-111.111111111111,4,2,22,26,0,0
48179,-111.111111111111,4,2,22,52,0,0
48263,-111.111111111111,4,2,22,26,0,0
48346,-111.111111111111,4,2,22,52,0,0
48679,-200,4,2,22,52,0,0
54013,-100,4,2,22,62,0,0
54263,-200,4,2,99,5,0,0
54346,-100,4,2,22,62,0,0
56679,-100,4,2,22,64,0,0
57013,-100,4,2,22,66,0,0
57346,-100,4,2,22,68,0,0
57679,-100,4,2,22,70,0,0
58013,-100,4,2,22,72,0,0
58513,-140.845070422535,4,2,22,62,0,0
59346,-76.923076923077,4,2,22,72,0,1
59596,-200,4,2,99,5,0,1
59679,-76.9230769230769,4,2,22,72,0,1
64929,-200,4,2,99,5,0,1
65013,-76.9230769230769,4,2,22,72,0,1
69846,-76.9230769230769,4,2,22,72,0,0
70013,-76.9230769230769,4,2,22,72,0,1
70263,-200,4,2,99,5,0,1
70346,-76.9230769230769,4,2,22,72,0,1
75596,-200,4,2,99,5,0,1
75679,-76.9230769230769,4,2,22,72,0,1
83346,-100,4,2,22,62,0,0
84679,-90.9090909090909,4,2,22,72,0,0
86013,-90.9090909090909,4,2,22,82,0,1
87346,-90.9090909090909,4,2,22,72,0,0
87679,-133.333333333333,4,2,99,52,0,0
87846,-133.333333333333,4,2,99,42,0,0
88013,-133.333333333333,4,2,99,32,0,0
88346,-133.333333333333,4,2,99,22,0,0
88388,-133.333333333333,4,2,99,12,0,0
88429,-133.333333333333,4,2,99,11,0,0
88471,-133.333333333333,4,2,99,10,0,0
88513,-133.333333333333,4,2,99,9,0,0
88554,-133.333333333333,4,2,99,8,0,0
88596,-133.333333333333,4,2,99,7,0,0
88638,-133.333333333333,4,2,99,6,0,0
88679,-133.333333333333,4,2,99,5,0,0

[Colours]
Combo1 : 250,140,210
Combo2 : 150,160,190
Combo3 : 250,140,160
Combo4 : 240,190,150

[HitObjects]
93,85,680,5,2,0:0:0:0:
97,98,846,1,0,0:0:0:0:
101,111,1013,1,2,0:0:0:0:
93,85,1179,5,2,0:0:0:0:
97,98,1513,1,2,0:0:0:0:
101,111,1846,1,2,0:0:0:0:
221,176,2013,5,2,0:0:0:0:
212,202,2179,1,0,0:0:0:0:
204,228,2346,1,2,0:0:0:0:
221,176,2512,5,2,0:0:0:0:
212,202,2846,1,2,0:0:0:0:
204,228,3179,1,2,0:0:0:0:
54,284,3346,5,2,0:0:0:0:
65,321,3512,1,0,0:0:0:0:
78,360,3679,1,2,0:0:0:0:
54,284,3846,5,2,0:0:0:0:
65,321,4179,1,0,0:0:0:0:
101,111,4346,5,8,3:0:0:0:
204,228,4513,1,8,3:0:0:0:
246,32,4679,5,8,1:0:0:0:
101,111,4846,2,0,L|7:105,1,67.1999979492188,8|0,3:0|0:0,0:0:0:0:
204,228,5179,5,4,3:0:0:0:
346,141,5346,2,0,L|440:147,1,67.1999979492188,0|0,0:0|3:0,0:0:0:0:
384,334,5679,5,2,3:2:0:0:
382,308,5762,1,2,3:2:0:0:
380,283,5845,1,2,3:2:0:0:
378,258,5928,1,2,3:2:0:0:
377,233,6013,6,0,B|365:367|365:367|395:314,1,172.799994726563,0|0,1:0|0:0,0:0:0:0:
293,309,6346,5,10,0:0:0:0:
272,207,6513,2,0,P|289:264|293:325,1,105.600003222656,2|0,1:0|3:0,0:0:0:0:
398,130,6846,2,0,P|381:187|377:248,1,105.600003222656,2|8,1:0|0:0,0:0:0:0:
258,88,7179,6,0,P|293:78|344:49,1,76.8,0|0,1:0|3:0,0:0:0:0:
329,60,7513,1,0,1:0:0:0:
272,207,7679,5,10,0:0:0:0:
329,60,7846,1,2,1:0:0:0:
376,232,8013,5,0,3:0:0:0:
473,100,8179,1,2,1:2:0:0:
459,116,8263,1,2,0:2:0:0:
451,135,8346,1,10,0:2:0:0:
329,60,8513,1,2,3:0:0:0:
376,232,8679,6,0,P|370:190|356:136,1,76.8,0|0,1:0|1:0,0:0:0:0:
195,206,9013,5,10,0:0:0:0:
184,311,9179,2,0,L|197:188,1,105.600003222656,2|0,1:0|3:0,0:0:0:0:
387,337,9513,2,0,L|375:231,1,105.600003222656,0|8,1:0|0:0,0:0:0:0:
387,337,9846,1,2,3:0:0:0:
195,206,10013,5,2,3:0:0:0:
184,311,10179,1,0,1:0:0:0:
364,126,10346,5,10,0:0:0:0:
375,232,10512,1,0,1:0:0:0:
206,99,10679,5,2,3:0:0:0:
195,206,10845,1,0,1:0:0:0:
353,20,11013,5,10,0:0:0:0:
364,126,11179,1,2,3:0:0:0:
206,99,11346,6,0,P|249:88|294:82,1,76.8,0|0,1:0|0:0,0:0:0:0:
117,159,11679,5,10,0:0:0:0:
83,65,11846,2,0,P|113:106|116:158,1,105.600003222656,2|0,1:0|3:0,0:0:0:0:
281,83,12179,2,0,P|240:115|224:165,1,105.600003222656,2|8,1:0|0:0,0:0:0:0:
281,83,12513,1,2,3:0:0:0:
228,240,12679,6,0,P|232:200|220:157,1,76.8,0|0,1:0|1:0,0:0:0:0:
33,215,13013,5,10,0:0:0:0:
138,207,13179,2,0,L|33:215,1,105.600003222656,2|0,1:0|3:0,0:0:0:0:
333,247,13513,2,0,L|227:239,2,105.600003222656,2|8|2,1:0|0:0|3:0,0:0:0:0:
400,284,13929,1,0,1:0:0:0:
419,298,14013,5,2,1:0:0:0:
439,182,14346,1,0,1:0:0:0:
459,66,14679,1,0,1:0:0:0:
419,298,15013,1,0,1:0:0:0:
459,66,15346,5,2,1:0:0:0:
439,182,15513,1,0,1:0:0:0:
419,298,15679,1,0,1:0:0:0:
373,16,15846,5,2,1:0:0:0:
353,132,16013,1,0,1:0:0:0:
333,248,16179,1,0,1:0:0:0:
267,82,16346,5,0,1:0:0:0:
259,75,16429,1,0,1:0:0:0:
218,64,16513,5,2,1:0:0:0:
210,57,16596,1,0,1:0:0:0:
169,46,16679,6,0,L|160:250,1,172.799994726563,6|8,1:0|0:0,0:0:0:0:
183,320,17179,1,2,1:0:0:0:
161,218,17346,2,0,B|130:193|71:180|32:199|32:199|46:211|71:213,1,172.799994726563,2|8,0:0|0:0,0:0:0:0:
199,133,17846,5,2,0:0:0:0:
161,218,18013,2,0,L|169:46,1,172.799994726563,2|8,1:0|0:0,0:0:0:0:
199,133,18513,5,2,1:0:0:0:
259,63,18679,1,2,0:0:0:0:
290,150,18846,1,0,1:0:0:0:
169,46,19013,1,8,0:0:0:0:
290,150,19179,5,2,0:0:0:0:
350,80,19346,2,0,P|314:152|307:249,1,172.799994726563,2|8,1:0|0:0,0:0:0:0:
290,150,19846,1,2,1:0:0:0:
186,122,20013,2,0,P|257:170|306:242,1,172.799994726563,2|8,0:0|0:0,0:0:0:0:
259,63,20513,5,2,0:0:0:0:
186,122,20679,2,0,P|96:127|87:56,1,172.799994726563,2|8,1:0|0:0,0:0:0:0:
186,122,21179,5,2,1:0:0:0:
259,63,21346,1,2,0:0:0:0:
290,150,21513,1,0,1:0:0:0:
346,32,21679,1,8,0:0:0:0:
290,150,21846,5,2,3:0:0:0:
185,121,22013,2,0,P|258:163|267:245,1,172.799994726563,2|8,1:0|0:0,0:0:0:0:
181,215,22513,5,2,1:0:0:0:
296,228,22679,2,0,P|286:145|213:104,1,172.799994726563,2|8,0:0|0:0,0:0:0:0:
181,215,23179,5,2,3:0:0:0:
100,201,23346,2,0,P|139:219|182:214,1,86.3999973632813,2|0,1:0|0:0,0:0:0:0:
214,104,23679,5,10,0:0:0:0:
214,104,23846,1,0,1:0:0:0:
181,215,24013,5,2,0:0:0:0:
181,215,24180,1,0,1:0:0:0:
133,92,24346,5,10,0:0:0:0:
181,215,24513,1,2,3:0:0:0:
133,92,24679,6,0,P|176:87|215:105,1,86.3999973632813,2|0,1:0|1:0,0:0:0:0:
214,104,25013,1,8,0:0:0:0:
49,78,25179,5,0,1:0:0:0:
133,92,25346,1,2,0:0:0:0:
49,78,25513,1,0,1:0:0:0:
214,104,25679,6,0,P|175:86|133:92,1,86.3999973632813,10|2,0:0|3:0,0:0:0:0:
121,173,26013,5,2,1:0:0:0:
133,92,26179,1,0,1:0:0:0:
109,255,26346,5,8,0:0:0:0:
214,104,26513,1,10,0:0:0:0:
202,186,26679,5,2,0:0:0:0:
214,104,26846,1,2,3:0:0:0:
190,268,27013,1,8,0:0:0:0:
281,197,27179,5,2,3:0:0:0:
351,290,27346,2,0,L|369:111,1,172.799994726563,2|8,1:0|0:0,0:0:0:0:
460,166,27846,1,2,1:0:0:0:
368,118,28013,2,0,B|282:90|285:147|196:116,1,172.799994726563,2|8,0:0|0:0,0:0:0:0:
245,17,28513,5,2,3:2:0:0:
199,133,28679,2,0,B|285:162|282:105|368:133,1,172.799994726563,2|8,1:0|0:0,0:0:0:0:
452,183,29179,5,2,1:0:0:0:
368,133,29346,1,2,0:0:0:0:
366,232,29513,1,0,1:0:0:0:
453,83,29679,1,8,0:0:0:0:
366,232,29846,5,2,3:0:0:0:
451,283,30013,2,0,P|369:257|343:342,1,172.799994726563,2|8,1:0|0:0,0:0:0:0:
366,232,30513,1,2,1:0:0:0:
255,230,30679,2,0,P|333:241|335:321,1,172.799994726563,2|8,0:0|0:0,0:0:0:0:
182,305,31180,5,2,3:2:0:0:
255,230,31346,2,0,L|258:45,1,172.799994726563,2|8,1:0|0:0,0:0:0:0:
336,116,31846,5,2,1:0:0:0:
258,57,32013,1,2,0:0:0:0:
179,117,32179,1,0,1:0:0:0:
82,30,32346,1,8,0:0:0:0:
179,117,32513,5,2,3:0:0:0:
258,57,32680,2,0,P|205:126|215:211,1,172.799994726563,2|8,1:0|0:0,0:0:0:0:
309,154,33180,5,2,1:0:0:0:
186,202,33346,2,0,P|178:118|230:51,1,172.799994726563,0|8,0:0|0:0,0:0:0:0:
313,60,33846,5,2,3:2:0:0:
229,51,34013,2,0,P|272:62|330:56,1,86.3999973632813,2|0,1:0|0:0,0:0:0:0:
391,26,34346,5,10,0:0:0:0:
391,26,34513,1,0,1:0:0:0:
313,60,34680,5,2,0:0:0:0:
313,60,34847,1,0,1:0:0:0:
459,76,35013,5,10,0:0:0:0:
313,60,35180,1,2,3:0:0:0:
449,159,35346,5,4,3:0:0:0:
459,76,35513,1,4,3:0:0:0:
303,144,35679,5,8,3:0:0:0:
313,60,35846,1,8,3:0:0:0:
371,194,36013,5,2,1:0:0:0:
381,110,36179,1,0,1:0:0:0:
225,178,36346,5,10,0:0:0:0:
235,94,36513,1,8,3:0:0:0:
293,227,36679,6,0,L|305:129,2,83.5200007009277,4|2|8,3:0|3:0|0:0,0:0:0:0:
148,212,37179,1,2,3:0:0:0:
285,311,37346,5,0,1:0:0:0:
225,178,37513,1,2,3:0:0:0:
208,346,37679,5,8,0:0:0:0:
293,227,37846,1,2,3:0:0:0:
140,297,38013,5,4,1:0:0:0:
140,297,38346,5,0,0:0:0:0:
208,346,38513,1,4,3:0:0:0:
217,262,38679,1,8,0:0:0:0:
140,297,38846,6,0,L|79:289,2,48,2|2|2,0:0|0:0|1:0,0:0:0:0:
217,262,39346,2,0,L|225:201,1,48,2|0,0:0|0:0,0:0:0:0:
145,223,39679,2,0,L|97:217,1,48,2|0,0:0|0:0,0:0:0:0:
184,103,40013,2,0,L|177:150,1,48,10|0,0:0|0:0,0:0:0:0:
101,115,40346,2,0,L|96:81,3,24,2|0|0|0,0:0|1:0|1:0|1:0,0:0:0:0:
97,91,40679,6,0,P|138:114|196:93,1,96,2|0,1:0|0:0,0:0:0:0:
250,65,41179,2,0,L|315:76,1,48,4|8,3:0|0:0,0:0:0:0:
297,73,41679,5,2,0:0:0:0:
372,88,41846,2,0,L|437:99,2,48,2|0|0,1:0|0:0|1:0,0:0:0:0:
297,73,42346,1,0,0:0:0:0:
322,146,42513,1,0,1:0:0:0:
183,101,42679,6,0,P|217:106|237:135,1,72,10|0,0:0|0:0,0:0:0:0:
238,136,43013,2,0,L|243:187,1,48,2|6,0:0|3:0,0:0:0:0:
347,306,43346,5,2,1:0:0:0:
347,306,43679,5,2,0:0:0:0:
415,257,43846,1,4,3:0:0:0:
424,341,44012,1,8,0:0:0:0:
347,306,44179,6,0,L|286:298,2,48,2|2|2,0:0|0:0|1:0,0:0:0:0:
415,257,44679,2,0,L|423:196,1,48,2|0,0:0|0:0,0:0:0:0:
340,223,45012,2,0,L|292:217,1,48,2|0,0:0|0:0,0:0:0:0:
421,209,45346,2,0,L|468:216,1,48,10|0,0:0|0:0,0:0:0:0:
453,135,45679,2,0,L|460:88,1,48,2|2,0:0|3:0,0:0:0:0:
394,38,46012,6,0,P|350:53|288:44,1,96,2|0,1:0|0:0,0:0:0:0:
223,62,46512,2,0,P|196:56|155:56,1,48,4|8,3:0|0:0,0:0:0:0:
176,54,47012,5,2,3:0:0:0:
100,63,47179,2,0,L|34:69,2,48,2|0|2,1:0|0:0|1:0,0:0:0:0:
176,54,47679,1,0,3:0:0:0:
145,125,47846,1,0,1:0:0:0:
301,89,48013,6,0,L|312:44,1,43.1999986816407,10|8,0:0|0:0,0:0:0:0:
327,104,48179,2,0,L|338:59,1,43.1999986816407,8|8,0:0|0:0,0:0:0:0:
347,192,48346,5,2,0:0:0:0:
327,104,48513,1,2,3:0:0:0:
280,253,48679,5,6,1:0:0:0:
280,253,49013,5,0,0:0:0:0:
358,273,49179,1,4,3:0:0:0:
301,330,49346,1,8,0:0:0:0:
280,253,49513,6,0,L|230:247,2,48,2|2|2,0:0|0:0|1:0,0:0:0:0:
358,273,50013,2,0,L|408:279,1,48,2|0,0:0|1:0,0:0:0:0:
476,238,50346,2,0,L|482:188,1,48,2|0,0:0|1:0,0:0:0:0:
352,195,50679,2,0,L|400:201,1,48,10|0,0:0|0:0,0:0:0:0:
433,125,51013,5,2,0:0:0:0:
433,125,51179,1,2,0:0:0:0:
352,195,51346,5,2,1:0:0:0:
352,195,51679,5,0,0:0:0:0:
287,144,51846,1,4,3:0:0:0:
276,226,52013,1,8,0:0:0:0:
276,226,52346,5,2,0:0:0:0:
211,175,52513,2,0,P|184:169|151:169,2,48,2|0|0,1:0|0:0|1:0,0:0:0:0:
276,226,53013,5,0,0:0:0:0:
211,175,53180,1,0,1:0:0:0:
280,96,53346,2,0,P|286:123|286:156,1,48,8|0,0:0|0:0,0:0:0:0:
196,258,53679,5,2,1:0:0:0:
188,251,53762,1,0,1:0:0:0:
147,240,53846,5,8,3:0:0:0:
139,233,53929,1,4,3:0:0:0:
98,222,54013,6,0,B|132:198|132:198|98:328,1,144,6|0,1:0|0:0,0:0:0:0:
90,215,54346,1,10,0:0:0:0:
72,113,54513,2,0,P|81:149|80:215,1,96,2|0,1:0|3:0,0:0:0:0:
192,79,54846,1,2,3:2:0:0:
176,103,54929,1,0,3:2:0:0:
172,131,55013,1,8,0:0:0:0:
358,133,55179,6,0,L|263:137,2,96,2|0|0,3:0|1:0|1:0,0:0:0:0:
337,308,55679,1,10,0:0:0:0:
317,214,55846,1,0,1:0:0:0:
208,344,56013,1,2,1:0:0:0:
236,247,56179,1,2,3:0:0:0:
86,305,56346,1,10,0:0:0:0:
156,215,56513,1,2,3:0:0:0:
337,308,56679,5,2,1:0:0:0:
358,133,56846,1,2,0:0:0:0:
86,305,57013,5,0,1:0:0:0:
65,130,57180,1,2,0:0:0:0:
348,221,57346,5,0,1:0:0:0:
369,46,57513,1,2,0:0:0:0:
79,219,57679,5,0,1:0:0:0:
58,44,57846,1,2,0:0:0:0:
208,344,58013,5,2,1:3:0:0:
284,0,58179,1,10,0:3:0:0:
90,306,58513,5,4,0:3:0:0:
90,306,58679,2,0,P|56:303|22:311,1,68.1599965678713,2|8,0:0|2:3,0:0:0:0:
79,219,59013,1,4,0:3:0:0:
197,338,59179,5,10,2:3:0:0:
202,323,59263,1,10,2:3:0:0:
207,308,59346,2,0,B|136:302|136:302|95:317|95:317|22:311,1,187.199991430664,6|0,1:0|0:0,0:0:0:0:
79,219,59679,1,10,0:0:0:0:
212,293,59846,6,0,B|139:287|139:287|90:305,1,124.79999428711,0|0,1:0|3:0,0:0:0:0:
295,361,60179,2,0,P|318:304|307:243,1,124.79999428711,0|8,1:0|0:0,0:0:0:0:
141,144,60513,5,2,1:0:0:0:
141,144,60596,1,2,0:0:0:0:
141,144,60679,2,0,L|266:131,1,124.79999428711,2|0,0:0|1:0,0:0:0:0:
79,219,61013,5,10,0:0:0:0:
46,128,61179,1,0,1:0:0:0:
141,144,61346,5,0,3:0:0:0:
154,20,61513,2,0,L|141:145,1,124.79999428711,0|8,1:0|0:0,0:0:0:0:
337,119,61846,5,2,1:2:0:0:
303,134,61929,1,0,1:0:0:0:
265,131,62013,1,4,1:0:0:0:
290,57,62179,1,0,0:0:0:0:
412,215,62346,5,10,0:0:0:0:
460,110,62513,1,2,1:0:0:0:
498,306,62679,2,0,P|495:243|484:182,1,124.79999428711,2|0,3:2|1:0,0:0:0:0:
290,57,63013,5,10,0:0:0:0:
251,253,63179,2,0,P|254:191|265:130,1,124.79999428711,2|0,1:0|0:0,0:0:0:0:
498,306,63513,2,0,P|495:243|484:182,1,124.79999428711,2|8,1:0|0:0,0:0:0:0:
290,57,63846,5,2,1:0:0:0:
251,253,64013,1,2,3:2:0:0:
484,182,64179,1,2,1:0:0:0:
327,305,64346,5,10,0:3:0:0:
343,257,64429,1,10,0:3:0:0:
332,208,64513,1,10,0:3:0:0:
297,172,64596,1,10,0:3:0:0:
249,159,64679,6,0,B|194:157|194:157|140:189|140:189|70:184,1,187.199991430664,6|0,1:0|0:0,0:0:0:0:
55,68,65013,2,0,P|82:124|71:184,1,124.79999428711,12|0,0:0|1:0,0:0:0:0:
249,159,65346,5,0,0:0:0:0:
233,43,65513,2,0,P|222:103|248:158,1,124.79999428711,0|8,1:0|0:0,0:0:0:0:
418,149,65846,5,2,3:2:0:0:
321,216,66013,2,0,B|352:147|418:149|418:149|352:147|314:91,1,249.599988574219,2|8,1:0|0:0,0:0:0:0:
127,163,66513,5,2,1:0:0:0:
248,158,66679,2,0,P|180:147|121:167,1,124.79999428711,2|0,3:2|1:0,0:0:0:0:
20,314,67013,5,10,0:0:0:0:
31,180,67179,1,2,3:2:0:0:
48,203,67263,1,2,0:0:0:0:
60,229,67346,1,2,1:0:0:0:
192,272,67513,5,2,1:0:0:0:
182,103,67679,1,10,0:0:0:0:
60,229,67846,1,0,1:0:0:0:
50,60,68013,1,0,0:0:0:0:
307,99,68179,6,0,L|165:104,1,124.79999428711,0|8,1:0|0:0,0:0:0:0:
60,229,68513,1,2,3:2:0:0:
85,216,68596,1,2,0:0:0:0:
113,218,68679,1,2,1:0:0:0:
196,352,68846,5,2,1:0:0:0:
242,202,69013,1,10,0:0:0:0:
106,309,69179,5,2,1:0:0:0:
69,127,69346,1,2,0:0:0:0:
251,90,69513,1,2,1:0:0:0:
288,273,69679,1,10,0:0:0:0:
433,53,69846,5,2,1:0:0:0:
418,48,69930,1,0,1:0:0:0:
403,43,70013,2,0,B|397:114|397:114|412:155|412:155|406:228,1,187.199991430664,4|0,1:0|0:0,0:0:0:0:
326,188,70346,1,10,0:0:0:0:
388,38,70513,6,0,B|384:130|384:130|419:62,1,124.79999428711,0|0,1:0|3:0,0:0:0:0:
417,289,70846,2,0,B|421:197|421:197|386:265,1,124.79999428711,0|8,1:0|0:0,0:0:0:0:
250,183,71179,5,2,1:0:0:0:
250,183,71263,1,2,0:0:0:0:
250,183,71346,2,0,B|290:136|290:136|326:187,1,124.79999428711,2|0,0:0|1:0,0:0:0:0:
187,258,71680,5,10,0:0:0:0:
76,158,71846,1,0,1:0:0:0:
43,303,72013,5,0,3:0:0:0:
263,262,72179,2,0,B|223:309|223:309|186:257,1,124.79999428711,0|8,1:0|0:0,0:0:0:0:
133,97,72513,5,2,1:0:0:0:
152,128,72596,1,0,1:0:0:0:
154,166,72680,1,4,1:0:0:0:
76,158,72846,1,0,0:0:0:0:
230,119,73013,5,10,0:0:0:0:
152,128,73179,1,0,1:0:0:0:
348,154,73346,2,0,P|290:129|229:119,1,124.79999428711,2|0,3:2|1:0,0:0:0:0:
109,266,73679,5,10,0:0:0:0:
305,292,73846,2,0,P|247:267|186:257,1,124.79999428711,2|0,1:0|0:0,0:0:0:0:
20,352,74179,2,0,P|69:314|109:266,1,124.79999428711,2|8,1:0|0:0,0:0:0:0:
303,276,74513,6,0,P|245:251|184:241,1,124.79999428711,2|0,1:0|0:0,0:0:0:0:
17,335,74846,2,0,P|66:297|106:249,1,124.79999428711,2|8,1:0|0:0,0:0:0:0:
301,260,75179,5,2,3:2:0:0:
204,346,75346,2,0,B|165:377|165:377|185:240,1,187.199991430664,6|0,1:0|0:0,0:0:0:0:
199,162,75679,6,0,B|239:209|239:209|186:240,1,124.79999428711,12|0,0:0|1:0,0:0:0:0:
43,177,76013,1,0,3:0:0:0:
122,189,76179,1,0,1:0:0:0:
105,36,76346,6,0,B|51:67|51:67|92:114,1,124.79999428711,10|0,0:0|0:0,0:0:0:0:
59,329,76679,2,0,B|112:297|112:297|71:250,1,124.79999428711,6|0,1:0|0:0,0:0:0:0:
92,114,77013,5,8,0:0:0:0:
71,250,77179,1,0,1:0:0:0:
315,55,77346,6,0,B|282:107|282:107|235:66,1,124.79999428711,2|0,0:0|1:0,0:0:0:0:
71,250,77679,2,0,B|103:197|103:197|150:238,1,124.79999428711,10|0,0:0|0:0,0:0:0:0:
279,330,78013,5,4,3:0:0:0:
310,202,78179,1,4,3:0:0:0:
407,361,78346,1,8,3:0:0:0:
438,233,78513,1,8,3:0:0:0:
222,145,78679,6,0,B|181:98|181:98|234:66,1,124.79999428711,0|0,1:0|1:0,0:0:0:0:
227,364,79012,2,0,B|279:331|279:331|238:284,1,124.79999428711,8|0,0:0|0:0,0:0:0:0:
71,250,79346,5,4,3:0:0:0:
222,145,79513,1,4,3:0:0:0:
131,335,79679,1,8,3:0:0:0:
117,156,79846,1,8,3:0:0:0:
279,331,80013,6,0,B|326:372|326:372|358:319,1,124.79999428711,0|0,1:0|1:0,0:0:0:0:
268,105,80346,2,0,B|221:146|221:146|189:93,1,124.79999428711,8|0,0:0|0:0,0:0:0:0:
37,348,80679,5,0,1:0:0:0:
474,39,81013,5,8,0:0:0:0:
440,193,81179,1,8,0:0:0:0:
268,105,81346,5,4,3:0:0:0:
380,99,81513,1,4,3:0:0:0:
360,278,81679,1,8,3:0:0:0:
440,193,81846,1,0,0:0:0:0:
268,105,82013,5,0,1:0:0:0:
360,278,82179,1,0,1:0:0:0:
137,260,82346,6,0,P|180:218|241:225,1,124.79999428711,10|0,0:0|1:0,0:0:0:0:
103,373,82679,1,2,0:0:0:0:
40,175,82846,1,2,1:0:0:0:
241,225,83013,2,0,P|301:231|344:189,1,124.79999428711,10|0,0:0|0:0,0:0:0:0:
128,7,83346,5,4,1:0:0:0:
128,7,83679,5,2,1:0:0:0:
143,100,83846,2,0,P|141:52|128:7,1,96,2|0,3:2|1:0,0:0:0:0:
241,225,84179,1,2,3:2:0:0:
256,131,84346,2,0,P|242:176|240:224,1,96,0|0,1:0|0:0,0:0:0:0:
410,356,84679,5,4,1:0:0:0:
410,356,85012,5,2,1:2:0:0:
308,347,85179,2,0,P|359:339|409:355,1,105.600003222656,2|0,3:2|1:0,0:0:0:0:
240,224,85513,1,2,3:2:0:0:
138,233,85680,2,0,P|189:240|239:224,1,105.600003222656,0|0,1:0|0:0,0:0:0:0:
52,337,86013,5,14,0:0:0:0:
181,104,86179,1,0,1:0:0:0:
51,240,86346,21,8,0:0:0:0:
279,102,86513,1,0,1:0:0:0:
98,155,86679,5,8,0:0:0:0:
364,149,86847,1,0,1:0:0:0:
181,104,87013,5,8,0:0:0:0:
414,232,87179,1,0,1:0:0:0:
1,157,87346,5,12,0:0:0:0:
1,157,87679,6,0,L|-8:70,2,72.0000027465821,2|2|2,0:0|0:0|0:0,0:0:0:0:
181,104,88346,6,0,L|183:78,20,18.0000006866455,6|0|0|0|0|0|0|0|0|0|0|0|0|0|0|0|0|0|0|0|0,0:2|0:0|0:0|0:0|0:0|0:0|0:0|0:0|0:2|0:0|0:0|0:0|0:0|0:0|0:0|0:0|0:0|0:0|0:0|0:0|0:0,0:0:0:0:
