osu file format v14

[General]
AudioFilename: audio.mp3
AudioLeadIn: 0
PreviewTime: 58346
Countdown: 0
SampleSet: Soft
StackLeniency: 0.5
Mode: 3
LetterboxInBreaks: 0
SpecialStyle: 0
WidescreenStoryboard: 0

[Editor]
Bookmarks: 84679
DistanceSpacing: 2
BeatDivisor: 4
GridSize: 32
TimelineZoom: 1.5

[Metadata]
Title:Dakara, Hitori ja Nai -TV Size-
TitleUnicode:だから、ひとりじゃない -TV Size-
Artist:Little Glee Monster
ArtistUnicode:Little Glee Monster
Creator:-Sh1n1-
Version:CS' 4K MX
Source:僕のヒーローアカデミア 第2期
Tags:Boku no Hero Academia second Season ending shini arcwinolivirus akitoshi nardoxyribonucleic pentori sotarks iyiyo lasse mir critical_star
BeatmapID:1357681
BeatmapSetID:631624

[Difficulty]
HPDrainRate:8
CircleSize:4
OverallDifficulty:8
ApproachRate:7.5
SliderMultiplier:1.4
SliderTickRate:2

[Events]
//Background and Video events
Video,0,"video.mp4"
0,0,"BGMania.jpg",0,0
//Break Periods
//Storyboard Layer 0 (Background)
//Storyboard Layer 1 (Fail)
//Storyboard Layer 2 (Pass)
//Storyboard Layer 3 (Foreground)
//Storyboard Sound Samples

[TimingPoints]
680,333.333333333333,4,2,22,40,1,0
59346,-100,4,2,22,40,0,1
83346,-100,4,2,22,40,0,0

[HitObjects]
64,192,680,128,0,2013:0:0:0:0:
192,192,680,1,2,0:0:0:0:
320,192,846,1,0,0:0:0:0:
448,192,1013,1,2,0:0:0:0:
192,192,1179,1,2,0:0:0:0:
320,192,1513,1,2,0:0:0:0:
448,192,1846,1,2,0:0:0:0:
320,192,2013,1,2,0:0:0:0:
192,192,2013,128,0,3346:0:0:0:0:
448,192,2179,1,0,0:0:0:0:
64,192,2346,1,2,0:0:0:0:
320,192,2513,1,2,0:0:0:0:
448,192,2846,1,2,0:0:0:0:
64,192,3179,1,2,0:0:0:0:
448,192,3346,128,2,4513:0:0:0:0:
320,192,3346,1,2,0:0:0:0:
192,192,3513,1,0,0:0:0:0:
64,192,3679,1,2,0:0:0:0:
320,192,3846,1,2,0:0:0:0:
320,192,4179,1,0,0:0:0:0:
64,192,4346,1,8,3:0:0:0:
192,192,4346,1,0,0:0:0:0:
192,192,4513,1,8,3:0:0:0:
320,192,4513,1,0,0:0:0:0:
320,192,4679,1,8,1:0:0:0:
448,192,4679,1,0,0:0:0:0:
64,192,4679,1,0,0:0:0:0:
192,192,4846,1,8,3:0:0:0:
448,192,4846,1,0,0:0:0:0:
64,192,5013,1,0,0:0:0:0:
320,192,5179,1,4,3:0:0:0:
448,192,5179,1,0,0:0:0:0:
64,192,5346,1,0,0:0:0:0:
192,192,5346,1,0,0:0:0:0:
192,192,5513,1,0,3:0:0:0:
320,192,5513,1,0,3:0:0:0:
64,192,5596,1,0,0:0:0:0:
320,192,5679,1,2,3:2:0:0:
448,192,5679,1,0,0:0:0:0:
192,192,5763,1,2,3:2:0:0:
64,192,5846,1,2,3:2:0:0:
448,192,5846,1,0,0:0:0:0:
320,192,5929,1,2,3:2:0:0:
192,192,6013,1,0,1:0:0:0:
448,192,6013,1,0,0:0:0:0:
64,192,6013,1,0,0:0:0:0:
448,192,6346,1,8,0:0:0:0:
192,192,6346,1,2,0:0:0:0:
64,192,6346,128,0,6846:0:0:0:0:
320,192,6513,1,2,1:0:0:0:
448,192,6513,128,0,6846:0:0:0:0:
192,192,6846,1,2,1:0:0:0:
320,192,6846,1,0,0:0:0:0:
64,192,7013,1,0,0:0:0:0:
448,192,7013,1,8,0:0:0:0:
320,192,7013,1,0,0:0:0:0:
192,192,7179,1,0,1:0:0:0:
64,192,7179,1,0,0:0:0:0:
320,192,7179,1,0,0:0:0:0:
448,192,7346,1,0,3:0:0:0:
192,192,7513,1,0,1:0:0:0:
320,192,7513,1,0,0:0:0:0:
192,192,7679,128,8,8179:0:0:0:0:
448,192,7679,1,2,0:0:0:0:
64,192,7679,1,0,0:0:0:0:
64,192,7846,128,2,8179:1:0:0:0:
320,192,7846,1,0,0:0:0:0:
448,192,8013,128,0,8096:3:0:0:0:
320,192,8179,128,2,8263:1:2:0:0:
192,192,8346,128,8,8429:0:2:0:0:
448,192,8346,1,2,0:2:0:0:
64,192,8513,128,2,8596:3:0:0:0:
320,192,8513,1,0,0:0:0:0:
448,192,8679,1,0,0:0:0:0:
192,192,8679,1,0,1:0:0:0:
64,192,8679,1,0,0:0:0:0:
320,192,8846,1,0,1:0:0:0:
192,192,8846,1,0,0:0:0:0:
64,192,9013,1,10,0:0:0:0:
192,192,9013,128,8,9513:0:0:0:0:
448,192,9013,1,0,0:0:0:0:
448,192,9179,128,2,9513:1:0:0:0:
320,192,9179,1,0,0:0:0:0:
64,192,9513,1,0,1:0:0:0:
320,192,9513,1,0,0:0:0:0:
448,192,9679,1,8,0:0:0:0:
192,192,9679,1,0,0:0:0:0:
64,192,9679,1,0,0:0:0:0:
320,192,9846,1,2,3:0:0:0:
192,192,9846,1,0,0:0:0:0:
64,192,10013,128,2,10179:3:0:0:0:
448,192,10013,1,0,0:0:0:0:
448,192,10179,1,0,1:0:0:0:
320,192,10179,1,0,0:0:0:0:
192,192,10346,128,10,10513:0:0:0:0:
64,192,10346,1,8,0:0:0:0:
448,192,10513,1,0,1:0:0:0:
64,192,10513,1,0,0:0:0:0:
320,192,10679,128,2,10846:3:0:0:0:
192,192,10679,1,0,0:0:0:0:
192,192,10846,1,0,1:0:0:0:
64,192,10846,1,0,0:0:0:0:
448,192,11013,128,2,11179:0:0:0:0:
320,192,11013,1,8,0:0:0:0:
64,192,11179,1,0,0:0:0:0:
320,192,11179,1,2,3:0:0:0:
192,192,11346,1,0,0:0:0:0:
448,192,11346,1,0,1:0:0:0:
64,192,11346,1,0,0:0:0:0:
448,192,11679,128,2,12179:0:0:0:0:
320,192,11679,1,8,0:0:0:0:
64,192,11679,1,0,0:0:0:0:
320,192,11846,128,2,12179:1:0:0:0:
192,192,11846,1,0,0:0:0:0:
64,192,12013,1,0,3:0:0:0:
192,192,12179,1,2,1:0:0:0:
64,192,12179,1,0,0:0:0:0:
320,192,12346,1,2,0:0:0:0:
448,192,12346,1,0,0:0:0:0:
192,192,12346,1,8,0:0:0:0:
64,192,12513,1,2,3:0:0:0:
448,192,12513,1,0,0:0:0:0:
192,192,12679,1,0,1:0:0:0:
64,192,12679,1,0,0:0:0:0:
320,192,12679,1,0,0:0:0:0:
448,192,12846,1,0,0:0:0:0:
320,192,12846,1,0,1:0:0:0:
64,192,13013,128,8,13513:0:0:0:0:
192,192,13013,1,2,0:0:0:0:
448,192,13013,1,0,0:0:0:0:
192,192,13179,128,2,13513:1:0:0:0:
320,192,13179,1,0,0:0:0:0:
448,192,13346,1,0,3:0:0:0:
320,192,13513,1,2,1:0:0:0:
448,192,13513,1,0,0:0:0:0:
64,192,13679,1,8,0:0:0:0:
448,192,13679,128,0,13929:0:0:0:0:
320,192,13679,128,0,13929:0:0:0:0:
448,192,14013,1,0,0:0:0:0:
64,192,14013,128,2,15263:1:0:0:0:
320,192,14013,1,0,0:0:0:0:
320,192,14346,1,0,0:0:0:0:
448,192,14346,1,0,1:0:0:0:
320,192,14679,1,0,1:0:0:0:
448,192,14679,1,0,0:0:0:0:
192,192,15013,1,0,0:0:0:0:
320,192,15013,128,0,15263:1:0:0:0:
448,192,15013,128,0,15263:0:0:0:0:
64,192,15346,128,2,15846:1:0:0:0:
192,192,15346,1,0,1:0:0:0:
448,192,15346,1,0,0:0:0:0:
448,192,15513,1,0,0:0:0:0:
192,192,15513,1,0,1:0:0:0:
448,192,15679,1,0,1:0:0:0:
192,192,15679,1,0,0:0:0:0:
448,192,15846,128,2,16346:1:0:0:0:
320,192,15846,1,0,0:0:0:0:
64,192,16013,1,0,0:0:0:0:
192,192,16013,1,0,1:0:0:0:
192,192,16179,1,0,0:0:0:0:
64,192,16179,1,0,1:0:0:0:
64,192,16346,1,0,1:0:0:0:
320,192,16346,1,0,0:0:0:0:
448,192,16429,1,0,1:0:0:0:
192,192,16513,1,2,1:0:0:0:
64,192,16513,1,0,0:0:0:0:
320,192,16596,1,0,1:0:0:0:
448,192,16679,1,2,1:0:0:0:
192,192,16679,1,4,1:0:0:0:
64,192,16679,128,0,17013:0:0:0:0:
320,192,17013,1,8,0:0:0:0:
448,192,17013,1,0,0:0:0:0:
192,192,17179,128,2,17679:1:0:0:0:
64,192,17179,1,0,0:0:0:0:
320,192,17346,128,0,17679:0:0:0:0:
448,192,17346,1,2,0:0:0:0:
64,192,17679,1,8,0:0:0:0:
448,192,17679,1,0,0:0:0:0:
320,192,17846,1,2,0:0:0:0:
192,192,17846,1,0,0:0:0:0:
64,192,18013,128,2,18346:1:0:0:0:
448,192,18013,1,0,0:0:0:0:
192,192,18013,1,0,0:0:0:0:
320,192,18346,1,0,0:0:0:0:
448,192,18346,1,8,0:0:0:0:
448,192,18513,128,2,19013:1:0:0:0:
64,192,18513,1,0,0:0:0:0:
320,192,18679,128,0,19013:0:0:0:0:
192,192,18679,1,2,0:0:0:0:
64,192,18846,1,0,1:0:0:0:
192,192,19013,1,0,0:0:0:0:
64,192,19013,1,8,0:0:0:0:
448,192,19179,1,0,0:0:0:0:
192,192,19179,1,0,0:0:0:0:
320,192,19346,128,2,19679:1:0:0:0:
64,192,19346,1,0,0:0:0:0:
448,192,19346,1,0,0:0:0:0:
448,192,19679,1,8,0:0:0:0:
64,192,19679,1,0,0:0:0:0:
64,192,19846,128,2,20346:1:0:0:0:
192,192,19846,1,0,0:0:0:0:
320,192,20013,128,0,20346:0:0:0:0:
448,192,20013,1,2,0:0:0:0:
448,192,20346,1,8,0:0:0:0:
192,192,20346,1,0,0:0:0:0:
192,192,20513,1,0,0:0:0:0:
320,192,20513,1,2,0:0:0:0:
448,192,20679,128,2,21013:1:0:0:0:
64,192,20679,1,0,0:0:0:0:
320,192,20679,1,0,0:0:0:0:
192,192,21013,1,8,0:0:0:0:
64,192,21013,1,0,0:0:0:0:
64,192,21179,128,2,21679:1:0:0:0:
448,192,21179,1,0,0:0:0:0:
320,192,21179,1,0,0:0:0:0:
192,192,21346,128,2,21679:0:0:0:0:
320,192,21346,1,0,0:0:0:0:
448,192,21513,1,0,1:0:0:0:
320,192,21679,1,8,0:0:0:0:
448,192,21679,1,0,0:0:0:0:
192,192,21846,1,0,0:0:0:0:
320,192,21846,1,2,3:0:0:0:
192,192,22013,1,2,1:0:0:0:
64,192,22013,1,0,0:0:0:0:
448,192,22013,128,0,22346:0:0:0:0:
320,192,22346,1,8,0:0:0:0:
64,192,22346,1,0,0:0:0:0:
192,192,22513,128,2,23013:1:0:0:0:
448,192,22513,1,0,0:0:0:0:
320,192,22679,128,2,23013:0:0:0:0:
448,192,22679,1,0,0:0:0:0:
64,192,22846,1,0,0:0:0:0:
64,192,23013,1,8,0:0:0:0:
448,192,23013,1,0,0:0:0:0:
192,192,23179,1,0,0:0:0:0:
320,192,23179,1,2,3:0:0:0:
64,192,23346,128,2,23513:1:0:0:0:
448,192,23346,1,0,0:0:0:0:
320,192,23513,1,0,0:0:0:0:
192,192,23679,128,2,23846:0:0:0:0:
64,192,23679,1,8,0:0:0:0:
448,192,23679,1,0,0:0:0:0:
320,192,23846,1,0,1:0:0:0:
448,192,24013,128,2,24179:0:0:0:0:
64,192,24013,1,0,0:0:0:0:
192,192,24179,1,0,1:0:0:0:
320,192,24346,128,8,24513:0:0:0:0:
448,192,24346,1,2,0:0:0:0:
64,192,24346,1,0,0:0:0:0:
192,192,24513,1,2,3:0:0:0:
320,192,24679,1,2,1:0:0:0:
448,192,24679,1,0,0:0:0:0:
64,192,24679,1,0,0:0:0:0:
192,192,24846,1,0,1:0:0:0:
320,192,25013,1,0,0:0:0:0:
448,192,25013,1,8,0:0:0:0:
64,192,25179,1,0,1:0:0:0:
448,192,25179,1,0,0:0:0:0:
192,192,25179,1,0,0:0:0:0:
320,192,25346,1,2,0:0:0:0:
64,192,25513,1,0,1:0:0:0:
192,192,25513,1,0,0:0:0:0:
64,192,25679,1,8,0:0:0:0:
448,192,25679,1,2,0:0:0:0:
320,192,25679,1,0,0:0:0:0:
320,192,25846,1,2,3:0:0:0:
64,192,26013,128,2,26346:1:0:0:0:
448,192,26013,1,0,0:0:0:0:
192,192,26013,1,0,0:0:0:0:
320,192,26179,128,0,26263:1:0:0:0:
192,192,26346,128,8,26429:0:0:0:0:
448,192,26346,1,0,0:0:0:0:
64,192,26513,128,2,26596:0:0:0:0:
448,192,26513,1,8,0:0:0:0:
448,192,26679,128,2,26763:0:0:0:0:
192,192,26679,1,0,0:0:0:0:
320,192,26846,128,2,26929:3:0:0:0:
64,192,26846,1,0,0:0:0:0:
192,192,27013,128,8,27096:0:0:0:0:
448,192,27013,1,0,0:0:0:0:
64,192,27179,128,2,27263:3:0:0:0:
320,192,27179,1,0,0:0:0:0:
192,192,27346,1,2,1:0:0:0:
64,192,27346,1,0,0:0:0:0:
448,192,27346,128,0,27679:0:0:0:0:
320,192,27679,1,8,0:0:0:0:
64,192,27679,1,0,0:0:0:0:
448,192,27846,1,2,1:0:0:0:
192,192,27846,128,0,28346:0:0:0:0:
320,192,28013,128,2,28346:0:0:0:0:
64,192,28013,1,0,0:0:0:0:
448,192,28179,1,0,0:0:0:0:
64,192,28346,1,0,0:0:0:0:
448,192,28346,1,8,0:0:0:0:
192,192,28513,1,2,3:2:0:0:
320,192,28513,1,0,0:0:0:0:
64,192,28679,128,2,29013:1:0:0:0:
448,192,28679,1,0,0:0:0:0:
320,192,28679,1,0,0:0:0:0:
192,192,29013,1,0,0:0:0:0:
448,192,29013,1,8,0:0:0:0:
448,192,29179,128,2,29679:1:0:0:0:
64,192,29179,1,0,0:0:0:0:
192,192,29346,128,2,29679:0:0:0:0:
320,192,29346,1,0,0:0:0:0:
64,192,29513,1,0,1:0:0:0:
64,192,29679,1,0,0:0:0:0:
320,192,29679,1,8,0:0:0:0:
448,192,29846,1,2,3:0:0:0:
192,192,29846,1,0,0:0:0:0:
320,192,30013,128,2,30346:1:0:0:0:
64,192,30013,1,0,0:0:0:0:
448,192,30013,1,0,0:0:0:0:
192,192,30346,1,8,0:0:0:0:
64,192,30346,1,0,0:0:0:0:
448,192,30513,128,2,31013:1:0:0:0:
320,192,30513,1,0,0:0:0:0:
64,192,30679,128,0,31013:0:0:0:0:
192,192,30679,1,2,0:0:0:0:
320,192,30846,1,0,0:0:0:0:
192,192,31013,1,8,0:0:0:0:
320,192,31013,1,0,0:0:0:0:
64,192,31179,1,0,0:0:0:0:
448,192,31179,1,2,3:2:0:0:
192,192,31346,128,2,31679:1:0:0:0:
320,192,31346,1,0,0:0:0:0:
448,192,31346,1,0,0:0:0:0:
448,192,31679,1,8,0:0:0:0:
64,192,31679,1,0,0:0:0:0:
64,192,31846,128,2,32346:1:0:0:0:
192,192,31846,1,0,0:0:0:0:
320,192,32013,128,2,32346:0:0:0:0:
448,192,32013,1,0,0:0:0:0:
192,192,32179,1,0,1:0:0:0:
192,192,32346,1,0,0:0:0:0:
448,192,32346,1,8,0:0:0:0:
320,192,32513,1,2,3:0:0:0:
64,192,32513,1,0,0:0:0:0:
448,192,32679,128,2,33013:1:0:0:0:
192,192,32679,1,0,0:0:0:0:
64,192,32679,1,0,0:0:0:0:
64,192,33013,1,8,0:0:0:0:
320,192,33013,1,0,0:0:0:0:
448,192,33179,1,2,1:0:0:0:
320,192,33179,128,0,33679:0:0:0:0:
64,192,33346,128,0,33679:0:0:0:0:
192,192,33346,1,0,0:0:0:0:
448,192,33513,1,0,0:0:0:0:
448,192,33679,1,8,0:0:0:0:
192,192,33679,1,0,0:0:0:0:
320,192,33846,1,2,3:2:0:0:
192,192,33846,1,0,0:0:0:0:
64,192,34013,1,2,1:0:0:0:
320,192,34013,1,0,0:0:0:0:
448,192,34013,128,0,34346:0:0:0:0:
192,192,34346,1,8,0:0:0:0:
64,192,34346,1,2,0:0:0:0:
320,192,34346,1,0,0:0:0:0:
448,192,34513,1,0,1:0:0:0:
64,192,34513,1,0,0:0:0:0:
320,192,34679,1,2,0:0:0:0:
192,192,34846,1,0,0:0:0:0:
64,192,34846,1,0,1:0:0:0:
64,192,35013,1,2,0:0:0:0:
448,192,35013,1,8,0:0:0:0:
320,192,35013,128,0,35346:0:0:0:0:
64,192,35346,128,4,35679:3:0:0:0:
192,192,35346,1,0,0:0:0:0:
448,192,35346,1,0,0:0:0:0:
320,192,35513,1,4,3:0:0:0:
448,192,35679,128,8,36013:3:0:0:0:
320,192,35679,1,0,0:0:0:0:
192,192,35679,1,0,0:0:0:0:
64,192,35846,1,8,3:0:0:0:
192,192,36013,128,2,36346:1:0:0:0:
64,192,36013,1,0,0:0:0:0:
320,192,36013,1,0,0:0:0:0:
448,192,36179,1,0,1:0:0:0:
320,192,36346,128,2,36679:0:0:0:0:
448,192,36346,1,8,0:0:0:0:
64,192,36346,1,0,0:0:0:0:
64,192,36679,128,4,37179:3:0:0:0:
448,192,36679,1,0,0:0:0:0:
192,192,36679,1,0,0:0:0:0:
192,192,36846,1,2,3:0:0:0:
448,192,37013,1,8,0:0:0:0:
320,192,37013,1,0,0:0:0:0:
320,192,37179,1,2,3:0:0:0:
448,192,37179,1,0,0:0:0:0:
192,192,37346,128,0,37846:1:0:0:0:
64,192,37346,1,0,0:0:0:0:
448,192,37346,1,0,0:0:0:0:
320,192,37513,1,2,3:0:0:0:
64,192,37679,1,0,0:0:0:0:
448,192,37679,1,8,0:0:0:0:
64,192,37846,1,2,3:0:0:0:
320,192,37846,1,0,0:0:0:0:
192,192,38013,1,4,1:0:0:0:
64,192,38013,1,0,0:0:0:0:
448,192,38013,128,0,39346:0:0:0:0:
64,192,38346,1,0,0:0:0:0:
192,192,38513,1,4,3:0:0:0:
64,192,38679,1,8,0:0:0:0:
320,192,38679,1,0,0:0:0:0:
320,192,39013,1,2,0:0:0:0:
64,192,39179,1,2,1:0:0:0:
192,192,39179,1,0,0:0:0:0:
320,192,39346,128,2,40013:0:0:0:0:
64,192,39513,1,0,0:0:0:0:
192,192,39513,1,0,0:0:0:0:
64,192,39846,1,0,0:0:0:0:
64,192,40013,128,2,40679:0:0:0:0:
448,192,40013,1,8,0:0:0:0:
192,192,40013,1,0,0:0:0:0:
320,192,40346,1,2,0:0:0:0:
448,192,40429,1,0,1:0:0:0:
192,192,40513,1,0,1:0:0:0:
320,192,40596,1,0,1:0:0:0:
448,192,40679,128,2,42179:1:0:0:0:
192,192,40679,1,0,0:0:0:0:
320,192,41013,1,0,0:0:0:0:
192,192,41179,1,4,3:0:0:0:
320,192,41346,1,8,0:0:0:0:
64,192,41346,1,0,0:0:0:0:
320,192,41679,1,2,0:0:0:0:
64,192,41846,1,2,1:0:0:0:
192,192,41846,1,0,0:0:0:0:
64,192,42179,1,0,1:0:0:0:
192,192,42179,1,0,0:0:0:0:
448,192,42346,1,0,0:0:0:0:
64,192,42513,1,0,0:0:0:0:
192,192,42513,1,0,1:0:0:0:
64,192,42679,128,2,43013:0:0:0:0:
448,192,42679,1,8,0:0:0:0:
320,192,42679,1,0,0:0:0:0:
320,192,43013,128,2,43346:0:0:0:0:
192,192,43013,1,0,0:0:0:0:
64,192,43179,1,6,3:0:0:0:
448,192,43346,128,2,45346:1:0:0:0:
64,192,43346,1,0,0:0:0:0:
192,192,43346,1,0,0:0:0:0:
64,192,43679,1,2,0:0:0:0:
320,192,43846,1,4,3:0:0:0:
192,192,44013,1,8,0:0:0:0:
64,192,44013,1,0,0:0:0:0:
64,192,44346,1,2,0:0:0:0:
320,192,44513,1,2,1:0:0:0:
192,192,44513,1,0,0:0:0:0:
320,192,44846,1,0,0:0:0:0:
192,192,44846,1,0,0:0:0:0:
320,192,45179,1,0,0:0:0:0:
192,192,45179,1,0,0:0:0:0:
320,192,45346,1,2,0:0:0:0:
64,192,45346,1,8,0:0:0:0:
320,192,45679,1,2,0:0:0:0:
192,192,45679,1,0,0:0:0:0:
192,192,46013,128,2,47013:1:0:0:0:
448,192,46013,1,0,0:0:0:0:
64,192,46013,1,0,0:0:0:0:
448,192,46346,1,0,0:0:0:0:
320,192,46513,1,4,3:0:0:0:
448,192,46679,1,8,0:0:0:0:
64,192,46679,1,0,0:0:0:0:
64,192,47013,1,2,3:0:0:0:
320,192,47179,128,2,47513:1:0:0:0:
192,192,47179,1,0,0:0:0:0:
64,192,47513,128,2,47846:1:0:0:0:
448,192,47513,1,0,0:0:0:0:
448,192,47846,1,0,1:0:0:0:
64,192,48013,1,8,0:0:0:0:
448,192,48013,128,2,48346:0:0:0:0:
192,192,48096,1,8,0:0:0:0:
64,192,48179,1,8,0:0:0:0:
192,192,48263,1,8,0:0:0:0:
64,192,48346,128,2,48679:0:0:0:0:
320,192,48346,1,0,0:0:0:0:
192,192,48513,1,2,3:0:0:0:
448,192,48679,128,2,51013:1:0:0:0:
192,192,48679,1,4,1:0:0:0:
320,192,48679,1,0,0:0:0:0:
192,192,49013,1,0,0:0:0:0:
64,192,49179,1,4,3:0:0:0:
192,192,49346,1,0,0:0:0:0:
320,192,49346,1,8,0:0:0:0:
320,192,49679,1,2,0:0:0:0:
64,192,49846,1,2,1:0:0:0:
192,192,49846,1,0,0:0:0:0:
64,192,50179,1,0,1:0:0:0:
192,192,50179,1,0,0:0:0:0:
64,192,50513,1,0,0:0:0:0:
192,192,50513,1,0,1:0:0:0:
64,192,50679,1,8,0:0:0:0:
320,192,50679,1,2,0:0:0:0:
192,192,50846,1,0,0:0:0:0:
320,192,51013,1,2,0:0:0:0:
448,192,51179,1,2,0:0:0:0:
448,192,51346,1,2,1:0:0:0:
64,192,51346,1,0,0:0:0:0:
192,192,51346,1,0,0:0:0:0:
448,192,51679,1,0,0:0:0:0:
320,192,51846,1,4,3:0:0:0:
192,192,52013,1,8,0:0:0:0:
64,192,52013,1,0,0:0:0:0:
64,192,52346,1,2,0:0:0:0:
320,192,52513,128,2,53346:1:0:0:0:
448,192,52513,1,0,0:0:0:0:
448,192,52846,1,0,1:0:0:0:
64,192,52846,1,0,0:0:0:0:
448,192,53179,1,0,0:0:0:0:
64,192,53179,1,0,1:0:0:0:
192,192,53346,1,8,0:0:0:0:
64,192,53346,1,0,0:0:0:0:
64,192,53679,1,2,1:0:0:0:
448,192,53679,1,0,0:0:0:0:
320,192,53763,1,0,1:0:0:0:
192,192,53846,1,8,3:0:0:0:
64,192,53846,1,0,0:0:0:0:
320,192,53929,1,4,3:0:0:0:
448,192,54013,1,6,1:0:0:0:
64,192,54013,1,0,0:0:0:0:
192,192,54013,128,0,54346:0:0:0:0:
64,192,54346,128,8,54513:0:0:0:0:
448,192,54346,1,2,0:0:0:0:
320,192,54346,1,0,0:0:0:0:
192,192,54513,1,2,1:0:0:0:
448,192,54513,128,0,54679:0:0:0:0:
64,192,54846,128,2,55013:3:2:0:0:
320,192,54846,128,0,55013:0:0:0:0:
448,192,54846,1,0,0:0:0:0:
192,192,55013,1,8,0:0:0:0:
448,192,55013,1,0,0:0:0:0:
192,192,55179,128,2,55513:3:0:0:0:
64,192,55346,1,0,1:0:0:0:
448,192,55513,1,0,0:0:0:0:
320,192,55513,1,0,1:0:0:0:
64,192,55679,128,2,55846:0:0:0:0:
192,192,55679,1,8,0:0:0:0:
448,192,55679,128,0,56013:0:0:0:0:
320,192,55846,1,0,1:0:0:0:
192,192,56013,128,2,56346:1:0:0:0:
64,192,56013,1,0,0:0:0:0:
64,192,56179,128,2,56346:3:0:0:0:
320,192,56179,1,0,0:0:0:0:
320,192,56346,128,2,56679:0:0:0:0:
448,192,56346,1,8,0:0:0:0:
448,192,56679,128,2,57846:1:0:0:0:
192,192,56679,1,0,0:0:0:0:
64,192,56679,1,0,0:0:0:0:
320,192,56846,1,2,0:0:0:0:
192,192,56846,1,0,0:0:0:0:
192,192,57013,1,0,1:0:0:0:
64,192,57013,1,0,0:0:0:0:
320,192,57179,1,2,0:0:0:0:
64,192,57179,1,0,0:0:0:0:
192,192,57346,1,0,1:0:0:0:
320,192,57346,1,0,0:0:0:0:
64,192,57513,1,2,0:0:0:0:
192,192,57513,1,0,0:0:0:0:
320,192,57679,1,0,1:0:0:0:
64,192,57679,1,0,0:0:0:0:
192,192,57846,1,2,0:0:0:0:
320,192,57846,1,0,0:0:0:0:
448,192,58013,1,2,1:3:0:0:
192,192,58013,1,0,0:0:0:0:
64,192,58013,1,0,0:0:0:0:
320,192,58179,1,8,0:3:0:0:
192,192,58179,1,0,0:0:0:0:
192,192,58513,128,4,58846:0:3:0:0:
64,192,58679,128,2,58929:0:0:0:0:
320,192,58846,1,0,0:0:0:0:
448,192,58846,1,8,2:3:0:0:
192,192,58929,1,0,0:0:0:0:
448,192,59013,1,4,0:3:0:0:
64,192,59013,1,0,0:0:0:0:
320,192,59179,1,2,2:3:0:0:
192,192,59179,1,8,2:3:0:0:
448,192,59346,1,6,1:0:0:0:
320,192,59346,1,0,0:0:0:0:
64,192,59346,1,0,0:0:0:0:
64,192,59679,128,2,60013:0:0:0:0:
448,192,59679,1,8,0:0:0:0:
192,192,59679,1,0,0:0:0:0:
320,192,59846,128,0,60013:1:0:0:0:
448,192,59846,1,0,0:0:0:0:
448,192,60013,128,0,60346:3:0:0:0:
192,192,60013,1,0,0:0:0:0:
320,192,60179,128,0,60346:1:0:0:0:
64,192,60179,1,0,0:0:0:0:
192,192,60346,1,8,0:0:0:0:
64,192,60346,1,0,0:0:0:0:
320,192,60513,1,2,1:0:0:0:
192,192,60513,128,0,60846:0:0:0:0:
448,192,60846,1,0,1:0:0:0:
64,192,61013,128,2,61346:0:0:0:0:
192,192,61013,1,8,0:0:0:0:
320,192,61013,1,0,0:0:0:0:
320,192,61179,128,0,61346:1:0:0:0:
448,192,61179,1,0,0:0:0:0:
448,192,61346,128,0,61679:3:0:0:0:
192,192,61346,1,0,0:0:0:0:
320,192,61513,128,0,61679:1:0:0:0:
64,192,61513,1,0,0:0:0:0:
192,192,61679,1,8,0:0:0:0:
64,192,61679,1,0,0:0:0:0:
192,192,61846,1,2,1:2:0:0:
320,192,61846,128,0,62346:0:0:0:0:
64,192,62013,1,4,1:0:0:0:
448,192,62013,128,0,62346:0:0:0:0:
192,192,62346,1,8,0:0:0:0:
64,192,62346,1,2,0:0:0:0:
320,192,62513,1,2,1:0:0:0:
448,192,62513,1,0,0:0:0:0:
448,192,62679,1,2,3:2:0:0:
64,192,62679,1,0,0:0:0:0:
192,192,62846,1,0,1:0:0:0:
320,192,63013,1,8,0:0:0:0:
448,192,63013,1,2,0:0:0:0:
448,192,63179,1,2,1:0:0:0:
64,192,63179,128,0,63346:0:0:0:0:
192,192,63179,128,0,63346:0:0:0:0:
192,192,63513,128,2,63679:1:0:0:0:
320,192,63513,128,0,63679:0:0:0:0:
64,192,63679,1,0,0:0:0:0:
448,192,63679,1,8,0:0:0:0:
320,192,63846,128,2,64013:1:0:0:0:
448,192,63846,128,0,64013:0:0:0:0:
192,192,63846,1,0,0:0:0:0:
448,192,64179,1,2,1:0:0:0:
192,192,64179,1,0,0:0:0:0:
64,192,64346,128,10,64679:0:3:0:0:
320,192,64346,1,0,0:0:0:0:
448,192,64346,1,0,0:0:0:0:
448,192,64679,128,6,65846:1:0:0:0:
192,192,64679,1,0,0:0:0:0:
320,192,64679,1,0,0:0:0:0:
192,192,65013,1,12,0:0:0:0:
64,192,65013,1,0,0:0:0:0:
320,192,65179,1,0,1:0:0:0:
64,192,65346,1,0,0:0:0:0:
192,192,65513,1,0,1:0:0:0:
64,192,65679,1,8,0:0:0:0:
320,192,65679,1,0,0:0:0:0:
192,192,65846,128,2,66013:3:2:0:0:
448,192,66013,1,2,1:0:0:0:
64,192,66013,1,0,0:0:0:0:
320,192,66013,1,0,0:0:0:0:
192,192,66179,1,0,0:0:0:0:
320,192,66346,1,0,0:0:0:0:
448,192,66346,1,8,0:0:0:0:
192,192,66513,1,2,1:0:0:0:
64,192,66513,1,0,0:0:0:0:
448,192,66679,1,2,3:2:0:0:
64,192,66679,1,0,0:0:0:0:
320,192,66846,1,0,1:0:0:0:
192,192,67013,1,10,0:0:0:0:
448,192,67013,1,8,0:0:0:0:
64,192,67179,1,2,3:2:0:0:
192,192,67346,1,2,1:0:0:0:
64,192,67346,1,0,0:0:0:0:
448,192,67346,1,0,0:0:0:0:
320,192,67513,1,2,1:0:0:0:
192,192,67513,1,0,0:0:0:0:
320,192,67679,1,2,0:0:0:0:
448,192,67679,1,8,0:0:0:0:
64,192,67846,128,0,68179:1:0:0:0:
448,192,68013,1,0,0:0:0:0:
192,192,68013,1,0,0:0:0:0:
320,192,68179,128,0,68346:1:0:0:0:
448,192,68179,1,0,0:0:0:0:
192,192,68346,1,8,0:0:0:0:
64,192,68346,1,0,0:0:0:0:
448,192,68513,128,2,68846:3:2:0:0:
320,192,68513,1,0,0:0:0:0:
64,192,68679,1,2,1:0:0:0:
192,192,68846,1,2,1:0:0:0:
320,192,68846,1,0,0:0:0:0:
448,192,69013,1,8,0:0:0:0:
192,192,69013,1,2,0:0:0:0:
64,192,69013,128,0,69679:0:0:0:0:
320,192,69179,128,2,69513:1:0:0:0:
192,192,69346,128,2,69679:0:0:0:0:
448,192,69513,128,2,69846:1:0:0:0:
320,192,69679,128,10,69846:0:0:0:0:
192,192,69846,128,2,70013:1:0:0:0:
64,192,69846,1,0,0:0:0:0:
64,192,70013,1,4,1:0:0:0:
320,192,70013,1,0,0:0:0:0:
448,192,70013,1,0,0:0:0:0:
320,192,70346,128,2,70679:0:0:0:0:
448,192,70346,1,8,0:0:0:0:
64,192,70346,1,0,0:0:0:0:
64,192,70513,128,0,70679:1:0:0:0:
192,192,70513,1,0,0:0:0:0:
192,192,70679,128,0,71013:3:0:0:0:
448,192,70679,1,0,0:0:0:0:
448,192,70846,128,0,71013:1:0:0:0:
64,192,70846,1,0,0:0:0:0:
64,192,71013,1,0,0:0:0:0:
320,192,71013,1,8,0:0:0:0:
320,192,71179,128,2,71513:1:0:0:0:
448,192,71179,1,0,0:0:0:0:
192,192,71513,1,0,1:0:0:0:
320,192,71679,128,2,72013:0:0:0:0:
64,192,71679,1,8,0:0:0:0:
448,192,71679,1,0,0:0:0:0:
64,192,71846,128,0,72013:1:0:0:0:
192,192,71846,1,0,0:0:0:0:
448,192,72013,1,0,3:0:0:0:
192,192,72013,128,0,72346:0:0:0:0:
448,192,72179,128,0,72346:1:0:0:0:
64,192,72179,1,0,0:0:0:0:
64,192,72346,1,0,0:0:0:0:
320,192,72346,1,8,0:0:0:0:
192,192,72513,1,2,1:0:0:0:
448,192,72513,1,0,0:0:0:0:
320,192,72679,1,4,1:0:0:0:
448,192,72679,1,0,0:0:0:0:
64,192,72679,1,0,0:0:0:0:
192,192,72846,1,0,0:0:0:0:
448,192,73013,1,8,0:0:0:0:
320,192,73013,1,2,0:0:0:0:
64,192,73179,1,0,1:0:0:0:
64,192,73346,1,0,0:0:0:0:
448,192,73346,1,2,3:2:0:0:
320,192,73513,1,0,1:0:0:0:
192,192,73679,1,8,0:0:0:0:
448,192,73679,1,2,0:0:0:0:
64,192,73679,1,0,0:0:0:0:
320,192,73846,128,2,74013:1:0:0:0:
192,192,73846,128,0,74013:0:0:0:0:
192,192,74179,128,0,74346:0:0:0:0:
64,192,74179,128,0,74346:0:0:0:0:
448,192,74179,1,2,1:0:0:0:
320,192,74346,1,0,0:0:0:0:
448,192,74346,1,8,0:0:0:0:
320,192,74513,128,0,74679:0:0:0:0:
448,192,74513,128,2,74679:1:0:0:0:
64,192,74513,1,0,0:0:0:0:
448,192,74846,128,2,75013:1:0:0:0:
64,192,74846,128,0,75013:0:0:0:0:
192,192,74846,1,0,0:0:0:0:
320,192,75013,1,0,0:0:0:0:
192,192,75013,1,8,0:0:0:0:
448,192,75179,1,2,3:2:0:0:
64,192,75179,1,0,0:0:0:0:
64,192,75346,128,0,76346:0:0:0:0:
192,192,75346,1,0,0:0:0:0:
448,192,75346,1,6,1:0:0:0:
448,192,75679,1,4,0:0:0:0:
320,192,75679,1,8,0:0:0:0:
192,192,75846,1,0,1:0:0:0:
448,192,76013,1,0,3:0:0:0:
320,192,76179,1,0,1:0:0:0:
192,192,76346,1,8,0:0:0:0:
448,192,76346,1,2,0:0:0:0:
64,192,76513,1,0,0:0:0:0:
320,192,76679,1,0,0:0:0:0:
448,192,76679,1,6,1:0:0:0:
64,192,76679,1,0,0:0:0:0:
192,192,76846,1,0,0:0:0:0:
64,192,77013,1,0,0:0:0:0:
448,192,77013,1,8,0:0:0:0:
320,192,77179,1,0,1:0:0:0:
192,192,77179,1,0,0:0:0:0:
448,192,77346,128,2,77679:0:0:0:0:
320,192,77346,1,0,0:0:0:0:
64,192,77513,1,0,1:0:0:0:
192,192,77679,128,0,78013:0:0:0:0:
320,192,77679,1,2,0:0:0:0:
64,192,77679,1,8,0:0:0:0:
64,192,78013,128,0,79346:0:0:0:0:
320,192,78013,1,0,0:0:0:0:
448,192,78013,1,4,3:0:0:0:
192,192,78179,1,0,0:0:0:0:
448,192,78346,1,8,3:0:0:0:
320,192,78346,1,0,0:0:0:0:
192,192,78513,1,8,3:0:0:0:
448,192,78679,128,0,79346:1:0:0:0:
320,192,78679,1,0,0:0:0:0:
192,192,78846,1,0,1:0:0:0:
192,192,79013,128,0,79346:0:0:0:0:
320,192,79013,1,8,0:0:0:0:
320,192,79346,128,4,80679:3:0:0:0:
192,192,79513,1,4,3:0:0:0:
64,192,79679,1,0,0:0:0:0:
448,192,79679,1,8,3:0:0:0:
192,192,79846,1,8,3:0:0:0:
64,192,80013,128,0,80679:0:0:0:0:
448,192,80013,1,0,1:0:0:0:
192,192,80179,1,0,1:0:0:0:
192,192,80346,128,0,80679:0:0:0:0:
448,192,80346,1,8,0:0:0:0:
448,192,80679,128,0,81846:1:0:0:0:
320,192,80846,1,0,0:0:0:0:
192,192,81013,1,8,0:0:0:0:
64,192,81013,1,0,0:0:0:0:
320,192,81179,1,8,0:0:0:0:
64,192,81346,1,4,3:0:0:0:
192,192,81513,1,4,3:0:0:0:
64,192,81679,1,0,0:0:0:0:
320,192,81679,1,8,3:0:0:0:
192,192,81846,1,0,0:0:0:0:
448,192,82013,1,0,1:0:0:0:
320,192,82013,1,0,0:0:0:0:
64,192,82013,1,0,0:0:0:0:
192,192,82179,1,0,1:0:0:0:
448,192,82346,1,2,0:0:0:0:
64,192,82346,1,8,0:0:0:0:
320,192,82513,1,0,1:0:0:0:
192,192,82679,1,2,0:0:0:0:
64,192,82679,1,0,0:0:0:0:
192,192,82846,1,0,0:0:0:0:
320,192,82846,1,2,1:0:0:0:
320,192,83013,1,2,0:0:0:0:
448,192,83013,128,8,83263:0:0:0:0:
64,192,83013,128,0,83263:0:0:0:0:
64,192,83346,1,0,0:0:0:0:
448,192,83346,1,4,1:0:0:0:
192,192,83346,128,0,84513:0:0:0:0:
448,192,83679,1,2,1:0:0:0:
320,192,83679,1,0,0:0:0:0:
64,192,83846,1,0,0:0:0:0:
448,192,83846,1,2,3:2:0:0:
320,192,84013,1,0,1:0:0:0:
448,192,84179,128,2,84513:3:2:0:0:
64,192,84346,1,0,1:0:0:0:
320,192,84513,1,0,0:0:0:0:
64,192,84679,128,0,85846:0:0:0:0:
192,192,84679,1,0,0:0:0:0:
448,192,84679,1,4,1:0:0:0:
320,192,85013,1,0,1:2:0:0:
192,192,85013,1,0,0:0:0:0:
448,192,85179,1,2,3:2:0:0:
320,192,85179,1,0,0:0:0:0:
192,192,85346,1,0,1:0:0:0:
320,192,85513,128,2,85846:3:2:0:0:
448,192,85679,1,0,1:0:0:0:
192,192,85846,1,0,0:0:0:0:
448,192,86013,128,8,86179:0:0:0:0:
320,192,86013,1,4,0:0:0:0:
64,192,86013,1,2,0:0:0:0:
64,192,86179,1,0,1:0:0:0:
448,192,86346,128,0,86513:0:0:0:0:
320,192,86346,1,0,0:0:0:0:
192,192,86346,1,8,0:0:0:0:
192,192,86513,1,0,1:0:0:0:
448,192,86679,128,0,86846:0:0:0:0:
64,192,86679,1,0,0:0:0:0:
320,192,86679,1,8,0:0:0:0:
64,192,86846,1,0,1:0:0:0:
448,192,87013,128,8,87179:0:0:0:0:
320,192,87013,1,0,0:0:0:0:
192,192,87013,1,0,0:0:0:0:
192,192,87179,1,0,1:0:0:0:
64,192,87346,1,0,0:0:0:0:
320,192,87346,1,8,0:0:0:0:
448,192,87346,1,4,0:0:0:0:
192,192,87679,1,2,0:0:0:0:
320,192,87846,1,2,0:0:0:0:
448,192,88013,128,2,88679:0:0:0:0:
64,192,88346,128,6,88679:0:2:0:0:
