osu file format v14

[General]
AudioFilename: audio.mp3
AudioLeadIn: 0
PreviewTime: 58346
Countdown: 0
SampleSet: Soft
StackLeniency: 0.5
Mode: 3
LetterboxInBreaks: 0
SpecialStyle: 0
WidescreenStoryboard: 0

[Editor]
Bookmarks: 84679
DistanceSpacing: 2
BeatDivisor: 4
GridSize: 32
TimelineZoom: 2.2

[Metadata]
Title:Dakara, Hitori ja Nai -TV Size-
TitleUnicode:だから、ひとりじゃない -TV Size-
Artist:Little Glee Monster
ArtistUnicode:Little Glee Monster
Creator:-Sh1n1-
Version:Arcwin's 7K MX
Source:僕のヒーローアカデミア 第2期
Tags:Boku no Hero Academia second Season ending shini arcwinolivirus akitoshi nardoxyribonucleic pentori sotarks iyiyo lasse mir critical_star
BeatmapID:1345630
BeatmapSetID:631624

[Difficulty]
HPDrainRate:8
CircleSize:7
OverallDifficulty:8
ApproachRate:7.5
SliderMultiplier:1.4
SliderTickRate:2

[Events]
//Background and Video events
Video,0,"video.mp4"
0,0,"BGMania.jpg",0,0
//Break Periods
//Storyboard Layer 0 (Background)
//Storyboard Layer 1 (Fail)
//Storyboard Layer 2 (Pass)
//Storyboard Layer 3 (Foreground)
//Storyboard Sound Samples

[TimingPoints]
680,333.333333333333,4,2,22,40,1,0
59346,-100,4,2,22,40,0,1
83346,-100,4,2,22,40,0,0

[HitObjects]
475,192,680,128,2,4679:0:0:0:0:
182,192,680,1,0,0:0:0:0:
36,192,846,1,0,0:0:0:0:
256,192,1013,1,2,0:0:0:0:
109,192,1179,1,2,0:0:0:0:
182,192,1513,1,2,0:0:0:0:
329,192,1846,1,2,0:0:0:0:
36,192,2013,128,2,4679:0:0:0:0:
109,192,2013,1,0,0:0:0:0:
256,192,2179,1,0,0:0:0:0:
182,192,2346,1,2,0:0:0:0:
329,192,2513,1,2,0:0:0:0:
256,192,2846,1,2,0:0:0:0:
182,192,3179,1,2,0:0:0:0:
256,192,3346,128,2,4679:0:0:0:0:
329,192,3346,1,0,0:0:0:0:
109,192,3513,1,0,0:0:0:0:
402,192,3679,1,2,0:0:0:0:
182,192,3846,1,2,0:0:0:0:
329,192,4179,1,0,0:0:0:0:
402,192,4346,1,8,3:0:0:0:
109,192,4346,1,0,0:0:0:0:
182,192,4513,1,8,3:0:0:0:
329,192,4513,1,0,0:0:0:0:
329,192,4679,1,8,1:0:0:0:
402,192,4679,1,0,0:0:0:0:
182,192,4679,1,0,0:0:0:0:
109,192,4679,1,0,0:0:0:0:
256,192,4846,1,8,3:0:0:0:
475,192,4846,1,0,0:0:0:0:
36,192,4846,1,0,0:0:0:0:
402,192,5179,1,4,3:0:0:0:
256,192,5179,1,0,0:0:0:0:
109,192,5179,1,0,0:0:0:0:
36,192,5346,128,0,5513:0:0:0:0:
329,192,5346,1,0,0:0:0:0:
182,192,5513,128,0,5679:3:0:0:0:
475,192,5513,1,0,3:0:0:0:
402,192,5596,1,0,0:0:0:0:
329,192,5679,128,2,5846:3:2:0:0:
256,192,5679,1,0,0:0:0:0:
475,192,5846,128,2,6013:3:2:0:0:
36,192,5846,1,0,0:0:0:0:
109,192,5929,1,2,3:2:0:0:
182,192,5929,1,0,0:0:0:0:
256,192,6013,1,0,0:0:0:0:
402,192,6013,1,0,1:0:0:0:
329,192,6013,1,0,0:0:0:0:
182,192,6346,1,8,0:0:0:0:
36,192,6346,1,2,0:0:0:0:
475,192,6346,1,0,0:0:0:0:
402,192,6513,1,2,1:0:0:0:
329,192,6513,1,0,0:0:0:0:
109,192,6846,1,2,1:0:0:0:
36,192,6846,128,0,7179:0:0:0:0:
256,192,7013,1,8,0:0:0:0:
402,192,7013,1,0,0:0:0:0:
475,192,7013,1,0,0:0:0:0:
109,192,7179,1,0,0:0:0:0:
182,192,7179,1,0,1:0:0:0:
402,192,7346,1,0,3:0:0:0:
256,192,7513,1,0,0:0:0:0:
329,192,7513,1,0,1:0:0:0:
36,192,7679,1,8,0:0:0:0:
109,192,7679,1,2,0:0:0:0:
475,192,7679,1,0,0:0:0:0:
182,192,7846,1,2,1:0:0:0:
256,192,7846,1,0,0:0:0:0:
475,192,8013,128,0,8179:3:0:0:0:
402,192,8013,1,0,0:0:0:0:
329,192,8179,128,2,8346:1:2:0:0:
256,192,8179,1,0,0:0:0:0:
36,192,8346,128,2,8513:0:2:0:0:
109,192,8346,1,8,0:2:0:0:
402,192,8346,1,0,0:0:0:0:
182,192,8513,128,2,8679:3:0:0:0:
256,192,8513,1,0,0:0:0:0:
475,192,8679,1,0,1:0:0:0:
402,192,8679,1,0,0:0:0:0:
329,192,8679,1,0,0:0:0:0:
475,192,8846,1,0,0:0:0:0:
402,192,8846,1,0,1:0:0:0:
109,192,9013,1,2,0:0:0:0:
36,192,9013,1,8,0:0:0:0:
256,192,9013,1,0,0:0:0:0:
329,192,9179,1,2,1:0:0:0:
402,192,9179,1,0,0:0:0:0:
182,192,9513,1,0,0:0:0:0:
256,192,9513,128,0,9846:1:0:0:0:
36,192,9679,1,8,0:0:0:0:
402,192,9679,1,0,0:0:0:0:
475,192,9679,1,0,0:0:0:0:
329,192,9846,1,2,3:0:0:0:
182,192,9846,1,0,0:0:0:0:
109,192,9846,1,0,0:0:0:0:
36,192,10013,128,2,10346:3:0:0:0:
475,192,10013,1,0,0:0:0:0:
256,192,10179,1,0,0:0:0:0:
182,192,10179,1,0,1:0:0:0:
475,192,10346,128,2,10679:0:0:0:0:
402,192,10346,1,8,0:0:0:0:
109,192,10346,1,0,0:0:0:0:
329,192,10513,1,0,0:0:0:0:
256,192,10513,1,0,1:0:0:0:
36,192,10679,128,2,11013:3:0:0:0:
109,192,10679,1,0,0:0:0:0:
256,192,10846,1,0,0:0:0:0:
182,192,10846,1,0,1:0:0:0:
475,192,11013,128,2,11346:0:0:0:0:
329,192,11013,1,8,0:0:0:0:
402,192,11013,1,0,0:0:0:0:
256,192,11179,1,2,3:0:0:0:
109,192,11179,1,0,0:0:0:0:
182,192,11179,1,0,0:0:0:0:
402,192,11346,1,0,1:0:0:0:
329,192,11346,1,0,0:0:0:0:
36,192,11346,128,0,12679:0:0:0:0:
182,192,11513,1,0,0:0:0:0:
109,192,11513,1,0,0:0:0:0:
329,192,11679,1,2,0:0:0:0:
475,192,11679,1,8,0:0:0:0:
402,192,11679,1,0,0:0:0:0:
182,192,11846,1,2,1:0:0:0:
256,192,11846,1,0,0:0:0:0:
402,192,12013,1,0,0:0:0:0:
329,192,12179,1,2,1:0:0:0:
256,192,12179,128,0,12513:0:0:0:0:
475,192,12346,1,2,0:0:0:0:
402,192,12346,1,0,0:0:0:0:
109,192,12346,1,8,0:0:0:0:
182,192,12513,1,2,3:0:0:0:
475,192,12679,128,0,13179:0:0:0:0:
402,192,12679,1,0,1:0:0:0:
109,192,12679,1,0,0:0:0:0:
329,192,12846,1,0,1:0:0:0:
256,192,12846,1,0,0:0:0:0:
36,192,13013,1,8,0:0:0:0:
109,192,13013,1,2,0:0:0:0:
182,192,13013,1,0,0:0:0:0:
402,192,13179,128,2,13679:1:0:0:0:
329,192,13179,1,0,0:0:0:0:
109,192,13513,1,2,1:0:0:0:
36,192,13513,128,0,14013:0:0:0:0:
329,192,13679,128,8,14013:0:0:0:0:
475,192,13679,1,0,0:0:0:0:
256,192,13679,1,0,0:0:0:0:
182,192,13846,1,0,0:0:0:0:
109,192,13846,1,2,3:0:0:0:
256,192,14013,128,2,15346:1:0:0:0:
402,192,14013,1,0,0:0:0:0:
475,192,14013,128,0,15346:0:0:0:0:
402,192,14346,1,0,1:0:0:0:
182,192,14346,1,0,0:0:0:0:
36,192,14346,1,0,0:0:0:0:
109,192,14679,1,0,0:0:0:0:
36,192,14679,1,0,1:0:0:0:
329,192,14679,1,0,0:0:0:0:
182,192,15013,1,0,0:0:0:0:
109,192,15013,1,0,1:0:0:0:
402,192,15013,1,0,0:0:0:0:
402,192,15346,128,2,15846:1:0:0:0:
182,192,15346,128,0,15846:0:0:0:0:
329,192,15346,1,0,1:0:0:0:
36,192,15513,1,0,1:0:0:0:
109,192,15513,1,0,0:0:0:0:
256,192,15679,1,0,0:0:0:0:
329,192,15679,1,0,1:0:0:0:
109,192,15846,1,2,1:0:0:0:
475,192,15846,128,0,16346:0:0:0:0:
36,192,15846,128,0,16346:0:0:0:0:
329,192,16013,1,0,1:0:0:0:
256,192,16013,1,0,0:0:0:0:
182,192,16179,1,0,1:0:0:0:
109,192,16179,1,0,0:0:0:0:
402,192,16346,1,0,0:0:0:0:
329,192,16346,1,0,1:0:0:0:
256,192,16429,1,0,1:0:0:0:
182,192,16429,1,0,0:0:0:0:
109,192,16513,1,2,1:0:0:0:
36,192,16513,1,0,0:0:0:0:
475,192,16596,1,0,1:0:0:0:
402,192,16596,1,0,0:0:0:0:
256,192,16679,1,2,1:0:0:0:
182,192,16679,1,4,1:0:0:0:
329,192,16679,128,0,17013:0:0:0:0:
402,192,17013,1,8,0:0:0:0:
475,192,17013,1,0,0:0:0:0:
36,192,17013,1,0,0:0:0:0:
256,192,17179,1,2,1:0:0:0:
182,192,17179,1,0,0:0:0:0:
109,192,17346,128,2,17679:0:0:0:0:
329,192,17346,1,0,0:0:0:0:
256,192,17513,1,0,0:0:0:0:
475,192,17679,1,8,0:0:0:0:
402,192,17679,1,0,0:0:0:0:
182,192,17679,1,0,0:0:0:0:
329,192,18013,1,2,1:0:0:0:
256,192,18013,128,0,18346:0:0:0:0:
475,192,18346,1,0,0:0:0:0:
36,192,18346,1,8,0:0:0:0:
109,192,18346,1,0,0:0:0:0:
402,192,18513,1,2,1:0:0:0:
329,192,18513,1,0,0:0:0:0:
182,192,18679,1,2,0:0:0:0:
256,192,18846,1,0,1:0:0:0:
329,192,18846,1,0,0:0:0:0:
475,192,19013,1,8,0:0:0:0:
36,192,19013,1,0,0:0:0:0:
109,192,19013,1,0,0:0:0:0:
182,192,19346,1,0,0:0:0:0:
329,192,19346,1,2,1:0:0:0:
402,192,19346,128,0,19679:0:0:0:0:
109,192,19679,1,8,0:0:0:0:
475,192,19679,1,0,0:0:0:0:
36,192,19679,1,0,0:0:0:0:
256,192,19846,1,2,1:0:0:0:
182,192,19846,1,0,0:0:0:0:
329,192,20013,128,2,20346:0:0:0:0:
402,192,20013,1,0,0:0:0:0:
36,192,20179,1,0,0:0:0:0:
475,192,20346,1,8,0:0:0:0:
256,192,20346,1,0,0:0:0:0:
182,192,20346,1,0,0:0:0:0:
109,192,20679,128,2,21013:1:0:0:0:
256,192,20679,1,0,0:0:0:0:
402,192,21013,1,8,0:0:0:0:
329,192,21013,1,0,0:0:0:0:
475,192,21013,1,0,0:0:0:0:
182,192,21179,1,2,1:0:0:0:
256,192,21179,1,0,0:0:0:0:
36,192,21346,1,2,0:0:0:0:
402,192,21513,1,0,1:0:0:0:
475,192,21513,1,0,0:0:0:0:
329,192,21679,1,8,0:0:0:0:
182,192,21679,1,0,0:0:0:0:
109,192,21679,1,0,0:0:0:0:
402,192,22013,1,2,1:0:0:0:
256,192,22013,1,0,0:0:0:0:
475,192,22013,128,0,22346:0:0:0:0:
329,192,22346,1,8,0:0:0:0:
109,192,22346,1,0,0:0:0:0:
36,192,22346,1,0,0:0:0:0:
256,192,22513,1,2,1:0:0:0:
182,192,22513,1,0,0:0:0:0:
402,192,22679,128,2,23013:0:0:0:0:
475,192,22679,1,0,0:0:0:0:
36,192,22846,1,0,0:0:0:0:
329,192,23013,1,8,0:0:0:0:
109,192,23013,1,0,0:0:0:0:
182,192,23013,1,0,0:0:0:0:
36,192,23346,128,2,23679:1:0:0:0:
256,192,23346,1,0,0:0:0:0:
182,192,23679,128,2,24013:0:0:0:0:
475,192,23679,1,8,0:0:0:0:
402,192,23679,1,0,0:0:0:0:
329,192,23846,1,0,1:0:0:0:
256,192,23846,1,0,0:0:0:0:
109,192,24013,128,2,24346:0:0:0:0:
36,192,24013,1,0,0:0:0:0:
402,192,24179,1,0,1:0:0:0:
475,192,24179,1,0,0:0:0:0:
256,192,24346,128,8,24679:0:0:0:0:
329,192,24346,1,2,0:0:0:0:
182,192,24346,1,0,0:0:0:0:
36,192,24513,1,2,3:0:0:0:
475,192,24679,128,2,25346:1:0:0:0:
402,192,24679,1,0,0:0:0:0:
109,192,24846,1,0,1:0:0:0:
36,192,24846,1,0,0:0:0:0:
329,192,25013,1,8,0:0:0:0:
256,192,25013,1,0,0:0:0:0:
182,192,25013,1,0,0:0:0:0:
182,192,25179,1,0,0:0:0:0:
256,192,25179,1,0,1:0:0:0:
329,192,25179,1,0,0:0:0:0:
36,192,25346,128,2,26013:0:0:0:0:
109,192,25346,1,0,0:0:0:0:
329,192,25513,1,0,0:0:0:0:
402,192,25513,1,0,1:0:0:0:
256,192,25679,128,8,26013:0:0:0:0:
182,192,25679,1,2,0:0:0:0:
475,192,25679,1,0,0:0:0:0:
329,192,25846,1,2,3:0:0:0:
402,192,26013,1,2,1:0:0:0:
475,192,26013,128,0,26513:0:0:0:0:
182,192,26179,1,0,1:0:0:0:
109,192,26179,1,0,0:0:0:0:
256,192,26346,1,8,0:0:0:0:
329,192,26346,1,0,0:0:0:0:
402,192,26346,1,0,0:0:0:0:
256,192,26513,1,2,0:0:0:0:
329,192,26513,1,8,0:0:0:0:
402,192,26513,1,0,0:0:0:0:
36,192,26679,128,2,27346:0:0:0:0:
109,192,26679,1,0,0:0:0:0:
475,192,26846,1,2,3:0:0:0:
256,192,26846,1,0,0:0:0:0:
402,192,27013,1,8,0:0:0:0:
109,192,27013,1,0,0:0:0:0:
182,192,27013,1,0,0:0:0:0:
329,192,27179,1,2,3:0:0:0:
256,192,27346,1,2,1:0:0:0:
182,192,27346,1,0,0:0:0:0:
475,192,27346,128,0,27679:0:0:0:0:
329,192,27679,1,8,0:0:0:0:
256,192,27679,1,0,0:0:0:0:
182,192,27679,1,0,0:0:0:0:
109,192,27846,1,2,1:0:0:0:
36,192,27846,1,0,0:0:0:0:
402,192,28013,128,2,28346:0:0:0:0:
475,192,28013,1,0,0:0:0:0:
256,192,28179,1,0,0:0:0:0:
182,192,28346,1,8,0:0:0:0:
109,192,28346,1,0,0:0:0:0:
36,192,28346,1,0,0:0:0:0:
329,192,28679,128,2,29013:1:0:0:0:
256,192,28679,1,0,0:0:0:0:
475,192,29013,1,0,0:0:0:0:
36,192,29013,1,8,0:0:0:0:
109,192,29013,1,0,0:0:0:0:
182,192,29179,1,2,1:0:0:0:
256,192,29179,1,0,0:0:0:0:
475,192,29346,128,2,29679:0:0:0:0:
402,192,29346,1,0,0:0:0:0:
256,192,29513,1,0,1:0:0:0:
329,192,29513,1,0,0:0:0:0:
109,192,29679,1,0,0:0:0:0:
182,192,29679,1,8,0:0:0:0:
36,192,29679,1,0,0:0:0:0:
329,192,29846,1,2,3:0:0:0:
36,192,30013,128,2,30346:1:0:0:0:
109,192,30013,1,0,0:0:0:0:
402,192,30013,1,0,0:0:0:0:
256,192,30346,1,8,0:0:0:0:
329,192,30346,1,0,0:0:0:0:
182,192,30346,1,0,0:0:0:0:
475,192,30513,1,2,1:0:0:0:
402,192,30513,1,0,0:0:0:0:
36,192,30679,1,0,0:0:0:0:
109,192,30679,128,2,31013:0:0:0:0:
256,192,30846,1,0,0:0:0:0:
475,192,31013,1,8,0:0:0:0:
329,192,31013,1,0,0:0:0:0:
402,192,31013,1,0,0:0:0:0:
182,192,31346,128,2,31679:1:0:0:0:
256,192,31346,1,0,0:0:0:0:
475,192,31679,1,8,0:0:0:0:
36,192,31679,1,0,0:0:0:0:
402,192,31679,1,0,0:0:0:0:
329,192,31846,1,2,1:0:0:0:
256,192,31846,1,0,0:0:0:0:
36,192,32013,128,2,32346:0:0:0:0:
109,192,32013,1,0,0:0:0:0:
256,192,32179,1,0,1:0:0:0:
182,192,32179,1,0,0:0:0:0:
329,192,32346,1,0,0:0:0:0:
475,192,32346,1,8,0:0:0:0:
402,192,32346,1,0,0:0:0:0:
182,192,32513,1,2,3:0:0:0:
109,192,32679,1,2,1:0:0:0:
402,192,32679,1,0,0:0:0:0:
329,192,32679,128,0,33013:0:0:0:0:
256,192,33013,1,8,0:0:0:0:
182,192,33013,1,0,0:0:0:0:
475,192,33013,1,0,0:0:0:0:
36,192,33179,1,2,1:0:0:0:
109,192,33179,1,0,0:0:0:0:
182,192,33346,128,0,33679:0:0:0:0:
402,192,33346,1,0,0:0:0:0:
329,192,33513,1,0,0:0:0:0:
475,192,33679,1,8,0:0:0:0:
256,192,33679,1,0,0:0:0:0:
36,192,33679,1,0,0:0:0:0:
475,192,34013,128,2,34346:1:0:0:0:
402,192,34013,1,0,0:0:0:0:
329,192,34179,1,0,0:0:0:0:
256,192,34346,1,0,0:0:0:0:
36,192,34346,128,8,34679:0:0:0:0:
109,192,34346,1,2,0:0:0:0:
402,192,34513,1,0,0:0:0:0:
182,192,34513,1,0,1:0:0:0:
329,192,34679,128,2,35013:0:0:0:0:
109,192,34679,1,0,0:0:0:0:
402,192,34846,1,0,1:0:0:0:
475,192,34846,1,0,0:0:0:0:
182,192,35013,128,2,35346:0:0:0:0:
256,192,35013,1,8,0:0:0:0:
36,192,35013,1,0,0:0:0:0:
475,192,35179,1,2,3:0:0:0:
402,192,35346,128,4,35679:3:0:0:0:
329,192,35346,1,0,0:0:0:0:
256,192,35346,1,0,0:0:0:0:
109,192,35513,1,4,3:0:0:0:
36,192,35513,1,0,0:0:0:0:
182,192,35679,1,8,3:0:0:0:
256,192,35679,128,0,36013:0:0:0:0:
329,192,35679,1,0,0:0:0:0:
402,192,35846,1,8,3:0:0:0:
475,192,35846,1,0,0:0:0:0:
36,192,35846,1,0,0:0:0:0:
109,192,36013,128,2,36346:1:0:0:0:
182,192,36013,1,0,0:0:0:0:
329,192,36179,1,0,1:0:0:0:
402,192,36179,1,0,0:0:0:0:
475,192,36346,128,2,36679:0:0:0:0:
182,192,36346,1,8,0:0:0:0:
256,192,36346,1,0,0:0:0:0:
402,192,36513,1,0,0:0:0:0:
329,192,36513,1,8,3:0:0:0:
36,192,36679,128,4,37179:3:0:0:0:
109,192,36679,1,0,0:0:0:0:
182,192,36679,1,0,0:0:0:0:
402,192,36846,1,2,3:0:0:0:
329,192,36846,1,0,0:0:0:0:
109,192,37013,1,8,0:0:0:0:
256,192,37013,1,0,0:0:0:0:
182,192,37013,1,0,0:0:0:0:
475,192,37179,1,2,3:0:0:0:
329,192,37179,1,0,0:0:0:0:
402,192,37179,1,0,0:0:0:0:
256,192,37346,128,0,38013:0:0:0:0:
182,192,37346,1,0,1:0:0:0:
109,192,37346,1,0,0:0:0:0:
402,192,37513,1,2,3:0:0:0:
475,192,37513,1,0,0:0:0:0:
329,192,37679,1,8,0:0:0:0:
109,192,37679,1,0,0:0:0:0:
182,192,37846,1,2,3:0:0:0:
402,192,37846,1,0,0:0:0:0:
36,192,38013,1,4,1:0:0:0:
109,192,38013,1,0,0:0:0:0:
475,192,38013,128,0,39346:0:0:0:0:
329,192,38179,1,0,0:0:0:0:
256,192,38346,1,0,0:0:0:0:
36,192,38513,1,4,3:0:0:0:
109,192,38513,1,0,0:0:0:0:
402,192,38679,1,8,0:0:0:0:
329,192,38679,1,0,0:0:0:0:
182,192,38679,1,0,0:0:0:0:
256,192,39013,1,2,0:0:0:0:
329,192,39179,1,2,1:0:0:0:
402,192,39179,1,0,0:0:0:0:
36,192,39346,128,2,40013:0:0:0:0:
109,192,39346,1,0,0:0:0:0:
182,192,39513,1,0,0:0:0:0:
256,192,39513,1,0,0:0:0:0:
475,192,39679,1,2,0:0:0:0:
109,192,39846,1,0,0:0:0:0:
182,192,39846,1,0,0:0:0:0:
329,192,40013,128,2,40679:0:0:0:0:
402,192,40013,1,8,0:0:0:0:
256,192,40013,1,0,0:0:0:0:
182,192,40346,1,2,0:0:0:0:
402,192,40429,1,0,0:0:0:0:
475,192,40429,1,0,0:0:0:0:
109,192,40513,1,0,0:0:0:0:
36,192,40513,1,0,0:0:0:0:
402,192,40596,1,0,0:0:0:0:
475,192,40596,1,0,0:0:0:0:
182,192,40679,128,2,42179:1:0:0:0:
256,192,40679,1,0,0:0:0:0:
402,192,40846,1,0,0:0:0:0:
475,192,41013,1,0,0:0:0:0:
36,192,41013,1,0,0:0:0:0:
402,192,41179,1,4,3:0:0:0:
329,192,41346,1,8,0:0:0:0:
256,192,41346,1,0,0:0:0:0:
109,192,41346,1,0,0:0:0:0:
475,192,41679,1,2,0:0:0:0:
109,192,41846,1,2,1:0:0:0:
36,192,41846,1,0,0:0:0:0:
256,192,42013,1,0,0:0:0:0:
475,192,42179,128,0,42679:0:0:0:0:
402,192,42179,1,0,1:0:0:0:
36,192,42346,1,0,0:0:0:0:
109,192,42513,1,0,1:0:0:0:
182,192,42513,1,0,0:0:0:0:
329,192,42679,1,2,0:0:0:0:
256,192,42679,128,8,43013:0:0:0:0:
402,192,42679,1,0,0:0:0:0:
109,192,43013,128,2,43346:0:0:0:0:
182,192,43013,1,0,0:0:0:0:
475,192,43179,1,6,3:0:0:0:
402,192,43179,1,0,0:0:0:0:
36,192,43346,128,2,45346:1:0:0:0:
256,192,43346,1,0,0:0:0:0:
329,192,43346,1,0,0:0:0:0:
182,192,43513,1,0,0:0:0:0:
475,192,43679,1,2,0:0:0:0:
402,192,43846,1,4,3:0:0:0:
329,192,43846,1,0,0:0:0:0:
256,192,44013,1,8,0:0:0:0:
182,192,44013,1,0,0:0:0:0:
109,192,44013,1,0,0:0:0:0:
402,192,44346,1,2,0:0:0:0:
256,192,44513,1,2,1:0:0:0:
182,192,44513,1,0,0:0:0:0:
475,192,44679,1,0,0:0:0:0:
329,192,44846,1,0,0:0:0:0:
256,192,44846,1,0,0:0:0:0:
109,192,45013,1,2,0:0:0:0:
329,192,45179,1,0,0:0:0:0:
402,192,45179,1,0,0:0:0:0:
475,192,45346,128,2,45679:0:0:0:0:
256,192,45346,1,8,0:0:0:0:
182,192,45346,1,0,0:0:0:0:
329,192,45513,1,0,0:0:0:0:
109,192,45679,128,2,46013:0:0:0:0:
256,192,45679,1,0,0:0:0:0:
475,192,45846,1,0,0:0:0:0:
402,192,45929,1,0,0:0:0:0:
329,192,46013,128,2,47013:1:0:0:0:
256,192,46013,1,0,0:0:0:0:
36,192,46013,1,0,0:0:0:0:
182,192,46179,1,0,0:0:0:0:
475,192,46346,1,0,0:0:0:0:
109,192,46513,1,4,3:0:0:0:
36,192,46513,1,0,0:0:0:0:
182,192,46679,1,8,0:0:0:0:
256,192,46679,1,0,0:0:0:0:
402,192,46679,1,0,0:0:0:0:
36,192,47013,1,2,3:0:0:0:
402,192,47179,1,2,1:0:0:0:
475,192,47179,1,0,0:0:0:0:
256,192,47346,1,0,0:0:0:0:
182,192,47513,1,2,1:0:0:0:
109,192,47513,1,0,0:0:0:0:
329,192,47679,1,0,0:0:0:0:
475,192,47679,128,0,48013:3:0:0:0:
36,192,47846,1,0,1:0:0:0:
182,192,48013,128,8,48346:0:0:0:0:
256,192,48013,1,2,0:0:0:0:
402,192,48096,1,8,0:0:0:0:
329,192,48096,1,0,0:0:0:0:
109,192,48179,1,8,0:0:0:0:
36,192,48179,1,0,0:0:0:0:
475,192,48263,1,8,0:0:0:0:
402,192,48263,1,0,0:0:0:0:
109,192,48346,128,2,48679:0:0:0:0:
36,192,48346,1,0,0:0:0:0:
329,192,48513,1,2,3:0:0:0:
402,192,48513,1,0,0:0:0:0:
475,192,48679,1,6,1:0:0:0:
256,192,48679,1,0,0:0:0:0:
36,192,48679,128,0,51346:0:0:0:0:
182,192,48846,1,0,0:0:0:0:
402,192,49013,1,0,0:0:0:0:
329,192,49013,1,0,0:0:0:0:
182,192,49179,1,4,3:0:0:0:
109,192,49179,1,0,0:0:0:0:
256,192,49346,1,0,0:0:0:0:
402,192,49346,1,8,0:0:0:0:
475,192,49346,1,0,0:0:0:0:
329,192,49679,1,2,0:0:0:0:
182,192,49846,1,2,1:0:0:0:
109,192,49846,1,0,0:0:0:0:
402,192,50013,1,2,0:0:0:0:
256,192,50179,1,0,0:0:0:0:
182,192,50179,1,0,1:0:0:0:
475,192,50346,1,2,0:0:0:0:
256,192,50513,1,0,1:0:0:0:
329,192,50513,1,0,0:0:0:0:
182,192,50679,1,8,0:0:0:0:
109,192,50679,1,2,0:0:0:0:
402,192,50679,1,0,0:0:0:0:
329,192,50846,1,0,0:0:0:0:
256,192,51013,1,2,0:0:0:0:
182,192,51179,1,2,0:0:0:0:
475,192,51346,128,2,52346:1:0:0:0:
402,192,51346,1,0,0:0:0:0:
109,192,51346,1,0,0:0:0:0:
329,192,51513,1,0,0:0:0:0:
182,192,51679,1,0,0:0:0:0:
256,192,51846,1,4,3:0:0:0:
109,192,52013,1,8,0:0:0:0:
329,192,52013,1,0,0:0:0:0:
36,192,52013,1,0,0:0:0:0:
402,192,52346,1,2,0:0:0:0:
256,192,52513,128,2,53346:1:0:0:0:
182,192,52513,1,0,0:0:0:0:
36,192,52679,1,0,0:0:0:0:
402,192,52846,1,0,0:0:0:0:
475,192,52846,1,0,1:0:0:0:
109,192,53013,1,0,0:0:0:0:
329,192,53179,1,0,1:0:0:0:
182,192,53346,1,8,0:0:0:0:
36,192,53346,1,0,0:0:0:0:
475,192,53346,1,0,0:0:0:0:
402,192,53679,1,2,1:0:0:0:
329,192,53679,1,0,0:0:0:0:
109,192,53763,1,0,1:0:0:0:
182,192,53763,1,0,0:0:0:0:
475,192,53846,1,8,3:0:0:0:
402,192,53846,1,0,0:0:0:0:
109,192,53929,1,4,3:0:0:0:
36,192,53929,1,0,0:0:0:0:
182,192,54013,1,6,1:0:0:0:
256,192,54013,1,0,0:0:0:0:
329,192,54013,128,0,54346:0:0:0:0:
36,192,54346,1,8,0:0:0:0:
109,192,54346,1,2,0:0:0:0:
475,192,54346,128,0,54513:0:0:0:0:
256,192,54513,1,2,1:0:0:0:
182,192,54513,1,0,0:0:0:0:
329,192,54679,1,0,3:0:0:0:
36,192,54846,1,2,3:2:0:0:
475,192,54846,128,0,55013:0:0:0:0:
329,192,55013,1,8,0:0:0:0:
402,192,55013,1,0,0:0:0:0:
182,192,55013,1,0,0:0:0:0:
109,192,55179,1,2,3:0:0:0:
256,192,55179,128,0,55596:0:0:0:0:
402,192,55346,1,0,1:0:0:0:
475,192,55346,1,0,0:0:0:0:
182,192,55513,1,0,1:0:0:0:
109,192,55513,1,0,0:0:0:0:
402,192,55679,1,2,0:0:0:0:
475,192,55679,128,8,56013:0:0:0:0:
36,192,55679,128,0,55846:0:0:0:0:
256,192,55846,1,0,1:0:0:0:
182,192,55846,1,0,0:0:0:0:
402,192,56013,128,2,56346:1:0:0:0:
329,192,56013,1,0,0:0:0:0:
109,192,56179,1,2,3:0:0:0:
36,192,56179,128,0,56346:0:0:0:0:
182,192,56346,1,2,0:0:0:0:
256,192,56346,1,8,0:0:0:0:
329,192,56346,128,0,56679:0:0:0:0:
475,192,56679,1,2,1:0:0:0:
256,192,56679,128,0,58013:0:0:0:0:
36,192,56679,1,0,0:0:0:0:
475,192,56846,1,2,0:0:0:0:
36,192,56846,1,0,0:0:0:0:
182,192,57013,1,0,0:0:0:0:
402,192,57013,1,0,1:0:0:0:
402,192,57179,1,2,0:0:0:0:
182,192,57179,1,0,0:0:0:0:
329,192,57346,1,0,0:0:0:0:
109,192,57346,1,0,1:0:0:0:
109,192,57513,1,2,0:0:0:0:
329,192,57513,1,0,0:0:0:0:
36,192,57679,1,0,0:0:0:0:
475,192,57679,1,0,1:0:0:0:
36,192,57846,1,2,0:0:0:0:
475,192,57846,1,0,0:0:0:0:
402,192,58013,1,2,1:3:0:0:
329,192,58013,1,0,0:0:0:0:
109,192,58013,1,0,0:0:0:0:
182,192,58013,1,0,0:0:0:0:
109,192,58179,1,8,0:3:0:0:
402,192,58179,1,0,0:0:0:0:
182,192,58513,1,4,0:3:0:0:
329,192,58513,1,0,0:0:0:0:
256,192,58679,1,2,0:0:0:0:
109,192,58846,1,8,2:3:0:0:
36,192,58846,1,0,0:0:0:0:
182,192,58929,1,0,0:0:0:0:
329,192,59013,1,4,0:3:0:0:
402,192,59013,1,0,0:0:0:0:
475,192,59096,1,0,0:0:0:0:
109,192,59179,1,2,2:3:0:0:
36,192,59179,128,8,59513:2:3:0:0:
182,192,59263,1,0,0:0:0:0:
329,192,59346,1,6,1:0:0:0:
475,192,59346,1,0,0:0:0:0:
402,192,59346,1,0,0:0:0:0:
256,192,59346,1,0,0:0:0:0:
182,192,59679,128,2,60013:0:0:0:0:
109,192,59679,1,8,0:0:0:0:
475,192,59679,1,0,0:0:0:0:
402,192,59846,1,0,0:0:0:0:
329,192,59846,128,0,60013:1:0:0:0:
475,192,60013,128,0,60179:0:0:0:0:
36,192,60013,1,0,3:0:0:0:
256,192,60179,128,0,60346:0:0:0:0:
109,192,60179,1,0,1:0:0:0:
402,192,60346,1,8,0:0:0:0:
329,192,60346,1,0,0:0:0:0:
182,192,60346,1,0,0:0:0:0:
36,192,60513,1,2,1:0:0:0:
475,192,60513,128,0,60846:0:0:0:0:
256,192,60846,1,0,1:0:0:0:
182,192,60846,1,0,0:0:0:0:
329,192,61013,128,2,61346:0:0:0:0:
36,192,61013,1,8,0:0:0:0:
402,192,61013,1,0,0:0:0:0:
182,192,61179,128,0,61346:0:0:0:0:
109,192,61179,1,0,1:0:0:0:
36,192,61346,128,0,61513:0:0:0:0:
475,192,61346,1,0,3:0:0:0:
402,192,61513,1,0,0:0:0:0:
256,192,61513,128,0,61679:1:0:0:0:
182,192,61679,1,8,0:0:0:0:
329,192,61679,1,0,0:0:0:0:
109,192,61679,1,0,0:0:0:0:
402,192,61846,1,2,1:2:0:0:
475,192,61846,128,0,62179:0:0:0:0:
36,192,62013,1,4,1:0:0:0:
109,192,62013,1,0,0:0:0:0:
329,192,62179,1,0,0:0:0:0:
256,192,62179,1,0,0:0:0:0:
109,192,62346,1,8,0:0:0:0:
36,192,62346,1,2,0:0:0:0:
182,192,62346,1,0,0:0:0:0:
329,192,62513,1,2,1:0:0:0:
402,192,62513,1,0,0:0:0:0:
256,192,62679,1,2,3:2:0:0:
475,192,62846,1,0,1:0:0:0:
402,192,62846,1,0,0:0:0:0:
109,192,63013,1,8,0:0:0:0:
36,192,63013,1,2,0:0:0:0:
329,192,63013,1,0,0:0:0:0:
182,192,63179,128,2,63513:1:0:0:0:
475,192,63179,1,0,0:0:0:0:
402,192,63346,1,0,0:0:0:0:
329,192,63513,128,2,63846:1:0:0:0:
256,192,63513,1,0,0:0:0:0:
109,192,63679,1,8,0:0:0:0:
36,192,63679,1,0,0:0:0:0:
475,192,63679,1,0,0:0:0:0:
182,192,63846,1,2,1:0:0:0:
256,192,63846,1,0,0:0:0:0:
109,192,64013,1,0,0:0:0:0:
36,192,64013,1,2,3:2:0:0:
402,192,64179,1,2,1:0:0:0:
329,192,64179,1,0,0:0:0:0:
182,192,64346,1,10,0:3:0:0:
256,192,64346,1,0,0:0:0:0:
475,192,64346,128,0,64679:0:0:0:0:
256,192,64679,128,6,65846:1:0:0:0:
109,192,64679,1,0,0:0:0:0:
402,192,64679,1,0,0:0:0:0:
329,192,65013,1,4,0:0:0:0:
109,192,65013,1,8,0:0:0:0:
36,192,65013,1,0,0:0:0:0:
402,192,65179,1,0,1:0:0:0:
475,192,65179,1,0,0:0:0:0:
182,192,65346,1,0,0:0:0:0:
329,192,65513,1,0,1:0:0:0:
402,192,65513,1,0,0:0:0:0:
475,192,65679,1,8,0:0:0:0:
36,192,65679,1,0,0:0:0:0:
109,192,65679,1,0,0:0:0:0:
329,192,65846,1,2,3:2:0:0:
182,192,66013,1,2,1:0:0:0:
109,192,66013,1,0,0:0:0:0:
402,192,66179,1,0,0:0:0:0:
475,192,66179,1,0,0:0:0:0:
329,192,66346,1,8,0:0:0:0:
256,192,66346,1,0,0:0:0:0:
36,192,66346,1,0,0:0:0:0:
182,192,66513,1,2,1:0:0:0:
109,192,66513,1,0,0:0:0:0:
402,192,66679,1,2,3:2:0:0:
182,192,66846,1,0,1:0:0:0:
256,192,66846,1,0,0:0:0:0:
475,192,67013,1,2,0:0:0:0:
109,192,67013,1,8,0:0:0:0:
36,192,67013,1,0,0:0:0:0:
329,192,67179,1,2,3:2:0:0:
182,192,67346,1,2,1:0:0:0:
402,192,67346,1,0,0:0:0:0:
329,192,67513,1,2,1:0:0:0:
109,192,67513,1,0,0:0:0:0:
36,192,67679,1,2,0:0:0:0:
475,192,67679,1,8,0:0:0:0:
256,192,67679,128,0,68346:0:0:0:0:
402,192,67846,1,0,1:0:0:0:
109,192,68013,1,0,0:0:0:0:
182,192,68013,1,0,0:0:0:0:
402,192,68179,1,0,0:0:0:0:
329,192,68179,1,0,1:0:0:0:
475,192,68346,1,8,0:0:0:0:
109,192,68346,1,0,0:0:0:0:
36,192,68346,1,0,0:0:0:0:
329,192,68513,1,2,3:2:0:0:
182,192,68679,1,2,1:0:0:0:
402,192,68679,1,0,0:0:0:0:
256,192,68846,1,2,1:0:0:0:
475,192,68846,1,0,0:0:0:0:
109,192,69013,1,8,0:0:0:0:
329,192,69013,1,2,0:0:0:0:
36,192,69013,128,0,69346:0:0:0:0:
402,192,69179,1,2,1:0:0:0:
475,192,69179,1,0,0:0:0:0:
256,192,69346,1,2,0:0:0:0:
109,192,69513,1,2,1:0:0:0:
182,192,69513,1,0,0:0:0:0:
329,192,69679,1,2,0:0:0:0:
256,192,69679,1,8,0:0:0:0:
402,192,69679,1,0,0:0:0:0:
109,192,69846,1,2,1:0:0:0:
36,192,69846,128,0,70346:0:0:0:0:
182,192,69929,1,0,0:0:0:0:
256,192,69929,1,0,1:0:0:0:
329,192,70013,1,4,1:0:0:0:
402,192,70013,1,0,0:0:0:0:
475,192,70013,1,0,0:0:0:0:
109,192,70179,1,0,0:0:0:0:
475,192,70346,128,2,70679:0:0:0:0:
182,192,70346,1,8,0:0:0:0:
256,192,70346,1,0,0:0:0:0:
329,192,70513,128,0,70679:0:0:0:0:
402,192,70513,1,0,1:0:0:0:
109,192,70679,128,0,70846:0:0:0:0:
36,192,70679,1,0,3:0:0:0:
256,192,70846,128,0,71013:0:0:0:0:
182,192,70846,1,0,1:0:0:0:
402,192,71013,1,0,0:0:0:0:
475,192,71013,1,8,0:0:0:0:
329,192,71013,1,0,0:0:0:0:
36,192,71179,1,2,1:0:0:0:
475,192,71179,128,0,71679:0:0:0:0:
182,192,71346,1,2,0:0:0:0:
329,192,71513,1,0,1:0:0:0:
402,192,71513,1,0,0:0:0:0:
256,192,71679,1,2,0:0:0:0:
36,192,71679,128,8,72013:0:0:0:0:
109,192,71679,1,0,0:0:0:0:
182,192,71846,128,0,72013:0:0:0:0:
329,192,71846,1,0,1:0:0:0:
402,192,72013,128,0,72179:0:0:0:0:
475,192,72013,1,0,3:0:0:0:
256,192,72179,128,0,72346:0:0:0:0:
329,192,72179,1,0,1:0:0:0:
109,192,72346,1,0,0:0:0:0:
182,192,72346,1,8,0:0:0:0:
36,192,72346,1,0,0:0:0:0:
475,192,72513,128,2,72846:1:0:0:0:
402,192,72513,1,0,0:0:0:0:
329,192,72679,1,4,1:0:0:0:
256,192,72679,1,0,0:0:0:0:
36,192,72846,1,0,0:0:0:0:
109,192,72846,1,0,0:0:0:0:
402,192,73013,1,8,0:0:0:0:
256,192,73013,1,2,0:0:0:0:
182,192,73013,128,0,73346:0:0:0:0:
475,192,73179,1,0,1:0:0:0:
36,192,73179,1,0,0:0:0:0:
329,192,73346,128,2,73679:3:2:0:0:
109,192,73346,1,0,0:0:0:0:
475,192,73513,1,0,1:0:0:0:
256,192,73513,1,0,0:0:0:0:
182,192,73679,1,8,0:0:0:0:
109,192,73679,1,2,0:0:0:0:
402,192,73679,1,0,0:0:0:0:
36,192,73846,128,2,74179:1:0:0:0:
256,192,73846,1,0,0:0:0:0:
329,192,74013,1,0,0:0:0:0:
402,192,74179,128,2,74513:1:0:0:0:
475,192,74179,1,0,0:0:0:0:
182,192,74346,1,8,0:0:0:0:
109,192,74346,1,0,0:0:0:0:
329,192,74346,1,0,0:0:0:0:
256,192,74513,128,2,74846:1:0:0:0:
36,192,74513,1,0,0:0:0:0:
475,192,74679,1,0,0:0:0:0:
109,192,74846,128,2,75179:1:0:0:0:
36,192,74846,1,0,0:0:0:0:
182,192,75013,1,8,0:0:0:0:
402,192,75013,1,0,0:0:0:0:
329,192,75013,1,0,0:0:0:0:
256,192,75179,1,2,3:2:0:0:
182,192,75346,1,6,1:0:0:0:
329,192,75346,1,0,0:0:0:0:
36,192,75346,128,0,76346:0:0:0:0:
475,192,75513,1,0,0:0:0:0:
182,192,75679,1,4,0:0:0:0:
109,192,75679,1,8,0:0:0:0:
256,192,75679,1,0,0:0:0:0:
329,192,75846,1,0,1:0:0:0:
402,192,75846,1,0,0:0:0:0:
109,192,76013,1,0,3:0:0:0:
182,192,76179,1,0,1:0:0:0:
256,192,76179,1,0,0:0:0:0:
329,192,76346,128,8,76679:0:0:0:0:
402,192,76346,1,2,0:0:0:0:
475,192,76346,1,0,0:0:0:0:
256,192,76513,1,0,0:0:0:0:
182,192,76679,128,6,77013:1:0:0:0:
109,192,76679,1,0,0:0:0:0:
402,192,76846,1,0,0:0:0:0:
475,192,76846,1,0,0:0:0:0:
256,192,77013,1,0,0:0:0:0:
36,192,77013,1,8,0:0:0:0:
329,192,77013,1,0,0:0:0:0:
402,192,77179,1,0,0:0:0:0:
109,192,77179,1,0,1:0:0:0:
475,192,77346,128,2,77679:0:0:0:0:
182,192,77346,1,0,0:0:0:0:
256,192,77513,1,0,1:0:0:0:
329,192,77513,1,0,0:0:0:0:
36,192,77679,128,8,78013:0:0:0:0:
109,192,77679,1,2,0:0:0:0:
402,192,77679,1,0,0:0:0:0:
182,192,77846,1,0,0:0:0:0:
256,192,78013,128,4,82013:3:0:0:0:
475,192,78013,1,0,0:0:0:0:
402,192,78013,1,0,0:0:0:0:
182,192,78179,1,0,0:0:0:0:
109,192,78179,1,4,3:0:0:0:
329,192,78346,1,8,3:0:0:0:
475,192,78346,1,0,0:0:0:0:
182,192,78513,1,8,3:0:0:0:
36,192,78513,1,0,0:0:0:0:
402,192,78679,1,0,0:0:0:0:
329,192,78679,128,0,79013:1:0:0:0:
109,192,78846,1,0,1:0:0:0:
36,192,78846,1,0,0:0:0:0:
402,192,79013,1,8,0:0:0:0:
475,192,79013,128,0,79346:0:0:0:0:
182,192,79179,1,0,0:0:0:0:
109,192,79346,1,4,3:0:0:0:
36,192,79346,128,0,82013:0:0:0:0:
329,192,79513,1,4,3:0:0:0:
402,192,79513,1,0,0:0:0:0:
182,192,79679,1,8,3:0:0:0:
109,192,79679,1,0,0:0:0:0:
402,192,79846,1,8,3:0:0:0:
475,192,79846,1,0,0:0:0:0:
329,192,80013,128,0,80346:1:0:0:0:
109,192,80179,1,0,1:0:0:0:
182,192,80179,1,0,0:0:0:0:
402,192,80346,128,0,80679:0:0:0:0:
475,192,80346,1,8,0:0:0:0:
109,192,80513,1,0,0:0:0:0:
475,192,80679,128,0,82013:1:0:0:0:
182,192,80679,1,0,0:0:0:0:
329,192,80846,1,0,0:0:0:0:
182,192,81013,1,8,0:0:0:0:
109,192,81013,1,0,0:0:0:0:
329,192,81179,1,8,0:0:0:0:
402,192,81179,1,0,0:0:0:0:
109,192,81346,1,4,3:0:0:0:
182,192,81513,1,4,3:0:0:0:
402,192,81513,1,0,0:0:0:0:
329,192,81679,1,8,3:0:0:0:
109,192,81679,1,0,0:0:0:0:
182,192,81846,1,0,0:0:0:0:
402,192,81846,1,0,0:0:0:0:
329,192,82013,1,0,0:0:0:0:
109,192,82013,1,0,1:0:0:0:
402,192,82179,1,0,1:0:0:0:
182,192,82179,1,0,0:0:0:0:
256,192,82346,1,2,0:0:0:0:
475,192,82346,1,8,0:0:0:0:
36,192,82346,1,0,0:0:0:0:
329,192,82513,1,0,1:0:0:0:
182,192,82513,1,0,0:0:0:0:
109,192,82679,1,2,0:0:0:0:
475,192,82679,1,0,0:0:0:0:
402,192,82846,1,2,1:0:0:0:
256,192,82846,1,0,0:0:0:0:
182,192,83013,1,8,0:0:0:0:
329,192,83013,1,0,0:0:0:0:
36,192,83013,128,2,83346:0:0:0:0:
109,192,83346,1,4,1:0:0:0:
256,192,83346,1,0,0:0:0:0:
402,192,83346,1,0,0:0:0:0:
475,192,83346,128,0,84679:0:0:0:0:
329,192,83679,1,2,1:0:0:0:
182,192,83679,1,0,0:0:0:0:
36,192,83846,1,2,0:2:0:0:
109,192,83846,1,0,0:0:0:0:
256,192,84013,1,0,1:0:0:0:
402,192,84013,1,0,0:0:0:0:
182,192,84179,128,2,84513:3:2:0:0:
109,192,84179,1,0,0:0:0:0:
329,192,84346,1,0,1:0:0:0:
36,192,84346,1,0,0:0:0:0:
256,192,84513,1,0,0:0:0:0:
402,192,84679,1,4,1:0:0:0:
109,192,84679,1,0,0:0:0:0:
36,192,84679,128,0,86013:0:0:0:0:
329,192,85013,1,0,0:0:0:0:
182,192,85013,1,2,1:2:0:0:
475,192,85179,1,2,3:2:0:0:
402,192,85179,1,0,0:0:0:0:
256,192,85346,1,0,1:0:0:0:
109,192,85346,1,0,0:0:0:0:
329,192,85513,128,2,86013:3:2:0:0:
402,192,85513,1,0,0:0:0:0:
109,192,85679,1,0,1:0:0:0:
182,192,85679,1,0,0:0:0:0:
475,192,85846,1,0,0:0:0:0:
256,192,86013,128,2,87346:0:0:0:0:
402,192,86013,1,4,0:0:0:0:
182,192,86013,128,8,86179:0:0:0:0:
36,192,86179,1,0,1:0:0:0:
109,192,86179,1,0,0:0:0:0:
475,192,86346,1,8,0:0:0:0:
402,192,86346,1,0,0:0:0:0:
329,192,86346,128,0,86513:0:0:0:0:
109,192,86513,1,0,1:0:0:0:
182,192,86513,1,0,0:0:0:0:
36,192,86679,1,8,0:0:0:0:
475,192,86679,1,0,0:0:0:0:
402,192,86679,128,0,86846:0:0:0:0:
329,192,86846,1,0,1:0:0:0:
182,192,86846,1,0,0:0:0:0:
36,192,87013,1,8,0:0:0:0:
475,192,87013,1,0,0:0:0:0:
109,192,87013,128,0,87179:0:0:0:0:
182,192,87179,1,0,1:0:0:0:
329,192,87179,1,0,0:0:0:0:
475,192,87346,1,4,0:0:0:0:
402,192,87346,1,8,0:0:0:0:
36,192,87346,1,0,0:0:0:0:
109,192,87346,1,0,0:0:0:0:
182,192,88013,128,2,88679:0:0:0:0:
329,192,88346,128,6,88679:0:2:0:0:
