osu file format v14

[General]
AudioFilename: audio.mp3
AudioLeadIn: 0
PreviewTime: 58013
Countdown: 0
SampleSet: Soft
StackLeniency: 0.7
Mode: 0
LetterboxInBreaks: 0
WidescreenStoryboard: 0

[Editor]
Bookmarks: 75513
DistanceSpacing: 1
BeatDivisor: 2
GridSize: 4
TimelineZoom: 1

[Metadata]
Title:Dakara, Hitori ja nai -TV Size-
TitleUnicode:だから、ひとりじゃない -TV Size-
Artist:Little Glee Monster
ArtistUnicode:Little Glee Monster
Creator:Chewin
Version:Normal
Source:僕のヒーローアカデミア 第2期
Tags:boku no my hero academia heroaca ヒロアカ ending theme ed plus ultra
BeatmapID:1385710
BeatmapSetID:645856

[Difficulty]
HPDrainRate:3
CircleSize:3
OverallDifficulty:4
ApproachRate:5
SliderMultiplier:1.1
SliderTickRate:1

[Events]
//Background and Video events
0,0,"DDohbSXUwAEWQyY.jpg",0,0
Video,-841,"Boku no Hero Academia Ending 2 Dakara Hitori Janai - Little Glee Monster_track1.mp4"
//Break Periods
//Storyboard Layer 0 (Background)
//Storyboard Layer 1 (Fail)
//Storyboard Layer 2 (Pass)
//Storyboard Layer 3 (Foreground)
//Storyboard Sound Samples

[TimingPoints]
180,333.333333333333,4,1,0,30,1,0
1429,-100,4,2,0,5,0,0
1513,-100,4,2,0,40,0,0
2763,-100,4,2,0,5,0,0
2846,-100,4,2,0,50,0,0
4179,-100,4,2,0,30,0,0
4846,-100,4,2,0,50,0,0
37513,-153.846153846153,4,2,0,35,0,0
53513,-100,4,2,0,50,0,0
58846,-90.9090909090909,4,2,0,50,0,1
68679,-90.9090909090909,4,2,0,50,0,0
69513,-90.9090909090909,4,2,0,50,0,1
82846,-100,4,2,0,50,0,0
87179,-100,4,2,0,50,0,0

[Colours]
Combo1 : 135,224,1
Combo2 : 186,116,116
Combo3 : 212,212,212
Combo4 : 255,187,255

[HitObjects]
256,192,180,12,4,4179,0:0:0:0:
224,164,5513,5,4,0:0:0:0:
176,264,5846,5,0,1:0:0:0:
176,264,6013,2,0,P|120:256|60:196,2,110
228,244,6846,1,0,0:0:0:0:
328,196,7179,5,0,1:0:0:0:
328,196,7346,2,0,P|388:208|444:264,2,110,0|0|0,0:0|0:0|0:0,0:0:0:0:
272,196,8179,1,0,0:0:0:0:
172,144,8513,5,0,1:0:0:0:
172,144,8679,2,0,L|160:24,2,110
180,200,9513,5,2,0:0:0:0:
68,188,9846,1,2,0:0:0:0:
52,296,10179,1,2,0:0:0:0:
160,308,10513,1,2,0:0:0:0:
180,200,10846,1,4,0:0:0:0:
256,120,11179,5,0,1:0:0:0:
256,120,11346,2,0,L|248:8,2,110,0|0|0,0:0|0:0|0:0,0:0:0:0:
264,176,12179,1,0,0:0:0:0:
368,220,12513,5,0,1:0:0:0:
368,220,12679,2,0,L|360:364,2,110,0|0|0,0:0|0:0|0:0,0:0:0:0:
256,192,13513,12,4,14846,0:0:0:0:
244,328,16013,5,0,0:0:0:0:
244,328,16179,2,0,P|184:344|96:312,1,110,4|0,0:0|3:0,0:0:0:0:
60,256,16846,2,0,L|56:112,1,110,0|0,0:0|3:0,0:0:0:0:
152,92,17513,2,0,L|155:201,1,110,0|0,0:0|3:0,0:0:0:0:
159,256,18013,1,0,0:0:0:0:
159,256,18179,2,0,P|223:256|291:220,1,110,0|0,0:0|3:0,0:0:0:0:
304,200,18679,5,0,0:0:0:0:
304,200,18846,2,0,P|368:204|428:240,1,110,0|0,0:0|3:0,0:0:0:0:
384,332,19513,2,0,P|320:328|260:292,1,110,0|0,0:0|3:0,0:0:0:0:
188,248,20179,2,0,P|128:256|80:288,1,110,0|0,0:0|3:0,0:0:0:0:
48,324,20679,1,0,0:0:0:0:
48,324,20846,2,0,L|40:180,1,110,0|0,0:0|3:0,0:0:0:0:
36,160,21346,5,0,0:0:0:0:
36,160,21513,2,0,P|100:160|152:136,1,110,0|0,0:0|3:0,0:0:0:0:
208,56,22179,2,0,P|272:60|336:92,1,110,0|0,0:0|3:0,0:0:0:0:
344,124,22679,5,0,0:0:0:0:
344,124,22846,2,0,P|408:116|464:84,2,110,0|0|0,0:0|3:0|0:0,0:0:0:0:
256,188,23846,1,0,3:0:0:0:
204,92,24179,2,0,P|128:96|64:128,1,110,0|0,0:0|3:0,0:0:0:0:
56,144,24679,1,0,0:0:0:0:
56,144,24846,2,0,L|60:268,1,110,0|0,0:0|3:0,0:0:0:0:
128,340,25513,6,0,P|188:348|284:296,2,165,2|2|0,0:0|0:0|3:0,0:0:0:0:
96,296,26679,5,0,0:0:0:0:
96,296,26846,2,0,L|104:168,1,110,4|0,0:0|3:0,0:0:0:0:
116,76,27513,2,0,P|176:80|236:112,1,110,0|0,0:0|3:0,0:0:0:0:
252,208,28179,2,0,P|312:200|368:156,1,110,0|0,0:0|3:0,0:0:0:0:
392,132,28679,1,0,0:0:0:0:
392,132,28846,2,0,L|384:272,1,110,0|0,0:0|3:0,0:0:0:0:
384,296,29346,5,0,0:0:0:0:
384,296,29513,2,0,P|320:300|240:332,1,110,0|0,0:0|3:0,0:0:0:0:
176,356,30179,2,0,P|116:352|64:328,1,110,0|0,0:0|3:0,0:0:0:0:
28,232,30846,2,0,L|40:120,1,110,0|0,0:0|2:0,0:0:0:0:
48,68,31346,1,0,0:0:0:0:
48,68,31513,2,0,P|112:84|160:120,1,110,0|0,0:0|3:0,0:0:0:0:
180,152,32013,5,0,0:0:0:0:
180,152,32179,2,0,P|240:144|300:108,1,110,0|0,0:0|3:0,0:0:0:0:
368,48,32846,2,0,P|424:72|464:112,1,110,0|0,0:0|3:0,0:0:0:0:
476,156,33346,5,0,0:0:0:0:
476,156,33513,2,0,L|464:276,1,110,0|0,0:0|3:0,0:0:0:0:
380,336,34179,2,0,L|368:200,1,110,0|0,0:0|3:0,0:0:0:0:
360,116,34846,5,4,3:0:0:0:
272,184,35179,1,0,3:0:0:0:
232,80,35513,1,0,3:0:0:0:
156,160,35846,1,0,3:0:0:0:
76,84,36179,6,0,P|56:136|64:216,1,110,0|0,0:0|3:0,0:0:0:0:
100,224,36679,1,0,0:0:0:0:
100,224,36846,2,0,L|96:340,2,110,0|0|4,0:0|3:0|0:0,0:0:0:0:
256,68,38179,5,0,1:0:0:0:
240,208,38846,2,0,L|244:304,1,71.4999967269899,0|0,0:0|0:0,0:0:0:0:
260,348,39513,2,0,P|304:352|360:340,1,71.4999967269899,0|0,1:0|0:0,0:0:0:0:
372,292,40179,6,0,P|424:296|480:336,2,107.249995090485
330,348,41513,1,0,0:0:0:0:
200,288,42179,2,0,L|100:296,2,71.4999967269899,0|2|4,1:0|0:0|0:0,0:0:0:0:
330,348,43513,5,0,1:0:0:0:
432,248,44179,2,0,L|428:152,1,71.4999967269899,0|0,0:0|0:0,0:0:0:0:
424,104,44846,2,0,P|376:104|340:124,1,71.4999967269899,0|0,1:0|0:0,0:0:0:0:
312,172,45513,6,0,P|268:172|196:132,2,107.249995090485
355,113,46846,1,0,0:0:0:0:
472,196,47513,2,0,L|468:288,2,71.4999967269899,0|2|4,1:0|0:0|0:0,0:0:0:0:
420,64,48846,5,0,1:0:0:0:
352,192,49513,2,0,L|268:184,1,71.4999967269899,0|0,0:0|0:0,0:0:0:0:
220,148,50179,2,0,L|224:248,1,71.4999967269899,0|0,1:0|0:0,0:0:0:0:
224,292,50846,6,0,P|164:292|104:248,2,107.249995090485
284,252,52179,1,0,0:0:0:0:
388,352,52846,2,0,L|460:340,1,71.4999967269899,0|0,1:0|0:0,0:0:0:0:
476,232,53513,6,0,P|476:168|444:76,1,110,4|0,0:0|0:0,0:0:0:0:
424,88,54013,2,0,L|284:96,1,110,2|2,0:0|0:0,0:0:0:0:
256,188,54679,2,0,L|128:176,1,110,2|0,0:0|0:0,0:0:0:0:
92,172,55179,1,2,0:0:0:0:
28,264,55513,2,0,L|137:274,1,110,2|2,0:0|0:0,0:0:0:0:
216,352,56179,6,0,L|284:344,1,55,2|0,0:0|0:0,0:0:0:0:
316,316,56513,2,0,L|376:328,1,55,2|0,0:0|0:0,0:0:0:0:
416,356,56846,2,0,L|460:288,1,55,2|0,0:0|0:0,0:0:0:0:
440,256,57179,2,0,L|432:192,1,55,2|0,0:0|0:0,0:0:0:0:
428,148,57513,5,2,0:0:0:0:
428,148,57679,1,0,0:0:0:0:
428,148,58846,6,0,P|356:140|304:104,1,121.000003692627,4|0,0:0|1:0,0:0:0:0:
284,64,59346,1,0,0:0:0:0:
284,64,59513,2,0,L|144:68,1,121.000003692627,0|0,0:0|1:0,0:0:0:0:
108,44,60013,6,0,P|84:116|92:176,1,121.000003692627,2|0,0:0|0:0,0:0:0:0:
132,200,60513,1,0,1:0:0:0:
132,200,60679,2,0,P|152:276|144:352,1,121.000003692627
256,256,61346,5,2,0:0:0:0:
256,256,61513,2,0,L|376:268,1,121.000003692627,0|0,0:0|1:0,0:0:0:0:
420,304,62013,1,0,0:0:0:0:
420,304,62179,2,0,P|444:236|432:168,1,121.000003692627,0|0,0:0|1:0,0:0:0:0:
392,148,62679,2,0,P|396:76|416:24,2,121.000003692627
328,252,63679,2,0,L|332:332,1,60.5000018463135,0|0,0:0|1:0,0:0:0:0:
212,296,64179,6,0,P|152:292|80:328,2,121.000003692627,4|0|0,0:0|1:0|0:0,0:0:0:0:
272,188,65179,1,0,1:0:0:0:
332,292,65513,2,0,P|404:280|460:228,1,121.000003692627,0|0,0:0|1:0,0:0:0:0:
404,136,66179,2,0,P|332:148|276:188,1,121.000003692627,0|0,0:0|1:0,0:0:0:0:
252,220,66679,5,0,0:0:0:0:
252,220,66846,2,0,P|176:216|120:184,2,121.000003692627,4|0|0,0:0|1:0|0:0,0:0:0:0:
332,128,67846,1,0,1:0:0:0:
424,208,68179,2,0,L|412:348,1,121.000003692627,0|0,0:0|1:0,0:0:0:0:
364,364,68679,6,0,P|328:348|296:312,1,60.5000018463135,2|0,0:0|0:0,0:0:0:0:
276,284,69013,2,0,P|220:296|188:324,1,60.5000018463135,0|0,0:0|1:0,0:0:0:0:
176,340,69346,1,2,0:0:0:0:
176,340,69513,2,0,P|100:336|44:292,1,121.000003692627,4|0,0:0|1:0,0:0:0:0:
76,192,70179,1,0,0:0:0:0:
62,70,70513,5,0,1:0:0:0:
62,70,70679,2,0,P|116:43|176:44,1,121.000003692627,2|0,0:0|0:0,0:0:0:0:
208,96,71179,2,0,P|248:124|332:128,1,121.000003692627,0|0,1:0|0:0,0:0:0:0:
424,72,71846,2,0,P|440:108|436:160,1,60.5000018463135,0|0,1:0|0:0,0:0:0:0:
420,184,72179,6,0,P|408:248|408:312,1,121.000003692627,0|0,0:0|1:0,0:0:0:0:
280,364,72846,2,0,L|288:204,1,121.000003692627,0|0,0:0|1:0,0:0:0:0:
288,184,73346,2,0,P|228:184|160:224,2,121.000003692627,0|0|0,0:0|0:0|0:0,0:0:0:0:
368,276,74346,1,0,0:0:0:0:
460,192,74679,5,0,0:0:0:0:
460,192,74846,2,0,L|456:60,1,121.000003692627,0|0,0:0|1:0,0:0:0:0:
344,32,75513,2,0,L|347:163,1,121.000003692627,0|0,0:0|1:0,0:0:0:0:
232,188,76179,2,0,L|228:64,1,121.000003692627,0|0,0:0|1:0,0:0:0:0:
108,40,76846,6,0,L|112:164,2,121.000003692627,0|0|4,0:0|1:0|0:0,0:0:0:0:
256,232,78179,6,0,L|248:368,2,121.000003692627,0|0|4,0:0|1:0|0:0,0:0:0:0:
436,32,79513,6,0,L|432:160,1,121.000003692627,0|0,0:0|1:0,0:0:0:0:
256,192,80179,12,0,81513,0:0:0:0:
256,192,82846,5,0,0:0:0:0:
256,300,83179,1,2,0:0:0:0:
256,300,83346,2,0,L|104:316,2,110,2|2|0,0:0|0:0|0:0,0:0:0:0:
312,292,84179,5,0,0:0:0:0:
256,196,84513,1,2,0:0:0:0:
256,196,84680,2,0,L|104:212,2,110,2|2|0,0:0|0:0|0:0,0:0:0:0:
256,192,85513,12,2,86846,0:0:0:0:
256,192,87846,5,2,0:0:0:0:
