osu file format v14

[General]
AudioFilename: audio.mp3
AudioLeadIn: 0
PreviewTime: 58013
Countdown: 0
SampleSet: Soft
StackLeniency: 0.7
Mode: 0
LetterboxInBreaks: 0
WidescreenStoryboard: 0

[Editor]
DistanceSpacing: 1.2
BeatDivisor: 4
GridSize: 4
TimelineZoom: 1

[Metadata]
Title:Dakara, Hitori ja nai -TV Size-
TitleUnicode:だから、ひとりじゃない -TV Size-
Artist:Little Glee Monster
ArtistUnicode:Little Glee Monster
Creator:Chewin
Version:Insane
Source:僕のヒーローアカデミア 第2期
Tags:boku no my hero academia heroaca ヒロアカ ending theme ed plus ultra
BeatmapID:1368465
BeatmapSetID:645856

[Difficulty]
HPDrainRate:6
CircleSize:4
OverallDifficulty:7
ApproachRate:9
SliderMultiplier:1.6
SliderTickRate:1

[Events]
//Background and Video events
0,0,"DDohbSXUwAEWQyY.jpg",0,0
Video,-841,"Boku no Hero Academia Ending 2 Dakara Hitori Janai - Little Glee Monster_track1.mp4"
//Break Periods
//Storyboard Layer 0 (Background)
//Storyboard Layer 1 (Fail)
//Storyboard Layer 2 (Pass)
//Storyboard Layer 3 (Foreground)
//Storyboard Sound Samples

[TimingPoints]
180,333.333333333333,4,1,0,30,1,0
1429,-100,4,2,0,5,0,0
1513,-100,4,2,0,40,0,0
2763,-100,4,2,0,5,0,0
2846,-100,4,2,0,50,0,0
4179,-100,4,2,0,30,0,0
4513,-100,4,2,0,50,0,0
38346,-153.846153846153,4,2,0,35,0,0
53513,-100,4,2,0,50,0,0
58846,-83.3333333333333,4,2,0,50,0,1
68679,-83.3333333333333,4,2,0,50,0,0
69513,-83.3333333333333,4,2,0,50,0,1
82846,-100,4,2,0,50,0,0
87179,-100,4,2,0,50,0,0

[Colours]
Combo1 : 135,224,1
Combo2 : 186,116,116
Combo3 : 212,212,212
Combo4 : 255,187,255

[HitObjects]
256,192,180,12,0,1429,0:0:0:0:
256,192,1513,12,0,2763,0:0:0:0:
256,192,2846,12,4,4179,0:0:0:0:
84,292,4513,5,2,0:0:0:0:
176,336,4680,1,0,0:0:0:0:
176,336,4763,1,0,0:0:0:0:
176,336,4846,2,0,P|224:332|268:336,1,80,0|0,0:0|3:0,0:0:0:0:
472,256,5180,2,0,P|424:256|344:280,1,120,4|0,0:0|0:0,0:0:0:0:
336,304,5513,6,0,P|344:236|344:200,1,80,4|0,0:0|0:0,0:0:0:0:
256,136,5846,1,0,1:0:0:0:
244,248,6013,2,0,P|184:244|152:240,1,80,0|0,0:0|0:0,0:0:0:0:
20,320,6346,2,0,P|80:320|176:344,1,160,0|0,0:0|0:0,0:0:0:0:
336,192,6846,5,0,0:0:0:0:
408,268,7013,1,0,0:0:0:0:
336,344,7180,1,0,1:0:0:0:
264,272,7346,2,0,P|224:272|180:280,1,80,0|0,0:0|0:0,0:0:0:0:
100,360,7680,2,0,P|80:320|100:204,1,160,0|0,0:0|0:0,0:0:0:0:
304,64,8180,5,0,0:0:0:0:
340,188,8346,1,0,0:0:0:0:
408,104,8513,1,0,1:0:0:0:
240,148,8680,2,0,P|188:144|140:136,1,80,0|0,0:0|0:0,0:0:0:0:
24,220,9013,2,0,P|104:224|192:252,1,160,0|0,0:0|0:0,0:0:0:0:
444,164,9513,5,2,0:0:0:0:
408,276,9680,1,0,0:0:0:0:
312,356,9846,2,0,P|280:316|260:268,1,80,2|0,0:0|0:0,0:0:0:0:
356,115,10180,2,0,P|351:155|336:192,1,80,2|0,0:0|0:0,0:0:0:0:
152,190,10513,2,0,P|192:187|236:200,1,80,2|0,0:0|0:0,0:0:0:0:
230,197,10763,1,0,0:0:0:0:
230,197,10846,6,0,P|248:144|248:36,1,160,4|0,0:0|1:0,0:0:0:0:
68,110,11346,2,0,P|108:112|148:108,1,80,0|0,0:0|0:0,0:0:0:0:
328,192,11680,2,0,P|260:196|164:232,1,160,0|0,0:0|0:0,0:0:0:0:
52,196,12180,5,0,0:0:0:0:
16,304,12346,1,0,0:0:0:0:
120,312,12513,2,0,P|160:320|216:336,1,80,0|0,1:0|0:0,0:0:0:0:
256,196,12846,1,0,0:0:0:0:
464,280,13013,2,0,P|412:280|300:312,1,160,0|0,0:0|0:0,0:0:0:0:
104,128,13513,5,4,0:0:0:0:
124,284,13680,1,0,0:0:0:0:
200,196,13846,1,0,1:0:0:0:
32,216,14013,1,0,0:0:0:0:
196,92,14180,5,0,0:0:0:0:
24,320,14346,1,0,0:0:0:0:
4,116,14513,1,0,1:0:0:0:
228,296,14680,1,0,0:0:0:0:
256,16,14846,5,4,0:0:0:0:
112,196,15013,1,0,0:0:0:0:
360,320,15179,5,0,1:0:0:0:
104,196,15346,2,0,P|168:192|268:208,1,160,4|0,0:0|0:0,0:0:0:0:
452,324,15846,1,0,1:0:0:0:
432,340,15929,1,0,1:0:0:0:
408,344,16013,1,0,1:0:0:0:
384,336,16096,1,0,1:0:0:0:
360,320,16179,6,0,P|304:320|252:332,1,80,4|0,0:0|0:0,0:0:0:0:
125,313,16513,2,0,P|152:336|196:356,1,80,0|0,3:0|0:0,0:0:0:0:
240,86,16846,2,0,P|233:166|216:244,1,160,0|0,0:0|3:0,0:0:0:0:
120,192,17346,1,0,0:0:0:0:
32,108,17513,2,0,P|76:104|136:88,1,80,0|0,0:0|0:0,0:0:0:0:
252,16,17846,2,0,P|228:64|216:108,1,80,0|0,3:0|0:0,0:0:0:0:
120,192,18179,2,0,P|196:196|280:236,1,160,0|0,0:0|3:0,0:0:0:0:
424,192,18679,1,0,0:0:0:0:
488,308,18846,6,0,P|432:312|328:348,1,160,0|0,0:0|3:0,0:0:0:0:
80,264,19346,1,0,0:0:0:0:
140,348,19513,2,0,P|192:344|248:312,1,80,0|0,0:0|0:0,0:0:0:0:
244,161,19846,2,0,P|245:201|256:240,1,80,0|0,3:0|0:0,0:0:0:0:
404,352,20179,2,0,P|436:296|456:192,1,160,0|0,0:0|3:0,0:0:0:0:
376,44,20679,1,0,0:0:0:0:
296,124,20846,2,0,P|304:168|320:208,1,80,0|0,0:0|0:0,0:0:0:0:
256,364,21179,2,0,P|264:320|256:268,1,80,0|0,3:0|0:0,0:0:0:0:
260,285,21429,1,0,0:0:0:0:
260,285,21513,6,0,P|180:284|92:312,1,160,0|0,0:0|3:0,0:0:0:0:
16,244,22013,1,0,0:0:0:0:
48,140,22179,2,0,P|132:144|212:192,1,160,0|0,0:0|3:0,0:0:0:0:
256,60,22679,1,0,0:0:0:0:
320,188,22846,6,0,P|332:144|352:108,1,80,0|0,0:0|0:0,0:0:0:0:
465,269,23179,2,0,P|461:229|448:192,1,80,0|0,3:0|0:0,0:0:0:0:
280,296,23513,2,0,P|324:296|376:316,1,80,0|0,0:0|0:0,0:0:0:0:
184,360,23846,2,0,P|168:316|160:264,1,80,0|0,3:0|0:0,0:0:0:0:
161,283,24096,1,0,0:0:0:0:
161,283,24179,6,0,P|196:228|220:120,1,160,0|0,0:0|3:0,0:0:0:0:
128,20,24679,1,0,0:0:0:0:
40,84,24846,2,0,P|40:132|56:180,1,80,0|0,0:0|0:0,0:0:0:0:
126,265,25179,2,0,P|145:231|152:192,1,80,0|0,3:0|0:0,0:0:0:0:
64,348,25513,6,0,P|132:352|240:312,1,160,2|0,0:0|3:0,0:0:0:0:
400,192,26013,1,2,0:0:0:0:
480,280,26179,2,0,P|436:280|308:312,1,160,2|0,0:0|3:0,0:0:0:0:
100,187,26679,1,0,0:0:0:0:
100,187,26763,1,0,0:0:0:0:
100,187,26846,6,0,P|156:187|276:227,1,160,4|0,0:0|3:0,0:0:0:0:
400,192,27346,1,0,0:0:0:0:
464,304,27513,2,0,P|396:304|296:336,1,160,0|0,0:0|3:0,0:0:0:0:
256,216,28013,1,0,0:0:0:0:
203,329,28179,2,0,P|127:305|48:304,1,160,0|0,0:0|3:0,0:0:0:0:
36,192,28679,1,0,0:0:0:0:
96,100,28846,2,0,P|124:136|136:188,1,80,0|0,0:0|0:0,0:0:0:0:
203,329,29179,2,0,P|191:285|195:229,1,80,0|0,3:0|0:0,0:0:0:0:
190,250,29429,1,0,0:0:0:0:
190,250,29513,6,0,P|272:248|368:272,1,160,0|0,0:0|3:0,0:0:0:0:
428,360,30013,1,0,0:0:0:0:
480,264,30179,2,0,P|488:216|476:88,1,160,0|0,0:0|3:0,0:0:0:0:
328,16,30679,1,0,0:0:0:0:
328,16,30763,1,0,0:0:0:0:
328,16,30846,2,0,P|312:108|324:204,1,160,0|0,0:0|2:0,0:0:0:0:
408,260,31346,1,0,0:0:0:0:
336,344,31513,2,0,P|296:344|244:320,1,80,0|0,0:0|0:0,0:0:0:0:
100,271,31846,2,0,P|136:254|176:248,1,80,0|0,3:0|0:0,0:0:0:0:
175,248,32096,1,0,0:0:0:0:
175,248,32179,6,0,P|244:256|348:208,1,160,0|0,0:0|3:0,0:0:0:0:
388,136,32679,1,0,0:0:0:0:
308,64,32846,2,0,P|239:56|135:104,1,160,0|0,0:0|3:0,0:0:0:0:
40,188,33346,1,0,0:0:0:0:
188,325,33513,6,0,P|187:285|175:248,1,80,0|0,0:0|0:0,0:0:0:0:
30,109,33846,2,0,P|28:149|40:188,1,80,0|0,3:0|0:0,0:0:0:0:
229,138,34179,2,0,P|189:142|152:156,1,80,0|0,0:0|0:0,0:0:0:0:
1,311,34513,2,0,P|39:300|74:280,1,80,0|0,3:0|0:0,0:0:0:0:
74,280,34763,1,0,0:0:0:0:
74,280,34846,6,0,L|172:288,1,80,4|0,3:0|0:0,0:0:0:0:
256,352,35179,2,0,P|292:324|320:280,1,80,0|0,3:0|0:0,0:0:0:0:
202,137,35513,2,0,P|208:176|226:212,1,80,0|0,3:0|0:0,0:0:0:0:
428,163,35846,2,0,P|388:165|351:180,1,80,0|0,3:0|0:0,0:0:0:0:
351,180,36096,1,0,0:0:0:0:
351,180,36179,6,0,P|270:176|190:124,1,160,0|0,0:0|3:0,0:0:0:0:
28,192,36679,1,0,0:0:0:0:
64,316,36846,2,0,P|112:316|236:272,1,160,0|0,0:0|3:0,0:0:0:0:
351,180,37346,1,0,0:0:0:0:
312,356,37513,5,4,0:0:0:0:
256,80,38179,1,0,1:0:0:0:
256,80,38346,2,0,L|272:8,2,51.999997619629,0|0|0,0:0|0:0|0:0,0:0:0:0:
240,168,38846,2,0,P|176:168|124:140,1,103.999995239258,0|0,0:0|0:0,0:0:0:0:
20,280,39513,2,0,P|68:272|132:288,1,103.999995239258,0|0,1:0|0:0,0:0:0:0:
188,356,40013,1,0,0:0:0:0:
252,292,40179,6,0,P|296:292|412:248,2,155.999992858887,0|0|0,0:0|0:0|0:0,0:0:0:0:
188,356,41346,2,0,P|148:352|72:372,1,103.999995239258,0|0,0:0|0:0,0:0:0:0:
8,312,41846,1,0,0:0:0:0:
8,312,42013,1,0,0:0:0:0:
88,252,42179,6,0,P|96:204|92:128,2,103.999995239258,0|2|4,1:0|0:0|0:0,0:0:0:0:
444,192,43513,1,0,1:0:0:0:
444,192,43679,2,0,L|456:252,2,51.999997619629,0|0|0,0:0|0:0|0:0,0:0:0:0:
368,128,44179,6,0,P|328:128|252:144,1,103.999995239258,0|0,0:0|0:0,0:0:0:0:
40,192,44846,2,0,P|80:196|156:232,1,103.999995239258,0|0,1:0|0:0,0:0:0:0:
168,308,45346,1,0,0:0:0:0:
256,280,45513,6,0,P|296:280|416:228,2,155.999992858887,0|0|0,0:0|0:0|0:0,0:0:0:0:
208,196,46679,2,0,P|160:196|84:220,1,103.999995239258,0|0,0:0|0:0,0:0:0:0:
36,280,47179,1,0,0:0:0:0:
36,280,47346,1,0,0:0:0:0:
100,352,47513,6,0,P|136:340|196:292,2,103.999995239258,0|2|4,1:0|0:0|0:0,0:0:0:0:
256,44,48846,1,0,1:0:0:0:
256,44,49013,2,0,L|244:96,2,51.999997619629,0|0|0,0:0|0:0|0:0,0:0:0:0:
340,88,49513,6,0,P|384:88|452:60,1,103.999995239258,0|0,0:0|0:0,0:0:0:0:
472,248,50179,2,0,P|424:248|356:280,1,103.999995239258,0|0,1:0|0:0,0:0:0:0:
324,344,50679,1,0,0:0:0:0:
248,292,50846,6,0,P|200:296|92:264,2,155.999992858887,0|0|0,0:0|0:0|0:0,0:0:0:0:
300,216,52013,2,0,P|344:212|456:248,1,155.999992858887,0|0,0:0|0:0,0:0:0:0:
484,324,52679,1,0,0:0:0:0:
408,372,52846,2,0,P|400:336|400:304,1,51.999997619629,0|0,1:0|0:0,0:0:0:0:
460,193,53179,2,0,P|457:219|449:243,1,51.999997619629,0|0,0:0|0:0,0:0:0:0:
449,243,53429,1,0,0:0:0:0:
449,243,53513,6,0,P|400:240|296:188,1,160,4|0,0:0|0:0,0:0:0:0:
256,84,54013,2,0,P|208:88|100:140,1,160,2|2,0:0|0:0,0:0:0:0:
28,236,54513,1,0,0:0:0:0:
148,268,54679,2,0,P|196:272|308:304,1,160,2|0,0:0|0:0,0:0:0:0:
488,196,55179,6,0,P|448:200|392:212,1,80,2|0,0:0|0:0,0:0:0:0:
415,356,55513,2,0,P|377:347|341:329,1,80,2|0,0:0|0:0,0:0:0:0:
294,118,55846,2,0,P|282:156|276:196,1,80,2|0,0:0|0:0,0:0:0:0:
276,195,56096,1,0,0:0:0:0:
276,195,56179,6,0,P|264:132|220:32,1,160,2|2,0:0|0:0,0:0:0:0:
24,192,56679,1,0,0:0:0:0:
156,312,56846,2,0,P|176:264|192:212,1,80,2|0,0:0|0:0,0:0:0:0:
82,58,57179,2,0,P|87:98|100:136,1,80,2|0,0:0|0:0,0:0:0:0:
99,135,57429,1,0,0:0:0:0:
99,135,57513,6,0,L|196:120,2,80,2|0|0,0:0|0:0|0:0,0:0:0:0:
24,264,58013,1,2,0:0:0:0:
120,360,58179,2,0,P|168:344|208:312,1,80,0|0,0:0|0:0,0:0:0:0:
256,192,58513,1,0,0:0:0:0:
476,340,58679,5,2,0:0:0:0:
476,340,58763,1,0,0:0:0:0:
476,340,58846,2,0,P|412:336|328:304,1,143.999995605469,4|0,0:0|0:0,0:0:0:0:
320,256,59179,2,0,P|256:260|212:280,1,95.9999970703126,0|0,1:0|0:0,0:0:0:0:
132,192,59513,1,0,0:0:0:0:
152,364,59679,1,0,0:0:0:0:
40,292,59846,1,0,1:0:0:0:
226,271,60013,6,0,P|288:280|380:340,1,143.999995605469,2|0,0:0|0:0,0:0:0:0:
396,360,60346,2,0,P|442:348|480:320,1,95.9999970703126,0|0,0:0|1:0,0:0:0:0:
400,48,60679,1,0,0:0:0:0:
336,192,60846,2,0,P|408:176|448:152,1,95.9999970703126,0|0,0:0|0:0,0:0:0:0:
256,88,61179,1,0,1:0:0:0:
252,288,61346,6,0,P|192:288|60:344,1,191.999994140625,2|0,0:0|0:0,0:0:0:0:
24,192,61846,1,0,1:0:0:0:
24,192,62013,1,0,0:0:0:0:
116,40,62179,2,0,P|128:92|136:144,1,95.9999970703126,0|0,0:0|0:0,0:0:0:0:
204,348,62513,1,0,1:0:0:0:
256,220,62679,6,0,P|284:144|356:60,2,191.999994140625,0|0|0,0:0|0:0|0:0,0:0:0:0:
404,348,63513,2,0,P|396:284|364:228,1,95.9999970703126
256,36,63846,1,0,1:0:0:0:
60,192,64013,5,0,0:0:0:0:
60,192,64096,1,0,0:0:0:0:
60,192,64179,2,0,P|132:188|248:144,1,191.999994140625,4|0,0:0|1:0,0:0:0:0:
472,192,64679,1,0,0:0:0:0:
416,356,64846,2,0,P|344:356|232:292,1,191.999994140625,0|0,0:0|1:0,0:0:0:0:
60,192,65346,1,0,0:0:0:0:
256,36,65513,6,0,P|252:92|240:136,1,95.9999970703126,0|0,0:0|0:0,0:0:0:0:
140,360,65846,1,0,1:0:0:0:
60,192,66013,2,0,P|48:140|48:84,1,95.9999970703126,0|0,0:0|0:0,0:0:0:0:
256,36,66346,1,0,0:0:0:0:
465,97,66513,2,0,P|463:145|452:192,1,95.9999970703126,0|0,1:0|0:0,0:0:0:0:
452,191,66763,1,0,0:0:0:0:
452,191,66846,6,0,P|392:196|336:216,1,95.9999970703126,4|0,0:0|0:0,0:0:0:0:
70,317,67179,2,0,P|160:349|256:344,1,191.999994140625,0|0,1:0|0:0,0:0:0:0:
465,97,67679,1,0,0:0:0:0:
408,264,67846,1,0,1:0:0:0:
256,192,68013,5,0,0:0:0:0:
256,192,68096,1,0,0:0:0:0:
256,192,68179,1,0,0:0:0:0:
304,368,68346,1,0,0:0:0:0:
408,264,68513,1,0,1:0:0:0:
148,308,68679,5,2,0:0:0:0:
96,128,68846,1,0,0:0:0:0:
148,308,69013,1,0,0:0:0:0:
176,48,69179,1,0,1:0:0:0:
148,308,69346,5,2,0:0:0:0:
148,308,69429,1,0,0:0:0:0:
148,308,69513,2,0,P|220:308|324:348,1,143.999995605469,4|0,0:0|0:0,0:0:0:0:
336,356,69846,2,0,P|388:356|468:324,1,95.9999970703126,0|0,1:0|0:0,0:0:0:0:
480,192,70179,1,0,0:0:0:0:
430,39,70346,2,0,P|383:27|336:28,1,95.9999970703126,0|0,0:0|1:0,0:0:0:0:
28,192,70679,6,0,P|108:188|184:160,1,143.999995605469,2|0,0:0|0:0,0:0:0:0:
200,120,71013,2,0,P|252:124|308:164,1,95.9999970703126,0|0,0:0|1:0,0:0:0:0:
480,192,71346,1,0,0:0:0:0:
424,356,71513,2,0,P|380:336|340:268,1,95.9999970703126
256,40,71846,1,0,1:0:0:0:
40,192,72013,5,0,0:0:0:0:
40,192,72096,1,0,0:0:0:0:
40,192,72179,2,0,P|120:196|204:236,1,143.999995605469,0|0,0:0|0:0,0:0:0:0:
216,256,72513,2,0,P|272:236|328:192,1,95.9999970703126,0|0,1:0|0:0,0:0:0:0:
388,16,72846,2,0,P|368:68|360:132,1,95.9999970703126,0|0,0:0|0:0,0:0:0:0:
472,348,73179,1,0,1:0:0:0:
248,128,73346,6,0,P|216:200|232:320,2,191.999994140625
416,20,74179,1,0,0:0:0:0:
488,244,74346,2,0,P|444:240|396:216,1,95.9999970703126,0|0,0:0|1:0,0:0:0:0:
256,44,74679,1,0,0:0:0:0:
144,316,74846,6,0,P|204:312|336:360,2,191.999994140625,0|0|0,0:0|1:0|0:0,0:0:0:0:
44,192,75679,1,0,0:0:0:0:
176,48,75846,2,0,P|188:112|180:160,1,95.9999970703126,0|0,1:0|0:0,0:0:0:0:
184,142,76096,1,0,0:0:0:0:
184,142,76179,6,0,P|160:208|148:348,1,191.999994140625,0|0,0:0|1:0,0:0:0:0:
316,256,76679,1,0,0:0:0:0:
456,344,76846,2,0,P|468:296|468:232,1,95.9999970703126,0|0,0:0|0:0,0:0:0:0:
352,44,77179,2,0,P|356:104|380:168,1,95.9999970703126,0|0,1:0|0:0,0:0:0:0:
366,138,77429,1,0,0:0:0:0:
366,138,77513,6,0,P|284:96|184:88,1,191.999994140625,4|0,0:0|1:0,0:0:0:0:
20,192,78013,1,0,0:0:0:0:
136,352,78179,2,0,P|168:304|176:256,1,95.9999970703126,0|0,0:0|0:0,0:0:0:0:
92,51,78513,2,0,P|88:98|104:144,1,95.9999970703126,0|0,1:0|0:0,0:0:0:0:
103,143,78763,1,0,0:0:0:0:
103,143,78846,6,0,P|168:144|288:92,1,191.999994140625,4|0,0:0|1:0,0:0:0:0:
464,192,79346,1,0,0:0:0:0:
436,344,79513,2,0,P|384:336|340:304,1,95.9999970703126,0|0,0:0|0:0,0:0:0:0:
188,259,79846,2,0,P|232:241|280:236,1,95.9999970703126,0|0,1:0|0:0,0:0:0:0:
279,236,80096,5,0,0:0:0:0:
279,236,80179,2,0,P|296:168|284:40,1,191.999994140625,4|0,0:0|1:0,0:0:0:0:
132,96,80679,1,0,0:0:0:0:
84,216,80846,2,0,P|80:272|108:336,1,95.9999970703126,0|0,0:0|0:0,0:0:0:0:
256,368,81179,1,0,1:0:0:0:
256,368,81346,1,0,0:0:0:0:
420,309,81513,2,0,P|432:263|428:216,1,95.9999970703126,0|0,0:0|0:0,0:0:0:0:
256,44,81846,6,0,P|236:92|232:216,1,143.999995605469,0|0,1:0|0:0,0:0:0:0:
276,208,82179,2,0,P|284:264|272:316,1,95.9999970703126
56,360,82513,2,0,P|48:300|64:240,1,95.9999970703126,0|0,1:0|0:0,0:0:0:0:
54,265,82763,1,0,0:0:0:0:
54,265,82846,6,0,P|88:216|96:168,1,80,0|0,0:0|0:0,0:0:0:0:
168,32,83179,1,2,0:0:0:0:
228,180,83346,2,0,P|220:244|240:344,2,160,2|2|0,0:0|0:0|0:0,0:0:0:0:
456,36,84179,2,0,P|452:96|436:144,1,80,0|0,0:0|0:0,0:0:0:0:
360,340,84513,5,2,0:0:0:0:
312,188,84679,2,0,P|304:120|316:20,2,160,2|2|0,0:0|0:0|0:0,0:0:0:0:
256,192,85513,12,2,86846,0:0:0:0:
184,192,87179,6,0,L|84:180,2,80,2|0|0,0:0|0:0|0:0,0:0:0:0:
256,324,87679,1,0,0:0:0:0:
436,200,87846,2,0,P|384:200|256:240,1,160,2|0,0:0|0:0,0:0:0:0:
