osu file format v14

[General]
AudioFilename: audio.mp3
AudioLeadIn: 0
PreviewTime: 58013
Countdown: 0
SampleSet: Soft
StackLeniency: 0.7
Mode: 0
LetterboxInBreaks: 0
WidescreenStoryboard: 0

[Editor]
DistanceSpacing: 1.37
BeatDivisor: 4
GridSize: 4
TimelineZoom: 1

[Metadata]
Title:Dakara, Hitori ja nai -TV Size-
TitleUnicode:だから、ひとりじゃない -TV Size-
Artist:Little Glee Monster
ArtistUnicode:Little Glee Monster
Creator:Chewin
Version:Hard
Source:僕のヒーローアカデミア 第2期
Tags:boku no my hero academia heroaca ヒロアカ ending theme ed plus ultra
BeatmapID:1385515
BeatmapSetID:645856

[Difficulty]
HPDrainRate:5
CircleSize:4
OverallDifficulty:6
ApproachRate:7.5
SliderMultiplier:1.3
SliderTickRate:1

[Events]
//Background and Video events
0,0,"DDohbSXUwAEWQyY.jpg",0,0
Video,-841,"Boku no Hero Academia Ending 2 Dakara Hitori Janai - Little Glee Monster_track1.mp4"
//Break Periods
//Storyboard Layer 0 (Background)
//Storyboard Layer 1 (Fail)
//Storyboard Layer 2 (Pass)
//Storyboard Layer 3 (Foreground)
//Storyboard Sound Samples

[TimingPoints]
180,333.333333333333,4,1,0,30,1,0
1429,-100,4,2,0,5,0,0
1513,-100,4,2,0,40,0,0
2763,-100,4,2,0,5,0,0
2846,-100,4,2,0,50,0,0
4179,-100,4,2,0,30,0,0
4513,-100,4,2,0,50,0,0
37513,-153.846153846153,4,2,0,35,0,0
53513,-100,4,2,0,50,0,0
58846,-83.3333333333333,4,2,0,50,0,1
68679,-83.3333333333333,4,2,0,50,0,0
69513,-83.3333333333333,4,2,0,50,0,1
82846,-100,4,2,0,50,0,0
87179,-100,4,2,0,50,0,0

[Colours]
Combo1 : 135,224,1
Combo2 : 186,116,116
Combo3 : 212,212,212
Combo4 : 255,187,255

[HitObjects]
256,192,180,12,0,1429,0:0:0:0:
256,192,1513,12,0,2763,0:0:0:0:
256,192,2846,12,4,4179,0:0:0:0:
120,124,4513,6,0,L|116:44,2,65,2|0|0,0:0|0:0|0:0,0:0:0:0:
64,192,5013,1,0,3:0:0:0:
88,276,5179,2,0,P|148:276|216:304,1,130,4|4,0:0|0:0,0:0:0:0:
460,192,5846,5,0,1:0:0:0:
464,280,6013,2,0,L|452:352,1,65,0|0,0:0|0:0,0:0:0:0:
368,364,6346,2,0,L|396:216,1,130,0|0,0:0|0:0,0:0:0:0:
460,192,6846,2,0,P|464:144|456:104,1,65,0|0,0:0|0:0,0:0:0:0:
436,44,7179,5,0,1:0:0:0:
372,108,7346,2,0,L|292:100,1,65,0|0,0:0|0:0,0:0:0:0:
252,32,7679,2,0,P|228:68|232:160,1,130,0|0,0:0|0:0,0:0:0:0:
304,200,8179,2,0,P|312:244|312:276,1,65,0|0,0:0|0:0,0:0:0:0:
288,352,8513,5,0,1:0:0:0:
212,308,8679,2,0,L|128:316,1,65,0|0,0:0|0:0,0:0:0:0:
72,364,9013,2,0,P|60:312|92:244,1,130,0|0,0:0|0:0,0:0:0:0:
223,206,9513,6,0,L|160:192,1,65,2|0,0:0|0:0,0:0:0:0:
43,129,9846,2,0,L|108:120,1,65,2|0,0:0|0:0,0:0:0:0:
235,74,10179,2,0,L|172:60,1,65,2|0,0:0|0:0,0:0:0:0:
288,144,10513,2,0,L|352:134,1,65,2|0,0:0|0:0,0:0:0:0:
352,134,10763,1,0,0:0:0:0:
352,134,10846,6,0,P|375:91|392:8,1,130,4|0,0:0|1:0,0:0:0:0:
468,60,11346,2,0,L|472:200,2,130
392,12,12179,2,0,L|385:96,1,65
347,152,12513,5,0,1:0:0:0:
392,228,12679,2,0,P|392:292|364:360,2,130,0|0|0,0:0|0:0|0:0,0:0:0:0:
347,152,13513,5,4,0:0:0:0:
347,152,13679,1,0,0:0:0:0:
296,224,13846,2,0,L|224:208,1,65,0|0,1:0|0:0,0:0:0:0:
120,108,14179,5,0,0:0:0:0:
120,108,14346,1,0,0:0:0:0:
60,172,14513,2,0,L|68:240,1,65,0|0,1:0|0:0,0:0:0:0:
164,352,14846,5,4,0:0:0:0:
224,288,15013,2,0,L|300:296,1,65,0|0,0:0|1:0,0:0:0:0:
340,368,15346,2,0,P|408:368|472:332,1,130,4|0,0:0|0:0,0:0:0:0:
468,252,15846,1,0,1:0:0:0:
466,235,15929,1,0,1:0:0:0:
464,219,16012,1,0,1:0:0:0:
462,203,16096,1,0,1:0:0:0:
461,187,16179,6,0,L|448:48,1,130,4|0,0:0|3:0,0:0:0:0:
380,4,16679,1,0,0:0:0:0:
360,92,16846,2,0,P|300:96|228:56,1,130,0|0,0:0|3:0,0:0:0:0:
164,16,17346,1,0,0:0:0:0:
104,80,17513,2,0,P|80:136|80:216,1,130,0|0,0:0|3:0,0:0:0:0:
116,284,18013,1,0,0:0:0:0:
192,236,18179,2,0,P|236:240|312:300,1,130,0|0,0:0|3:0,0:0:0:0:
360,360,18679,5,0,0:0:0:0:
360,360,18846,2,0,P|424:356|484:312,1,130,0|0,0:0|3:0,0:0:0:0:
484,232,19346,1,0,0:0:0:0:
404,196,19513,2,0,P|356:208|292:272,1,130,0|0,0:0|3:0,0:0:0:0:
256,340,20013,1,0,0:0:0:0:
192,280,20179,6,0,L|112:284,1,65,0|0,0:0|0:0,0:0:0:0:
68,352,20513,2,0,P|48:308|44:272,1,65,0|0,3:0|0:0,0:0:0:0:
80,212,20846,2,0,L|92:68,1,130,0|0,0:0|3:0,0:0:0:0:
196,32,21346,5,0,0:0:0:0:
196,32,21513,2,0,L|185:161,1,130,0|0,0:0|3:0,0:0:0:0:
180,252,22013,1,0,0:0:0:0:
204,336,22179,2,0,P|256:336|336:292,1,130,0|0,0:0|3:0,0:0:0:0:
388,240,22679,1,0,0:0:0:0:
460,292,22846,6,0,L|452:360,1,65
388,240,23179,2,0,L|384:164,1,65,0|0,3:0|0:0,0:0:0:0:
480,132,23513,2,0,L|472:200,1,65,0|0,0:0|0:0,0:0:0:0:
408,80,23846,2,0,L|404:4,1,65,0|0,3:0|0:0,0:0:0:0:
404,15,24096,1,0,0:0:0:0:
404,15,24179,6,0,P|348:20|276:72,1,130,0|0,0:0|3:0,0:0:0:0:
272,144,24679,1,0,0:0:0:0:
348,192,24846,2,0,P|360:240|356:328,1,130,0|0,0:0|3:0,0:0:0:0:
284,368,25346,1,0,0:0:0:0:
224,300,25513,6,0,L|152:304,1,65,2|2,0:0|0:0,0:0:0:0:
27,349,25846,2,0,L|92:360,1,65,0|2,3:0|0:0,0:0:0:0:
81,207,26179,2,0,L|84:272,1,65,2|0,0:0|0:0,0:0:0:0:
160,156,26513,2,0,L|162:91,1,65,0|0,3:0|0:0,0:0:0:0:
162,91,26763,1,0,0:0:0:0:
162,91,26846,6,0,P|216:92|296:52,1,130,4|0,0:0|3:0,0:0:0:0:
356,8,27346,1,0,0:0:0:0:
428,60,27513,2,0,P|440:124|432:192,1,130,0|0,0:0|3:0,0:0:0:0:
384,260,28013,1,0,0:0:0:0:
324,196,28179,2,0,L|168:204,1,130,0|0,0:0|3:0,0:0:0:0:
128,140,28679,1,0,0:0:0:0:
48,180,28846,2,0,P|32:228|32:316,1,130,0|0,0:0|3:0,0:0:0:0:
104,360,29346,5,0,0:0:0:0:
104,360,29513,2,0,L|233:353,1,130,0|0,0:0|3:0,0:0:0:0:
296,292,30013,1,0,0:0:0:0:
352,360,30179,2,0,P|400:352|484:288,1,130,0|0,0:0|3:0,0:0:0:0:
480,220,30679,1,0,0:0:0:0:
420,152,30846,6,0,L|428:72,1,65,0|0,0:0|0:0,0:0:0:0:
348,44,31179,2,0,L|341:108,1,65,0|0,3:0|0:0,0:0:0:0:
344,200,31513,2,0,P|280:200|216:156,1,130,0|0,0:0|3:0,0:0:0:0:
196,84,32013,5,0,0:0:0:0:
196,84,32179,2,0,P|144:84|60:128,1,130,0|0,0:0|3:0,0:0:0:0:
28,192,32679,1,0,0:0:0:0:
116,196,32846,2,0,P|128:240|128:344,1,130,0|0,0:0|3:0,0:0:0:0:
208,372,33346,1,0,0:0:0:0:
256,296,33513,6,0,L|248:200,1,65,0|0,0:0|0:0,0:0:0:0:
342,127,33846,2,0,L|332:192,1,65,0|0,3:0|0:0,0:0:0:0:
344,348,34179,2,0,L|336:252,1,65
430,179,34512,2,0,L|419:243,1,65,0|0,3:0|0:0,0:0:0:0:
342,127,34846,6,0,L|332:192,1,65,4|0,3:0|0:0,0:0:0:0:
344,348,35179,2,0,L|336:252,1,65,0|0,3:0|0:0,0:0:0:0:
430,179,35513,2,0,L|419:243,1,65,0|0,3:0|0:0,0:0:0:0:
256,296,35846,2,0,L|248:200,1,65,0|0,3:0|0:0,0:0:0:0:
250,231,36096,1,0,0:0:0:0:
250,231,36179,6,0,P|192:236|120:280,1,130,0|0,0:0|3:0,0:0:0:0:
76,340,36679,1,0,0:0:0:0:
40,260,36846,2,0,L|48:120,1,130,0|0,0:0|3:0,0:0:0:0:
56,40,37346,1,0,0:0:0:0:
132,88,37513,5,4,0:0:0:0:
392,192,38179,1,0,1:0:0:0:
400,248,38346,2,0,L|408:296,2,42.2499980659486,0|0|0,0:0|0:0|0:0,0:0:0:0:
392,192,38846,2,0,L|396:104,1,84.4999961318971,0|0,0:0|0:0,0:0:0:0:
308,32,39513,2,0,L|304:116,1,84.4999961318971,0|0,1:0|0:0,0:0:0:0:
300,232,40179,6,0,P|232:232|176:200,2,126.749994197846
356,220,41346,2,0,L|364:124,1,84.4999961318971
368,76,41846,1,0,0:0:0:0:
260,32,42179,2,0,P|216:40|172:72,1,84.4999961318971,0|2,1:0|0:0,0:0:0:0:
156,172,42846,5,4,0:0:0:0:
300,356,43513,1,0,1:0:0:0:
344,320,43679,2,0,L|392:288,2,42.2499980659486,0|0|0,0:0|0:0|0:0,0:0:0:0:
300,356,44179,2,0,L|200:364,1,84.4999961318971,0|0,0:0|0:0,0:0:0:0:
160,260,44846,2,0,L|244:253,1,84.4999961318971,0|0,1:0|0:0,0:0:0:0:
360,268,45513,6,0,P|380:208|376:132,2,126.749994197846,0|0|0,0:0|0:0|0:0,0:0:0:0:
312,300,46679,2,0,P|260:300|216:320,1,84.4999961318971
180,344,47179,1,0,0:0:0:0:
108,252,47513,2,0,P|96:212|100:152,1,84.4999961318971,0|2,1:0|0:0,0:0:0:0:
164,72,48179,5,4,0:0:0:0:
364,192,48846,1,0,1:0:0:0:
396,144,49013,2,0,L|408:92,2,42.2499980659486,0|0|0,0:0|0:0|0:0,0:0:0:0:
364,192,49513,2,0,L|368:292,1,84.4999961318971,0|0,0:0|0:0,0:0:0:0:
280,352,50179,2,0,L|276:267,1,84.4999961318971,0|0,1:0|0:0,0:0:0:0:
256,152,50846,6,0,P|192:148|128:188,2,126.749994197846
300,192,52013,2,0,L|292:284,1,84.4999961318971
288,332,52513,1,0,0:0:0:0:
396,368,52846,2,0,P|432:368|488:336,1,84.4999961318971,0|0,1:0|0:0,0:0:0:0:
476,168,53513,6,0,P|440:160|348:200,1,130,4|0,0:0|0:0,0:0:0:0:
312,272,54013,2,0,P|280:260|248:228,1,65,2|0,0:0|0:0,0:0:0:0:
228,156,54346,2,0,P|228:120|216:80,1,65,2|0,0:0|0:0,0:0:0:0:
144,48,54679,2,0,P|108:92|96:180,1,130,2|0,0:0|0:0,0:0:0:0:
32,228,55179,2,0,P|44:264|48:308,1,65,2|0,0:0|0:0,0:0:0:0:
96,364,55513,2,0,P|140:348|160:328,1,65,2|0,0:0|0:0,0:0:0:0:
184,252,55846,2,0,P|220:256|256:276,1,65,2|0,0:0|0:0,0:0:0:0:
380,352,56179,6,0,L|436:360,3,32.5,2|0|0|0,0:0|0:0|0:0|0:0,0:0:0:0:
448,340,56513,2,0,L|472:288,3,32.5,2|0|0|0,0:0|0:0|0:0|0:0,0:0:0:0:
460,272,56846,2,0,L|448:216,3,32.5,2|0|0|0,0:0|0:0|0:0|0:0,0:0:0:0:
432,208,57179,2,0,L|448:160,3,32.5,2|0|0|0,0:0|0:0|0:0|0:0,0:0:0:0:
464,144,57513,6,0,L|460:68,1,65,2|0,0:0|0:0,0:0:0:0:
304,148,58013,1,2,0:0:0:0:
308,236,58179,2,0,L|311:300,2,65,0|0|0,0:0|0:0|0:0,0:0:0:0:
256,60,58679,5,2,0:0:0:0:
256,60,58763,1,0,0:0:0:0:
256,60,58846,2,0,P|188:60|128:88,1,116.999996429443,4|0,0:0|0:0,0:0:0:0:
143,77,59179,2,0,L|148:176,1,77.999997619629,0|0,1:0|0:0,0:0:0:0:
208,317,59513,2,0,L|216:240,1,77.999997619629,0|0,0:0|0:0,0:0:0:0:
256,60,59846,1,0,1:0:0:0:
424,136,60013,5,2,0:0:0:0:
424,136,60096,1,0,0:0:0:0:
424,136,60179,2,0,P|440:192|424:268,1,116.999996429443,4|0,0:0|0:0,0:0:0:0:
432,249,60513,2,0,L|336:240,1,77.999997619629,0|0,1:0|0:0,0:0:0:0:
182,301,60846,2,0,L|260:292,1,77.999997619629,0|0,0:0|0:0,0:0:0:0:
261,106,61179,2,0,L|272:184,1,77.999997619629,0|2,1:0|0:0,0:0:0:0:
272,184,61429,1,0,0:0:0:0:
272,184,61513,6,0,P|220:188|124:144,1,155.999995239258,0|0,0:0|1:0,0:0:0:0:
60,64,62013,1,0,0:0:0:0:
16,160,62179,2,0,L|20:248,1,77.999997619629,0|0,0:0|0:0,0:0:0:0:
24,344,62513,1,0,1:0:0:0:
128,324,62679,2,0,P|188:320|288:380,2,155.999995239258,0|0|0,0:0|0:0|0:0,0:0:0:0:
24,344,63513,2,0,L|32:232,1,77.999997619629
24,160,63846,1,0,1:0:0:0:
128,148,64013,5,0,0:0:0:0:
128,148,64096,1,0,0:0:0:0:
128,148,64179,2,0,P|192:152|280:104,1,155.999995239258,4|0,0:0|1:0,0:0:0:0:
332,24,64679,1,0,0:0:0:0:
392,112,64846,2,0,L|384:280,1,155.999995239258,0|0,0:0|1:0,0:0:0:0:
344,368,65346,1,0,0:0:0:0:
272,292,65513,6,0,P|216:296|128:348,1,155.999995239258,0|0,0:0|1:0,0:0:0:0:
44,280,66013,1,0,0:0:0:0:
116,204,66179,2,0,L|112:108,2,77.999997619629,0|0|0,0:0|0:0|1:0,0:0:0:0:
44,280,66679,1,0,0:0:0:0:
130,344,66846,6,0,P|212:344|280:304,1,155.999995239258,4|0,0:0|1:0,0:0:0:0:
312,208,67346,1,0,0:0:0:0:
384,288,67513,2,0,L|376:365,1,77.999997619629
464,228,67846,1,0,1:0:0:0:
464,228,68013,2,0,P|476:160|452:56,1,155.999995239258,0|0,0:0|0:0,0:0:0:0:
384,4,68513,1,0,1:0:0:0:
332,96,68679,2,0,L|344:184,2,77.999997619629,2|0|0,0:0|0:0|0:0,0:0:0:0:
252,24,69179,1,0,1:0:0:0:
112,108,69346,5,2,0:0:0:0:
112,108,69429,1,0,0:0:0:0:
112,108,69513,2,0,P|96:176|100:244,1,116.999996429443,4|0,0:0|0:0,0:0:0:0:
96,222,69846,2,0,L|192:216,1,77.999997619629,0|0,1:0|0:0,0:0:0:0:
333,158,70179,2,0,L|256:148,1,77.999997619629,0|0,0:0|0:0,0:0:0:0:
252,256,70513,1,0,1:0:0:0:
300,352,70679,5,2,0:0:0:0:
300,352,70763,1,0,0:0:0:0:
300,352,70846,2,0,P|368:348|440:312,1,116.999996429443,4|0,0:0|0:0,0:0:0:0:
412,330,71179,2,0,P|404:288|408:232,1,77.999997619629,0|0,1:0|0:0,0:0:0:0:
466,90,71513,2,0,P|472:129|472:168,1,77.999997619629,0|0,0:0|0:0,0:0:0:0:
287,168,71846,2,0,P|325:160|364:164,1,77.999997619629,0|0,1:0|0:0,0:0:0:0:
364,164,72096,1,0,0:0:0:0:
364,164,72179,6,0,L|356:344,1,155.999995239258,0|0,0:0|1:0,0:0:0:0:
256,284,72679,1,0,0:0:0:0:
180,360,72846,2,0,P|116:368|28:320,1,155.999995239258,0|0,0:0|1:0,0:0:0:0:
60,224,73346,6,0,P|124:216|212:264,1,155.999995239258,0|0,0:0|0:0,0:0:0:0:
256,344,73846,1,0,0:0:0:0:
352,312,74013,2,0,P|412:312|496:256,1,155.999995239258
468,164,74513,1,0,1:0:0:0:
348,232,74679,5,0,0:0:0:0:
348,232,74763,1,0,0:0:0:0:
348,232,74846,2,0,P|332:152|332:68,1,155.999995239258,0|0,0:0|1:0,0:0:0:0:
256,0,75346,1,0,0:0:0:0:
220,100,75513,2,0,L|128:96,1,77.999997619629,0|0,0:0|0:0,0:0:0:0:
40,128,75846,2,0,P|24:184|36:288,2,155.999995239258,0|0|0,1:0|0:0|1:0,0:0:0:0:
72,24,76679,1,0,0:0:0:0:
142,96,76846,6,0,L|220:100,1,77.999997619629,0|0,0:0|0:0,0:0:0:0:
393,52,77179,2,0,L|316:56,1,77.999997619629,0|0,1:0|0:0,0:0:0:0:
316,56,77429,1,0,0:0:0:0:
316,56,77513,2,0,P|304:124|316:220,1,155.999995239258,4|0,0:0|1:0,0:0:0:0:
144,344,78179,6,0,L|136:240,1,77.999997619629,0|0,0:0|0:0,0:0:0:0:
83,102,78513,2,0,L|76:180,1,77.999997619629,0|0,1:0|0:0,0:0:0:0:
76,180,78763,1,0,0:0:0:0:
76,180,78846,2,0,P|132:180|224:132,1,155.999995239258,4|0,0:0|1:0,0:0:0:0:
412,36,79513,6,0,L|420:124,1,77.999997619629,0|0,0:0|0:0,0:0:0:0:
457,285,79846,2,0,L|468:208,1,77.999997619629,0|0,1:0|0:0,0:0:0:0:
468,208,80096,1,0,0:0:0:0:
468,208,80179,2,0,P|400:200|312:248,1,155.999995239258,4|0,0:0|1:0,0:0:0:0:
256,320,80679,1,0,0:0:0:0:
189,236,80846,6,0,P|120:201|44:208,2,155.999995239258,0|0|0,0:0|1:0|0:0,0:0:0:0:
372,348,81846,2,0,P|424:340|464:320,1,77.999997619629,0|0,1:0|0:0,0:0:0:0:
500,236,82179,2,0,P|456:228|396:240,1,77.999997619629,0|0,0:0|0:0,0:0:0:0:
320,264,82513,2,0,P|228:264|160:216,1,155.999995239258,0|0,1:0|0:0,0:0:0:0:
256,72,83179,5,2,0:0:0:0:
296,152,83346,2,0,L|428:144,2,130,2|2|0,0:0|0:0|0:0,0:0:0:0:
256,72,84179,1,0,0:0:0:0:
256,252,84513,5,2,0:0:0:0:
216,172,84680,2,0,L|84:180,2,130,2|2|0,0:0|0:0|0:0,0:0:0:0:
256,192,85513,12,2,86846,0:0:0:0:
200,236,87179,6,0,L|128:228,2,65,2|0|0,0:0|0:0|0:0,0:0:0:0:
256,308,87679,1,0,0:0:0:0:
320,248,87846,2,0,P|332:204|332:92,1,130,2|0,0:0|0:0,0:0:0:0:
