osu file format v14

[General]
AudioFilename: audio.mp3
AudioLeadIn: 0
PreviewTime: 58013
Countdown: 0
SampleSet: Soft
StackLeniency: 0.7
Mode: 0
LetterboxInBreaks: 0
WidescreenStoryboard: 0

[Editor]
DistanceSpacing: 1.2
BeatDivisor: 4
GridSize: 4
TimelineZoom: 1

[Metadata]
Title:Dakara, Hitori ja nai -TV Size-
TitleUnicode:だから、ひとりじゃない -TV Size-
Artist:Little Glee Monster
ArtistUnicode:Little Glee Monster
Creator:Chewin
Version:Extra
Source:僕のヒーローアカデミア 第2期
Tags:boku no my hero academia heroaca ヒロアカ ending theme ed plus ultra
BeatmapID:1384919
BeatmapSetID:645856

[Difficulty]
HPDrainRate:7
CircleSize:4
OverallDifficulty:9
ApproachRate:9
SliderMultiplier:1.9
SliderTickRate:1

[Events]
//Background and Video events
0,0,"DDohbSXUwAEWQyY.jpg",0,0
Video,-841,"Boku no Hero Academia Ending 2 Dakara Hitori Janai - Little Glee Monster_track1.mp4"
//Break Periods
//Storyboard Layer 0 (Background)
//Storyboard Layer 1 (Fail)
//Storyboard Layer 2 (Pass)
//Storyboard Layer 3 (Foreground)
//Storyboard Sound Samples

[TimingPoints]
180,333.333333333333,4,1,0,30,1,0
1429,-100,4,2,0,5,0,0
1513,-100,4,2,0,40,0,0
2763,-100,4,2,0,5,0,0
2846,-100,4,2,0,50,0,0
4179,-100,4,2,0,30,0,0
4513,-100,4,2,0,50,0,0
38346,-181.818181818181,4,2,0,35,0,0
53513,-100,4,2,0,50,0,0
58846,-83.3333333333333,4,2,0,50,0,1
68679,-83.3333333333333,4,2,0,50,0,0
69513,-83.3333333333333,4,2,0,50,0,1
82846,-100,4,2,0,50,0,0
85513,-100,4,2,0,35,0,0
85846,-100,4,2,0,50,0,0
86179,-100,4,2,0,65,0,0
86513,-100,4,2,0,80,0,0
86846,-100,4,2,0,95,0,0
87179,-100,4,2,0,50,0,0

[Colours]
Combo1 : 135,224,1
Combo2 : 186,116,116
Combo3 : 212,212,212
Combo4 : 255,187,255

[HitObjects]
256,192,180,12,0,1429,0:0:0:0:
256,192,1513,12,0,2763,0:0:0:0:
256,192,2846,12,4,4179,0:0:0:0:
144,192,4513,5,2,0:0:0:0:
128,60,4679,1,0,0:0:0:0:
144,192,4846,1,0,0:0:0:0:
152,172,4929,1,0,0:0:0:0:
160,152,5013,1,0,3:0:0:0:
36,172,5179,2,0,P|48:236|56:308,1,95,4|0,0:0|0:0,0:0:0:0:
51,265,5429,1,0,0:0:0:0:
51,265,5513,6,0,P|120:280|172:316,1,95,4|0,0:0|0:0,0:0:0:0:
345,327,5846,2,0,P|302:347|256:356,1,95,0|0,1:0|0:0,0:0:0:0:
128,60,6179,1,0,0:0:0:0:
252,152,6346,2,0,P|248:208|236:256,1,95,0|0,0:0|1:0,0:0:0:0:
239,245,6596,1,0,0:0:0:0:
239,245,6679,2,0,L|124:236,1,95,0|0,0:0|0:0,0:0:0:0:
56,112,7013,1,0,0:0:0:0:
36,332,7179,6,0,P|88:340|140:360,1,95,0|0,1:0|0:0,0:0:0:0:
360,192,7513,1,0,0:0:0:0:
484,344,7679,2,0,P|432:340|380:324,1,95,0|0,0:0|1:0,0:0:0:0:
352,288,7929,1,0,0:0:0:0:
352,288,8013,2,0,P|296:292|248:312,1,95,0|0,0:0|0:0,0:0:0:0:
28,192,8346,1,0,0:0:0:0:
64,340,8513,6,0,P|112:316|152:252,1,95,0|0,1:0|0:0,0:0:0:0:
96,28,8846,1,0,0:0:0:0:
28,192,9013,2,0,P|84:184|144:160,1,95,0|0,0:0|1:0,0:0:0:0:
156,128,9263,1,0,0:0:0:0:
156,128,9346,1,0,0:0:0:0:
256,296,9513,5,2,0:0:0:0:
456,172,9679,1,0,0:0:0:0:
280,136,9846,5,2,0:0:0:0:
428,336,10013,1,0,0:0:0:0:
184,208,10179,5,2,0:0:0:0:
512,268,10346,1,0,0:0:0:0:
316,376,10513,5,2,0:0:0:0:
384,76,10679,1,0,0:0:0:0:
384,76,10763,1,0,0:0:0:0:
384,76,10846,5,4,0:0:0:0:
368,264,11013,1,0,0:0:0:0:
272,192,11179,2,0,P|212:196|144:212,1,95,0|0,1:0|0:0,0:0:0:0:
32,80,11513,1,0,0:0:0:0:
48,300,11679,2,0,P|100:308|168:340,1,95,0|0,0:0|1:0,0:0:0:0:
188,348,11929,1,0,0:0:0:0:
188,348,12013,2,0,P|240:344|292:324,1,95,0|0,0:0|0:0,0:0:0:0:
480,192,12346,1,0,0:0:0:0:
260,40,12513,6,0,P|244:104|240:148,1,95,0|0,1:0|0:0,0:0:0:0:
356,368,12846,1,0,0:0:0:0:
480,192,13013,2,0,P|472:136|456:92,1,95,0|0,0:0|1:0,0:0:0:0:
88,192,13346,1,0,0:0:0:0:
256,320,13513,5,4,0:0:0:0:
392,196,13679,1,0,0:0:0:0:
344,376,13846,1,0,1:0:0:0:
320,112,14013,1,0,0:0:0:0:
424,320,14179,5,0,0:0:0:0:
136,280,14346,1,0,0:0:0:0:
488,188,14513,5,0,1:0:0:0:
208,368,14679,1,0,0:0:0:0:
256,64,14846,5,4,0:0:0:0:
296,328,15013,1,0,0:0:0:0:
32,192,15179,5,0,1:0:0:0:
368,76,15346,1,4,0:0:0:0:
24,200,15513,5,0,0:0:0:0:
328,352,15679,1,0,0:0:0:0:
32,192,15846,5,0,1:0:0:0:
60,196,15929,1,0,1:0:0:0:
88,200,16013,1,0,1:0:0:0:
120,204,16096,1,0,1:0:0:0:
152,208,16179,6,0,P|200:200|252:168,1,95,4|0,0:0|0:0,0:0:0:0:
378,50,16513,2,0,P|332:63|292:88,1,95,0|0,3:0|0:0,0:0:0:0:
328,352,16846,2,0,P|344:264|320:156,1,190,0|0,0:0|3:0,0:0:0:0:
144,24,17346,1,0,0:0:0:0:
40,144,17513,6,0,P|20:192|16:256,1,95
164,360,17846,2,0,P|156:304|136:252,1,95,0|0,3:0|0:0,0:0:0:0:
143,267,18096,1,0,0:0:0:0:
143,267,18179,1,0,0:0:0:0:
256,64,18346,1,0,0:0:0:0:
464,188,18513,2,0,P|456:248|432:296,1,95,0|0,3:0|0:0,0:0:0:0:
442,279,18763,1,0,0:0:0:0:
442,279,18846,6,0,P|380:280|332:296,1,95,0|0,0:0|0:0,0:0:0:0:
170,329,19179,2,0,P|209:356|256:364,1,95,0|0,3:0|0:0,0:0:0:0:
259,76,19513,2,0,P|235:168|256:260,1,190,0|0,0:0|3:0,0:0:0:0:
392,368,20013,1,0,0:0:0:0:
480,236,20179,6,0,P|480:172|456:120,1,95,0|0,0:0|0:0,0:0:0:0:
469,143,20429,1,0,0:0:0:0:
469,143,20513,1,0,3:0:0:0:
256,28,20679,1,0,0:0:0:0:
42,143,20846,2,0,P|29:188|32:236,1,95
256,368,21179,2,0,P|256:288|236:240,1,95,0|0,3:0|0:0,0:0:0:0:
251,274,21429,1,0,0:0:0:0:
251,274,21513,6,0,P|196:264|152:208,1,95,0|0,0:0|0:0,0:0:0:0:
144,44,21846,2,0,P|164:86|168:140,1,95,0|0,3:0|0:0,0:0:0:0:
44,356,22179,2,0,P|36:260|84:172,1,190,0|0,0:0|3:0,0:0:0:0:
256,48,22679,1,0,0:0:0:0:
456,192,22846,6,0,P|456:240|436:288,1,95
268,376,23179,2,0,P|272:320|308:264,1,95
320,88,23513,2,0,P|332:136|320:188,1,95
132,188,23846,2,0,P|196:188|244:220,1,95,0|0,3:0|0:0,0:0:0:0:
222,201,24096,1,0,0:0:0:0:
222,201,24179,6,0,P|248:140|248:8,1,190,0|0,0:0|3:0,0:0:0:0:
72,96,24679,1,0,0:0:0:0:
40,232,24846,2,0,P|36:280|56:352,1,95,0|0,0:0|0:0,0:0:0:0:
200,372,25179,2,0,P|196:312|172:248,1,95,0|0,3:0|0:0,0:0:0:0:
186,278,25429,1,0,0:0:0:0:
186,278,25513,5,2,0:0:0:0:
284,192,25679,1,2,0:0:0:0:
292,344,25846,1,0,3:0:0:0:
156,176,26013,5,2,0:0:0:0:
376,268,26179,1,2,0:0:0:0:
200,372,26346,1,0,0:0:0:0:
280,148,26513,2,0,L|266:241,1,95,0|0,3:0|0:0,0:0:0:0:
266,241,26763,1,0,0:0:0:0:
266,241,26846,6,0,P|328:240|376:208,1,95,4|0,0:0|0:0,0:0:0:0:
388,32,27179,2,0,P|376:80|371:124,1,95,0|0,3:0|0:0,0:0:0:0:
472,372,27513,2,0,P|480:272|436:184,1,190,0|0,0:0|3:0,0:0:0:0:
252,36,28013,1,0,0:0:0:0:
40,192,28179,6,0,P|44:252|68:320,1,95
208,376,28513,2,0,P|208:320|176:248,1,95,0|0,3:0|0:0,0:0:0:0:
196,283,28763,1,0,0:0:0:0:
196,283,28846,1,0,0:0:0:0:
252,36,29013,1,0,0:0:0:0:
360,192,29179,2,0,P|416:172|464:136,1,95,0|0,3:0|0:0,0:0:0:0:
445,152,29429,1,0,0:0:0:0:
445,152,29513,6,0,P|460:216|460:272,1,95,0|0,0:0|0:0,0:0:0:0:
256,372,29846,2,0,P|232:304|232:252,1,95,0|0,3:0|0:0,0:0:0:0:
320,32,30179,2,0,P|332:100|324:232,1,190,0|0,0:0|3:0,0:0:0:0:
156,368,30679,1,0,0:0:0:0:
40,228,30846,6,0,P|48:168|68:120,1,95,0|0,0:0|0:0,0:0:0:0:
59,135,31096,1,0,0:0:0:0:
59,135,31179,1,0,2:0:0:0:
256,32,31346,1,0,0:0:0:0:
452,135,31513,2,0,P|467:180|472:228,1,95,0|0,0:0|0:0,0:0:0:0:
256,372,31846,2,0,P|272:320|296:268,1,95,0|0,3:0|0:0,0:0:0:0:
288,282,32096,1,0,0:0:0:0:
288,282,32179,6,0,P|288:216|276:172,1,95,0|0,0:0|0:0,0:0:0:0:
60,96,32513,2,0,P|52:148|64:208,1,95,0|0,3:0|0:0,0:0:0:0:
184,368,32846,2,0,P|188:296|168:164,1,190,0|0,0:0|3:0,0:0:0:0:
344,32,33346,1,0,0:0:0:0:
444,188,33513,6,0,P|444:248|416:296,1,95
256,368,33846,2,0,P|256:304|292:248,1,95,0|0,3:0|0:0,0:0:0:0:
232,80,34179,2,0,L|239:175,1,95
48,192,34513,2,0,P|104:196|156:236,1,95,0|0,3:0|0:0,0:0:0:0:
136,214,34763,1,0,0:0:0:0:
136,214,34846,5,4,3:0:0:0:
184,368,35013,1,0,0:0:0:0:
272,260,35179,1,0,3:0:0:0:
48,320,35346,5,0,0:0:0:0:
48,320,35429,1,0,0:0:0:0:
48,320,35513,1,0,3:0:0:0:
312,368,35679,1,0,0:0:0:0:
240,116,35846,1,0,3:0:0:0:
204,252,36013,5,0,0:0:0:0:
204,252,36096,1,0,0:0:0:0:
204,252,36179,2,0,P|264:244|316:220,1,95
416,40,36513,2,0,P|356:72|324:108,1,95,0|0,3:0|0:0,0:0:0:0:
456,372,36846,2,0,P|456:308|424:168,1,190,0|0,0:0|3:0,0:0:0:0:
256,28,37346,1,0,0:0:0:0:
56,272,37513,5,4,0:0:0:0:
256,368,38013,1,0,0:0:0:0:
328,308,38179,1,0,1:0:0:0:
268,232,38346,6,0,L|276:160,2,52.2500015945435,0|0|0,0:0|0:0|0:0,0:0:0:0:
200,296,38846,2,0,P|152:300|80:268,1,104.500003189087,0|0,0:0|0:0,0:0:0:0:
16,144,39513,2,0,P|60:132|116:92,1,104.500003189087,0|0,1:0|0:0,0:0:0:0:
132,60,39929,1,0,1:0:0:0:
132,60,40013,1,0,0:0:0:0:
212,108,40179,6,0,P|264:112|368:148,2,156.750004783631
168,24,41346,2,0,P|100:40|56:44,1,104.500003189087,0|0,0:0|0:0,0:0:0:0:
16,120,41846,1,0,0:0:0:0:
16,120,42013,1,0,0:0:0:0:
84,180,42179,6,0,L|76:296,2,104.500003189087,0|2|4,1:0|0:0|0:0,0:0:0:0:
256,76,43346,1,0,0:0:0:0:
320,20,43513,1,0,1:0:0:0:
368,88,43679,6,0,L|420:84,2,52.2500015945435,0|0|0,0:0|0:0|0:0,0:0:0:0:
300,136,44179,2,0,P|296:188|304:256,1,104.500003189087,0|0,0:0|0:0,0:0:0:0:
460,360,44846,2,0,P|464:312|452:248,1,104.500003189087,0|0,1:0|0:0,0:0:0:0:
416,216,45263,1,0,1:0:0:0:
416,216,45346,1,0,0:0:0:0:
316,244,45513,6,0,P|264:240|168:184,2,156.750004783631
388,192,46679,2,0,P|412:148|420:88,1,104.500003189087,0|0,0:0|0:0,0:0:0:0:
364,16,47179,1,0,0:0:0:0:
364,16,47346,1,0,0:0:0:0:
304,92,47513,6,0,P|248:88|196:64,2,104.500003189087,0|2|4,1:0|0:0|0:0,0:0:0:0:
428,272,48679,1,0,0:0:0:0:
408,356,48846,1,0,1:0:0:0:
324,336,49013,2,0,L|268:344,2,52.2500015945435,0|0|0,0:0|0:0|0:0,0:0:0:0:
344,252,49513,6,0,P|340:204|320:136,1,104.500003189087
176,24,50179,2,0,P|164:72|176:136,1,104.500003189087,0|0,1:0|0:0,0:0:0:0:
208,168,50596,1,0,1:0:0:0:
208,168,50679,1,0,0:0:0:0:
308,144,50846,6,0,P|344:140|468:188,2,156.750004783631,0|0|0,0:0|0:0|0:0,0:0:0:0:
232,188,52013,2,0,P|192:188|88:132,1,156.750004783631,0|0,0:0|0:0,0:0:0:0:
16,192,52679,1,0,0:0:0:0:
16,284,52846,2,0,P|48:276|80:256,1,52.2500015945435,0|0,1:0|0:0,0:0:0:0:
144,240,53179,2,0,P|168:252|200:284,1,52.2500015945435
216,304,53429,1,0,0:0:0:0:
216,304,53513,6,0,P|268:299|336:251,1,95,4|0,0:0|0:0,0:0:0:0:
452,192,53846,1,0,0:0:0:0:
344,40,54013,2,0,P|328:88|320:160,1,95,2|0,0:0|0:0,0:0:0:0:
444,336,54346,2,0,P|440:288|427:243,1,95,2|0,0:0|0:0,0:0:0:0:
132,212,54679,2,0,P|214:256|308:248,1,190,2|0,0:0|0:0,0:0:0:0:
232,48,55179,6,0,L|236:148,1,95,2|0,0:0|0:0,0:0:0:0:
297,342,55513,2,0,L|308:248,1,95,2|0,0:0|0:0,0:0:0:0:
348,28,55846,2,0,L|352:128,1,95,2|0,0:0|0:0,0:0:0:0:
456,320,56179,5,2,0:0:0:0:
441,317,56262,1,0,0:0:0:0:
427,317,56345,1,0,0:0:0:0:
413,318,56429,1,0,0:0:0:0:
399,322,56512,1,2,0:0:0:0:
386,327,56595,1,0,0:0:0:0:
374,334,56679,1,0,0:0:0:0:
364,344,56763,1,0,0:0:0:0:
356,356,56846,6,0,L|296:340,3,47.5,2|0|0|0,0:0|0:0|0:0|0:0,0:0:0:0:
276,296,57179,2,0,L|196:312,3,47.5,2|0|0|0,0:0|0:0|0:0|0:0,0:0:0:0:
184,340,57513,6,0,L|128:332,1,47.5,2|0,0:0|0:0,0:0:0:0:
84,328,57679,1,0,0:0:0:0:
160,68,57846,1,0,0:0:0:0:
32,224,58013,1,0,0:0:0:0:
32,224,58096,1,0,0:0:0:0:
32,224,58179,2,0,P|88:216|144:172,1,95
256,32,58513,1,0,0:0:0:0:
464,192,58679,5,2,0:0:0:0:
464,192,58763,1,0,0:0:0:0:
464,192,58846,2,0,P|384:208|308:268,1,170.999994781494,4|0,0:0|0:0,0:0:0:0:
288,312,59179,2,0,P|224:296|180:244,1,113.999996520996,0|0,1:0|0:0,0:0:0:0:
160,68,59513,1,0,0:0:0:0:
190,263,59679,1,0,0:0:0:0:
308,152,59846,1,0,1:0:0:0:
56,184,60013,5,2,0:0:0:0:
56,184,60096,1,0,0:0:0:0:
56,184,60179,2,0,P|44:252|88:372,1,170.999994781494,4|0,0:0|0:0,0:0:0:0:
128,364,60513,2,0,L|248:352,1,113.999996520996,0|0,1:0|0:0,0:0:0:0:
448,192,60846,1,0,0:0:0:0:
241,352,61013,1,0,0:0:0:0:
248,108,61179,1,0,1:0:0:0:
312,232,61346,5,2,0:0:0:0:
312,232,61429,1,0,0:0:0:0:
312,232,61513,2,0,L|300:368,1,113.999996520996
248,108,61846,1,0,1:0:0:0:
301,345,62013,1,0,0:0:0:0:
456,192,62179,2,0,P|452:128|436:72,1,113.999996520996,0|0,0:0|0:0,0:0:0:0:
56,192,62513,1,0,1:0:0:0:
164,348,62679,6,0,P|228:348|376:268,2,227.999993041992,0|0|0,0:0|0:0|0:0,0:0:0:0:
56,192,63513,1,0,0:0:0:0:
164,348,63679,1,0,0:0:0:0:
200,108,63846,1,0,1:0:0:0:
40,368,64013,5,0,0:0:0:0:
40,368,64096,1,0,0:0:0:0:
40,368,64179,2,0,P|48:284|80:228,1,113.999996520996,4|0,0:0|0:0,0:0:0:0:
286,216,64513,2,0,P|239:248|184:256,1,113.999996520996,0|0,1:0|0:0,0:0:0:0:
108,55,64846,2,0,P|120:111|120:168,1,113.999996520996,0|0,0:0|0:0,0:0:0:0:
256,352,65179,1,0,1:0:0:0:
468,192,65346,5,0,0:0:0:0:
468,192,65429,1,0,0:0:0:0:
468,192,65513,2,0,P|376:204|260:284,1,227.999993041992,0|0,0:0|1:0,0:0:0:0:
28,192,66013,1,0,0:0:0:0:
120,368,66179,2,0,P|144:312|152:240,1,113.999996520996,0|0,0:0|0:0,0:0:0:0:
128,16,66513,1,0,1:0:0:0:
28,192,66679,5,0,0:0:0:0:
28,192,66763,1,0,0:0:0:0:
28,192,66846,2,0,P|92:184|168:140,1,113.999996520996,4|0,0:0|0:0,0:0:0:0:
336,20,67179,2,0,P|352:96|344:164,1,113.999996520996,0|0,1:0|0:0,0:0:0:0:
256,368,67513,1,0,0:0:0:0:
208,92,67679,5,0,0:0:0:0:
256,368,67846,1,0,1:0:0:0:
476,192,68013,1,0,0:0:0:0:
476,192,68096,1,0,0:0:0:0:
476,192,68179,1,0,0:0:0:0:
208,92,68346,1,0,0:0:0:0:
256,368,68513,1,0,1:0:0:0:
312,216,68679,5,2,0:0:0:0:
312,216,68763,1,0,0:0:0:0:
312,216,68846,1,0,0:0:0:0:
256,368,69013,1,0,0:0:0:0:
208,92,69179,1,0,1:0:0:0:
476,192,69346,5,2,0:0:0:0:
476,192,69429,1,0,0:0:0:0:
476,192,69513,2,0,P|480:276|452:368,1,170.999994781494,4|0,0:0|0:0,0:0:0:0:
400,368,69846,2,0,L|264:360,1,113.999996520996,0|0,1:0|0:0,0:0:0:0:
104,168,70179,1,0,0:0:0:0:
286,361,70346,1,0,0:0:0:0:
352,120,70513,1,0,1:0:0:0:
104,168,70679,5,2,0:0:0:0:
104,168,70763,1,0,0:0:0:0:
104,168,70846,2,0,P|84:248|120:352,1,170.999994781494,4|0,0:0|0:0,0:0:0:0:
156,356,71179,2,0,L|296:344,1,113.999996520996,0|0,1:0|0:0,0:0:0:0:
424,108,71513,1,0,0:0:0:0:
269,346,71679,1,0,0:0:0:0:
204,140,71846,1,0,1:0:0:0:
476,288,72013,5,0,0:0:0:0:
476,288,72096,1,0,0:0:0:0:
476,288,72179,2,0,P|408:296|364:328,1,113.999996520996,0|0,0:0|0:0,0:0:0:0:
204,140,72513,1,0,1:0:0:0:
256,372,72679,1,0,0:0:0:0:
352,188,72846,2,0,P|352:128|316:40,1,113.999996520996,0|0,0:0|0:0,0:0:0:0:
120,232,73179,1,0,1:0:0:0:
256,372,73346,6,0,P|376:360|468:296,2,227.999993041992,0|0|0,0:0|0:0|0:0,0:0:0:0:
120,232,74179,1,0,0:0:0:0:
212,44,74346,2,0,P|224:112|204:180,1,113.999996520996,0|0,0:0|1:0,0:0:0:0:
128,360,74679,1,0,0:0:0:0:
36,192,74846,6,0,P|40:120|64:64,1,113.999996520996,0|0,0:0|0:0,0:0:0:0:
316,196,75179,2,0,P|320:264|304:328,1,113.999996520996,0|0,1:0|0:0,0:0:0:0:
128,360,75513,6,0,P|136:284|152:224,1,113.999996520996,0|0,0:0|0:0,0:0:0:0:
440,60,75846,2,0,P|448:128|436:204,1,113.999996520996,0|0,1:0|0:0,0:0:0:0:
304,360,76179,6,0,P|288:248|304:104,1,227.999993041992,0|0,0:0|1:0,0:0:0:0:
428,280,76679,1,0,0:0:0:0:
188,348,76846,1,0,0:0:0:0:
188,348,76929,1,0,0:0:0:0:
188,348,77013,1,0,0:0:0:0:
40,188,77179,2,0,P|60:128|92:80,1,113.999996520996,0|0,1:0|0:0,0:0:0:0:
420,192,77513,5,4,0:0:0:0:
268,228,77679,1,0,0:0:0:0:
364,288,77846,1,0,1:0:0:0:
324,132,78013,1,0,0:0:0:0:
277,318,78179,5,0,0:0:0:0:
410,101,78345,1,0,0:0:0:0:
231,143,78512,1,0,1:0:0:0:
456,276,78679,1,0,0:0:0:0:
192,248,78846,5,4,0:0:0:0:
495,171,79012,1,0,0:0:0:0:
378,357,79179,1,0,1:0:0:0:
309,62,79346,1,0,0:0:0:0:
277,318,79513,5,0,0:0:0:0:
410,101,79679,1,0,0:0:0:0:
231,143,79846,1,0,1:0:0:0:
456,276,80013,1,0,0:0:0:0:
268,228,80179,5,4,0:0:0:0:
420,192,80345,1,0,0:0:0:0:
324,132,80512,1,0,1:0:0:0:
364,288,80679,1,0,0:0:0:0:
410,101,80846,5,0,0:0:0:0:
277,318,81012,1,0,0:0:0:0:
456,276,81179,1,0,1:0:0:0:
231,143,81346,1,0,0:0:0:0:
344,212,81513,5,0,0:0:0:0:
344,212,81846,2,0,P|352:292|344:352,1,113.999996520996,0|0,1:0|0:0,0:0:0:0:
112,360,82179,2,0,P|116:296|132:224,1,113.999996520996,0|0,0:0|0:0,0:0:0:0:
228,48,82513,2,0,P|240:112|244:168,1,113.999996520996,0|0,1:0|0:0,0:0:0:0:
243,160,82763,1,0,0:0:0:0:
243,160,82846,2,0,P|188:151|112:156,1,95
24,248,83179,5,2,0:0:0:0:
160,356,83346,2,0,P|228:348|348:300,2,190,2|2|0,0:0|0:0|0:0,0:0:0:0:
24,248,84179,2,0,P|24:188|48:124,1,95,0|0,0:0|0:0,0:0:0:0:
184,24,84513,5,2,0:0:0:0:
256,152,84679,2,0,P|264:236|248:352,2,190,2|2|0,0:0|0:0|0:0,0:0:0:0:
184,24,85513,5,0,1:0:0:0:
256,152,85679,1,0,0:0:0:0:
316,48,85846,5,0,1:0:0:0:
120,124,86013,1,0,0:0:0:0:
368,136,86179,5,0,0:0:0:0:
80,40,86346,1,0,0:0:0:0:
400,0,86513,5,0,1:0:0:0:
44,192,86679,1,0,0:0:0:0:
420,352,86846,5,2,0:0:0:0:
144,176,87179,5,2,0:0:0:0:
312,84,87346,1,0,0:0:0:0:
244,244,87513,2,0,L|236:116,1,95,0|0,0:0|0:0,0:0:0:0:
180,308,87846,6,0,P|256:328|332:244,1,190,2|0,0:0|0:0,0:0:0:0:
