osu file format v14

[General]
AudioFilename: audio.mp3
AudioLeadIn: 0
PreviewTime: 58013
Countdown: 0
SampleSet: Soft
StackLeniency: 0.7
Mode: 0
LetterboxInBreaks: 0
WidescreenStoryboard: 0

[Editor]
Bookmarks: 75513
DistanceSpacing: 0.7
BeatDivisor: 4
GridSize: 4
TimelineZoom: 1

[Metadata]
Title:Dakara, Hitori ja nai -TV Size-
TitleUnicode:だから、ひとりじゃない -TV Size-
Artist:Little Glee Monster
ArtistUnicode:Little Glee Monster
Creator:Chewin
Version:Easy
Source:僕のヒーローアカデミア 第2期
Tags:boku no my hero academia heroaca ヒロアカ ending theme ed plus ultra
BeatmapID:1385765
BeatmapSetID:645856

[Difficulty]
HPDrainRate:2
CircleSize:2
OverallDifficulty:2
ApproachRate:3
SliderMultiplier:0.9
SliderTickRate:1

[Events]
//Background and Video events
0,0,"DDohbSXUwAEWQyY.jpg",0,0
Video,-841,"Boku no Hero Academia Ending 2 Dakara Hitori Janai - Little Glee Monster_track1.mp4"
//Break Periods
//Storyboard Layer 0 (Background)
//Storyboard Layer 1 (Fail)
//Storyboard Layer 2 (Pass)
//Storyboard Layer 3 (Foreground)
//Storyboard Sound Samples

[TimingPoints]
180,333.333333333333,4,1,0,30,1,0
1429,-100,4,2,0,5,0,0
1513,-100,4,2,0,40,0,0
2763,-100,4,2,0,5,0,0
2846,-100,4,2,0,50,0,0
4179,-100,4,2,0,30,0,0
4846,-100,4,2,0,50,0,0
38179,-153.846153846153,4,2,0,35,0,0
53513,-100,4,2,0,50,0,0
58846,-100,4,2,0,50,0,1
68679,-100,4,2,0,50,0,0
69513,-100,4,2,0,50,0,1
82846,-100,4,2,0,50,0,0
87179,-100,4,2,0,50,0,0

[Colours]
Combo1 : 135,224,1
Combo2 : 186,116,116
Combo3 : 212,212,212
Combo4 : 255,187,255

[HitObjects]
256,192,180,12,4,4179,0:0:0:0:
260,320,5513,5,4,0:0:0:0:
256,260,5846,2,0,L|248:128,1,90,0|0,1:0|0:0,0:0:0:0:
244,108,6513,1,0,1:0:0:0:
120,80,7179,6,0,L|126:189,1,90,0|0,1:0|0:0,0:0:0:0:
128,232,7846,1,0,1:0:0:0:
216,320,8513,6,0,P|264:336|336:320,1,90,0|0,1:0|0:0,0:0:0:0:
340,284,9180,1,0,1:0:0:0:
396,260,9513,6,0,L|496:276,2,90,2|2|2,0:0|0:0|0:0,0:0:0:0:
352,212,10513,2,0,P|300:216|244:244,1,90,2|4,0:0|0:0,0:0:0:0:
220,272,11179,6,0,L|104:264,1,90,0|0,1:0|0:0,0:0:0:0:
68,264,11846,1,0,1:0:0:0:
44,140,12513,6,0,L|133:146,1,90,0|0,1:0|0:0,0:0:0:0:
196,148,13180,1,0,1:0:0:0:
256,192,13513,12,4,14846,0:0:0:0:
256,100,16179,6,0,B|168:100|168:100|48:140,1,180,2|0,0:0|0:0,0:0:0:0:
80,254,17513,2,0,B|168:284|168:284|256:284,1,180,2|0,0:0|0:0,0:0:0:0:
344,192,18846,6,0,L|468:192,2,90,2|0|0,0:0|3:0|0:0,0:0:0:0:
256,100,20179,2,0,L|128:100,2,90,2|0|0,0:0|3:0|0:0,0:0:0:0:
340,192,21513,6,0,P|328:288|240:336,1,180,2|0,0:0|0:0,0:0:0:0:
148,280,22846,2,0,L|40:288,1,90,2|0,0:0|3:0,0:0:0:0:
12,328,23513,2,0,P|12:256|24:212,1,90
40,180,24179,5,2,0:0:0:0:
136,100,24846,1,0,0:0:0:0:
256,136,25513,1,2,0:0:0:0:
340,44,26179,1,0,0:0:0:0:
448,112,26846,6,0,L|424:312,1,180,2|0,0:0|0:0,0:0:0:0:
328,208,28179,2,0,B|256:264|256:264|176:200,1,180,2|0,0:0|0:0,0:0:0:0:
85,290,29513,6,0,L|72:164,1,90,2|0,0:0|3:0,0:0:0:0:
68,140,30179,1,0,0:0:0:0:
176,72,30846,6,0,L|189:198,1,90,2|0,0:0|3:0,0:0:0:0:
193,222,31512,1,0,0:0:0:0:
256,336,32179,6,0,P|356:296|408:212,1,180,2|0,0:0|0:0,0:0:0:0:
364,120,33513,2,0,L|376:16,2,90,2|0|0,0:0|3:0|0:0,0:0:0:0:
356,184,34513,1,0,0:0:0:0:
348,248,34846,5,2,0:0:0:0:
256,332,35513,1,0,0:0:0:0:
160,252,36179,1,2,0:0:0:0:
244,160,36846,2,0,L|260:56,2,90,0|0|4,0:0|0:0|0:0,0:0:0:0:
136,240,38179,6,0,P|180:272|208:348,1,116.999994644165,0|0,1:0|0:0,0:0:0:0:
305,327,39513,2,0,P|329:274|376:240,1,116.999994644165,0|0,1:0|0:0,0:0:0:0:
376,144,40846,2,0,P|329:109|305:56,1,116.999994644165,0|0,1:0|0:0,0:0:0:0:
206,56,42179,2,0,P|182:109|135:144,1,116.999994644165,0|4,1:0|0:0,0:0:0:0:
64,80,43513,5,0,1:0:0:0:
135,144,44179,2,0,L|120:284,1,116.999994644165,0|0,0:0|1:0,0:0:0:0:
208,312,45513,2,0,L|220:176,1,116.999994644165,0|0,0:0|1:0,0:0:0:0:
316,176,46846,5,0,0:0:0:0:
316,176,47513,2,0,L|304:308,1,116.999994644165,0|4,1:0|0:0,0:0:0:0:
372,364,48846,1,0,1:0:0:0:
452,308,49513,2,0,P|460:228|448:176,1,116.999994644165,0|0,0:0|1:0,0:0:0:0:
388,120,50846,2,0,L|244:124,1,116.999994644165,0|0,0:0|1:0,0:0:0:0:
212,200,52179,2,0,P|152:196|88:164,1,116.999994644165,0|0,0:0|1:0,0:0:0:0:
144,56,53513,5,4,0:0:0:0:
256,116,54179,1,0,0:0:0:0:
368,56,54846,1,0,0:0:0:0:
432,164,55513,2,0,L|420:276,1,90,2|2,0:0|0:0,0:0:0:0:
256,192,56179,12,2,57513,0:0:0:0:
164,120,58846,6,0,L|200:336,1,180,4|0,0:0|0:0,0:0:0:0:
318,297,60179,2,0,L|348:120,1,180,4|0,0:0|0:0,0:0:0:0:
256,32,61513,5,2,0:0:0:0:
200,144,62179,1,0,0:0:0:0:
76,136,62846,1,2,0:0:0:0:
108,256,63513,1,0,0:0:0:0:
216,196,64179,6,0,P|280:208|400:288,2,180,4|0|2,0:0|0:0|0:0,0:0:0:0:
188,320,66179,1,0,0:0:0:0:
68,288,66846,6,0,P|48:200|84:80,1,180,4|0,0:0|0:0,0:0:0:0:
168,44,68179,1,2,0:0:0:0:
236,148,68846,2,0,L|360:144,1,90,0|0,0:0|1:0,0:0:0:0:
388,140,69513,6,0,P|412:232|396:336,1,180,4|0,0:0|0:0,0:0:0:0:
280,280,70846,2,0,P|184:276|88:332,1,180,4|0,0:0|0:0,0:0:0:0:
56,192,72179,5,2,0:0:0:0:
96,72,72846,1,0,0:0:0:0:
192,156,73513,1,2,0:0:0:0:
256,48,74179,1,0,0:0:0:0:
372,96,74846,6,0,L|368:308,1,180,2|0,0:0|0:0,0:0:0:0:
244,300,76179,2,0,P|168:296|56:348,1,180,2|0,0:0|0:0,0:0:0:0:
256,192,77513,12,0,81513,0:0:0:0:
256,192,82846,5,0,0:0:0:0:
192,184,83179,2,0,L|68:172,2,90,2|0|0,0:0|0:0|0:0,0:0:0:0:
256,192,84179,1,0,0:0:0:0:
320,188,84513,2,0,L|448:176,2,90,2|0|0,0:0|0:0|0:0,0:0:0:0:
256,192,85513,12,2,86846,0:0:0:0:
