osu file format v14

[General]
AudioFilename: audio.mp3
AudioLeadIn: 0
PreviewTime: 64022
Countdown: 0
SampleSet: Soft
StackLeniency: 0.7
Mode: 0
LetterboxInBreaks: 0
WidescreenStoryboard: 1

[Editor]
Bookmarks: 9514,19348,22181,43348,64848,75354,75854,83514,88848,94181,115514,136348,147348,155514,162187,167514,185181,194181,197181,206598,215514,220764
DistanceSpacing: 1
BeatDivisor: 2
GridSize: 32
TimelineZoom: 2.2

[Metadata]
Title:Dakara, Hitori ja nai
TitleUnicode:だから、ひとりじゃない
Artist:Little Glee Monster
ArtistUnicode:Little Glee Monster
Creator:waqlerg
Version:Normal
Source:僕のヒーローアカデミア 第2期
Tags:japanese, pop, rock, my hero academia, boku no hero academia
BeatmapID:1843524
BeatmapSetID:822490

[Difficulty]
HPDrainRate:5
CircleSize:3
OverallDifficulty:5
ApproachRate:5
SliderMultiplier:1.1
SliderTickRate:2

[Events]
//Background and Video events
0,0,"myheroacademia.jpg",0,0
//Break Periods
//Storyboard Layer 0 (Background)
//Storyboard Layer 1 (Fail)
//Storyboard Layer 2 (Pass)
//Storyboard Layer 3 (Foreground)
//Storyboard Sound Samples

[TimingPoints]
854.02851032523,333.333333333333,4,2,1,100,1,0
10187,-100,4,2,1,75,0,0
10687,-100,4,2,1,75,0,0
11520,-100,4,2,1,75,0,0
19520,-100,4,2,1,40,0,0
19854,-100,4,2,1,50,0,0
20187,-100,4,2,1,60,0,0
20520,-100,4,2,1,70,0,0
20854,-100,4,2,1,50,0,0
21354,-100,4,2,1,55,0,0
21854,-100,4,2,1,60,0,0
22270,-100,4,2,1,55,0,0
43520,-100,4,2,1,40,0,0
59520,-100,4,2,1,65,0,0
61187,-100,4,2,1,65,0,0
61520,-100,4,2,1,65,0,0
61854,-100,4,2,1,50,0,0
62187,-100,4,2,1,55,0,0
63520,-100,4,2,1,80,0,0
64354,-100,4,2,1,80,0,0
64854,-100,4,2,1,90,0,1
64937,-100,4,2,1,70,0,1
87770,-100,4,2,1,5,0,1
87812,-100,4,2,1,70,0,1
88104,-100,4,2,1,5,0,1
88145,-100,4,2,1,70,0,1
88770,-100,4,2,1,5,0,1
88812,-100,4,2,1,33,0,0
89770,-100,4,2,1,5,0,0
89812,-100,4,2,1,33,0,0
90770,-100,4,2,1,5,0,0
90812,-100,4,2,1,33,0,0
91604,-100,4,2,1,5,0,0
91854,-100,4,2,1,33,0,0
91937,-100,4,2,1,5,0,0
92187,-100,4,2,1,33,0,0
92270,-100,4,2,1,5,0,0
92520,-100,4,2,1,33,0,0
92604,-100,4,2,1,5,0,0
94187,-100,4,2,1,55,0,0
113770,-100,4,2,1,5,0,0
113812,-100,4,2,1,55,0,0
115520,-100,4,2,1,70,0,0
126187,-100,4,2,1,70,0,0
131520,-100,4,2,1,70,0,0
134187,-100,4,2,1,60,0,0
134520,-100,4,2,1,60,0,0
134854,-100,4,2,1,60,0,0
135187,-100,4,2,1,60,0,0
135520,-100,4,2,1,60,0,0
136354,-100,4,2,1,70,0,0
136687,-100,4,2,1,85,0,1
136770,-100,4,2,1,75,0,1
142104,-100,4,2,1,5,0,1
142145,-100,4,2,1,75,0,1
159770,-100,4,2,1,5,0,1
159812,-100,4,2,1,75,0,1
160854,-100,4,2,1,35,0,0
162520,-100,4,2,1,50,0,0
167520,-100,4,2,1,60,0,0
170187,-100,4,2,1,40,0,0
172104,-100,4,2,1,5,0,0
172145,-100,4,2,1,40,0,0
172770,-100,4,2,1,5,0,0
172812,-100,4,2,1,30,0,0
174187,-100,4,2,1,5,0,0
185354,-100,4,2,2,45,0,0
186187,-100,4,2,1,50,0,0
186354,-100,4,2,2,50,0,0
193520,-100,4,2,1,50,0,0
194187,-100,4,2,1,40,0,0
194520,-100,4,2,1,50,0,0
194854,-100,4,2,1,60,0,0
195187,-100,4,2,1,70,0,0
195520,-100,4,2,1,75,0,0
196354,-100,4,2,1,75,0,0
196604,-100,4,2,1,5,0,0
196645,-100,4,2,1,75,0,0
197104,-100,4,2,1,5,0,0
197145,-100,4,2,1,85,0,1
197270,-100,4,2,1,65,0,1
202437,-100,4,2,1,5,0,1
202479,-100,4,2,1,65,0,1
219770,-100,4,2,1,5,0,1
219812,-100,4,2,1,65,0,1
220104,-100,4,2,1,5,0,1
220145,-100,4,2,1,65,0,1
220854,-100,4,2,1,50,0,0
223520,-100,4,2,1,55,0,0
223854,-100,4,2,1,60,0,0
224187,-100,4,2,1,65,0,0
224520,-100,4,2,1,70,0,0
225187,-100,4,2,1,30,0,0

[Colours]
Combo1 : 255,185,151
Combo2 : 255,128,128
Combo3 : 0,0,255
Combo4 : 242,24,57

[HitObjects]
51,103,10187,6,0,P|99:114|168:110,1,110
246,95,10854,2,0,P|299:125|279:227,1,165
262,252,11520,6,0,L|379:254,1,110
406,227,12020,2,0,L|416:109,1,110
406,74,12520,1,0,0:0:0:0:
321,34,12854,6,0,L|303:152,1,110
266,165,13354,2,0,P|245:221|256:288,1,110
276,304,13854,1,0,0:0:0:0:
354,344,14187,6,0,P|424:342|470:305,1,110
481,285,14687,2,0,L|472:164,1,110
469,131,15187,1,0,0:0:0:0:
383,108,15520,6,0,P|366:60|373:-13,2,110
425,185,16520,1,0,0:0:0:0:
369,253,16854,6,0,L|250:245,1,110
220,224,17354,2,0,P|216:287|188:339,1,110
158,349,17854,1,0,0:0:0:0:
87,296,18187,6,0,P|88:205|97:164,1,110
80,144,18687,2,0,L|204:128,1,110
232,124,19187,1,0,0:0:0:0:
313,155,19520,6,0,L|422:199,2,110
232,124,20520,1,0,0:0:0:0:
148,153,20854,6,0,L|39:197,2,110
235,162,21854,1,0,0:0:0:0:
305,213,22187,6,0,B|344:264|344:264|355:315,1,110
266,298,22854,2,0,B|227:247|227:247|216:196,1,110
238,116,23520,2,0,P|305:93|380:146,1,165
399,181,24187,2,0,B|386:267|386:267|318:311,1,165
280,290,24854,6,0,B|274:225|306:162,1,110
378,149,25520,2,0,P|333:101|278:102,1,110
215,144,26187,2,0,L|185:318,1,165
144,317,26854,2,0,P|73:270|78:177,1,165
59,153,27520,6,0,L|169:162,1,110
219,236,28187,2,0,L|143:317,1,110
57,300,28854,6,0,P|20:219|32:187,2,110
143,317,29854,1,0,0:0:0:0:
214,266,30187,6,0,P|277:239|373:276,1,165
377,310,30854,2,0,L|422:168,1,110
414,117,31520,6,0,B|326:103|326:103|247:128,1,165
233,164,32187,2,0,P|259:239|318:259,1,110
369,245,32854,6,0,L|431:115,1,110
427,54,33520,2,0,L|277:60,1,110
244,106,34187,2,0,L|343:252,1,165
363,277,34854,2,0,P|361:324|283:363,1,110
227,367,35520,6,0,P|164:351|116:282,1,110
49,291,36187,2,0,P|96:242|151:237,1,110
212,277,36854,2,0,L|296:136,1,165
330,107,37520,2,0,B|392:116|392:116|449:153,1,110
475,224,38187,6,0,L|440:338,1,110
354,325,38854,2,0,L|386:219,1,110
424,140,39520,2,0,L|484:38,2,110
354,194,40520,1,0,0:0:0:0:
268,174,40854,6,0,P|225:139|208:87,2,110
354,194,41854,1,0,0:0:0:0:
399,269,42187,2,0,P|377:356|299:360,1,165
270,352,42854,2,0,B|217:323|280:277|212:225,1,110
151,236,43520,6,0,P|201:176|325:243,1,220
338,305,44354,2,0,L|334:375,2,55
341,260,44854,2,0,L|346:148,1,110
259,136,45520,2,0,L|251:27,1,110
165,48,46187,6,0,B|136:101|196:158|185:232,1,165
162,245,46854,2,0,B|225:266|225:266|280:256,1,110
298,226,47354,2,0,B|340:218|340:218|403:239,1,110
373,321,48020,1,0,0:0:0:0:
373,321,48187,2,0,L|260:311,1,110
191,260,48854,6,0,P|192:174|337:159,1,220
325,174,49687,2,0,L|321:252,2,55
336,131,50187,2,0,B|381:112|381:112|460:132,1,110
483,203,50854,2,0,B|476:251|476:251|420:309,1,110
348,312,51520,6,0,B|272:319|255:246|148:289,1,165
147,288,52187,2,0,P|151:202|178:165,1,110
197,157,52687,2,0,P|210:91|148:19,1,165
73,62,53520,6,0,L|64:5,2,55
64,149,54187,6,0,B|50:258|50:258|75:328|138:317,1,220
174,318,55020,2,0,L|243:313,2,55
135,339,55520,2,0,P|70:324|32:285,1,110
118,257,56187,2,0,P|163:208|216:194,1,110
208,283,56854,6,0,P|141:208|125:137,1,165
89,122,57520,2,0,L|204:109,1,110
238,127,58020,2,0,P|288:165|361:156,1,110
414,132,58687,1,0,0:0:0:0:
414,132,58854,2,0,P|411:219|383:253,1,110
362,258,59354,1,0,0:0:0:0:
319,247,59520,6,0,L|203:208,1,110
188,176,60020,2,0,P|122:161|53:183,1,110
33,242,60687,2,0,P|94:327|188:298,1,165
209,265,61520,2,0,B|251:225|251:225|308:203,1,110
384,229,62187,5,0,0:0:0:0:
384,229,62520,1,0,0:0:0:0:
415,311,62854,1,0,0:0:0:0:
415,311,63187,1,0,0:0:0:0:
329,292,63520,6,0,B|307:243|268:249|268:249|224:257|216:152,1,165
214,147,64187,2,0,P|245:70|283:65,1,110
306,71,64687,1,0,0:0:0:0:
345,90,64854,6,0,P|368:154|367:232,2,110
268,45,65854,1,0,0:0:0:0:
268,45,66020,6,0,P|162:47|122:66,1,110
123,73,66520,2,0,P|131:131|118:193,2,110
88,45,67354,6,0,P|12:66|-3:120,1,110
4,132,67854,2,0,P|27:204|27:249,1,110
10,324,68520,1,0,0:0:0:0:
10,324,68687,6,0,L|125:310,1,110
200,345,69354,2,0,L|205:230,1,110
207,191,69854,1,0,0:0:0:0:
229,105,70187,6,0,P|323:74|403:160,1,220
394,239,71187,1,0,0:0:0:0:
307,225,71520,6,0,L|167:197,1,110
156,194,72020,1,0,0:0:0:0:
112,185,72187,2,0,P|51:197|8:239,1,110
4,270,72687,6,0,B|22:314|22:314|97:352,1,110
121,344,73187,2,0,L|230:338,1,110
311,302,73854,1,0,0:0:0:0:
311,302,74020,2,0,L|339:193,1,110
349,152,74520,1,0,0:0:0:0:
360,109,74687,6,0,L|378:47,2,55
316,114,75187,1,0,0:0:0:0:
272,120,75354,6,0,B|229:108|229:108|189:138|131:139,1,110
118,155,75854,2,0,B|64:177|64:177|147:227|100:297,1,165
114,316,76520,1,0,0:0:0:0:
166,334,76687,2,0,B|214:302|214:302|249:329|304:337,1,110
315,329,77187,2,0,P|371:277|369:167,1,165
362,140,77854,1,0,0:0:0:0:
311,119,78020,2,0,B|275:100|230:148|156:91,1,110
148,104,78520,6,0,L|38:81,1,110
41,191,79187,1,0,0:0:0:0:
41,191,79354,2,0,B|44:234|10:266|27:311,3,110
122,346,80687,1,0,0:0:0:0:
122,346,80854,6,0,P|205:262|363:331,1,275
375,345,81854,2,0,P|424:282|427:222,1,110
397,148,82520,1,0,0:0:0:0:
298,99,82854,6,0,B|242:84|242:84|168:85,2,110
391,156,83854,5,0,0:0:0:0:
391,156,84020,1,0,0:0:0:0:
391,156,84187,2,0,L|390:278,2,110
324,67,85187,5,0,0:0:0:0:
324,67,85354,1,0,0:0:0:0:
324,67,85520,2,0,B|266:48|266:48|176:59,2,110
402,144,86520,6,0,P|415:185|415:229,2,55
300,187,87187,2,0,P|286:145|287:102,2,55
278,295,87854,6,0,P|153:323|132:312,1,110
133,296,88354,2,0,L|125:225,1,55
