osu file format v14

[General]
AudioFilename: audio.mp3
AudioLeadIn: 0
PreviewTime: 64014
Countdown: 0
SampleSet: Soft
StackLeniency: 0.7
Mode: 0
LetterboxInBreaks: 0
WidescreenStoryboard: 1

[Editor]
Bookmarks: 9514,16181,19348,22181,40514,43348,61848,62514,64848,75348,83514,88848,94181,115514,136348,147348,155514,159181,162181,167514,185181,194181,197181,206598,215514,220764
DistanceSpacing: 1.4
BeatDivisor: 4
GridSize: 32
TimelineZoom: 2.2

[Metadata]
Title:Dakara, Hitori ja nai
TitleUnicode:だから、ひとりじゃない
Artist:Little Glee Monster
ArtistUnicode:Little Glee Monster
Creator:waqlerg
Version:Hard
Source:僕のヒーローアカデミア 第2期
Tags:japanese, pop, rock
BeatmapID:1769612
BeatmapSetID:822490

[Difficulty]
HPDrainRate:5
CircleSize:4
OverallDifficulty:6
ApproachRate:8
SliderMultiplier:1.4
SliderTickRate:2

[Events]
//Background and Video events
0,0,"myheroacademia.jpg",0,0
//Break Periods
2,175514,183514
//Storyboard Layer 0 (Background)
//Storyboard Layer 1 (Fail)
//Storyboard Layer 2 (Pass)
//Storyboard Layer 3 (Foreground)
//Storyboard Sound Samples

[TimingPoints]
854.02851032523,333.333333333333,4,2,1,100,1,0
10187,-133.333333333333,4,2,1,75,0,0
10604,-133.333333333333,4,2,1,5,0,0
10687,-111.111111111111,4,2,1,75,0,0
11520,-100,4,2,1,100,0,0
19520,-133.333333333333,4,2,1,40,0,0
19854,-133.333333333333,4,2,1,50,0,0
20187,-133.333333333333,4,2,1,60,0,0
20520,-133.333333333333,4,2,1,70,0,0
20854,-100,4,2,1,50,0,0
21354,-100,4,2,1,55,0,0
21854,-100,4,2,1,60,0,0
22270,-100,4,2,1,55,0,0
26437,-100,4,2,1,5,0,0
26520,-100,4,2,1,55,0,0
30437,-100,4,2,1,5,0,0
30520,-100,4,2,1,55,0,0
31104,-100,4,2,1,5,0,0
31187,-100,4,2,1,55,0,0
34437,-100,4,2,1,5,0,0
34520,-100,4,2,1,55,0,0
37104,-100,4,2,1,5,0,0
37187,-100,4,2,1,55,0,0
43520,-153.846153846154,4,2,1,35,0,0
59520,-117.647058823529,4,2,1,50,0,0
62187,-105.263157894737,4,2,1,55,0,0
63520,-133.333333333333,4,2,1,70,0,0
64187,-333.333333333333,4,2,1,70,0,0
64354,-100,4,2,1,70,0,0
64854,-100,4,2,1,85,0,1
64937,-100,4,2,1,55,0,1
70104,-100,4,2,1,5,0,1
70187,-100,4,2,1,55,0,1
75770,-100,4,2,1,5,0,1
75854,-100,4,2,1,55,0,1
76937,-100,4,2,1,5,0,1
77020,-100,4,2,1,55,0,1
87770,-100,4,2,1,5,0,1
87854,-100,4,2,1,55,0,1
88104,-100,4,2,1,5,0,1
88187,-100,4,2,1,55,0,1
88770,-100,4,2,1,5,0,1
88854,-200,4,2,1,33,0,0
94104,-200,4,2,1,5,0,0
94187,-117.647058823529,4,2,1,45,0,0
95270,-117.647058823529,4,2,1,5,0,0
95354,-117.647058823529,4,2,1,45,0,0
102104,-117.647058823529,4,2,1,5,0,0
102187,-117.647058823529,4,2,1,45,0,0
110604,-117.647058823529,4,2,1,5,0,0
110687,-117.647058823529,4,2,1,45,0,0
114104,-117.647058823529,4,2,1,5,0,0
114187,-117.647058823529,4,2,1,45,0,0
115520,-100,4,2,1,50,0,0
118437,-100,4,2,1,5,0,0
118520,-100,4,2,1,50,0,0
123770,-100,4,2,1,5,0,0
123854,-100,4,2,1,50,0,0
131520,-105.263157894737,4,2,1,45,0,0
134187,-133.333333333333,4,2,1,35,0,0
134520,-153.846153846154,4,2,1,35,0,0
134854,-181.818181818182,4,2,1,35,0,0
135187,-200,4,2,1,35,0,0
135520,-200,4,2,1,35,0,0
136354,-200,4,2,1,70,0,0
136687,-100,4,2,1,85,0,1
136770,-100,4,2,1,60,0,1
138270,-100,4,2,1,5,0,1
138354,-100,4,2,1,60,0,1
139604,-100,4,2,1,5,0,1
139687,-100,4,2,1,60,0,1
142104,-100,4,2,1,5,0,1
142187,-100,4,2,1,60,0,1
143104,-100,4,2,1,5,0,1
143187,-100,4,2,1,60,0,1
151604,-100,4,2,1,5,0,1
151687,-100,4,2,1,60,0,1
153770,-100,4,2,1,5,0,1
153854,-100,4,2,1,60,0,1
154437,-100,4,2,1,5,0,1
154520,-100,4,2,1,60,0,1
159770,-100,4,2,1,5,0,1
159854,-100,4,2,1,60,0,1
160104,-100,4,2,1,5,0,1
160187,-100,4,2,1,60,0,1
160854,-200,4,2,1,35,0,0
161104,-200,4,2,1,5,0,0
161187,-166.666666666667,4,2,1,35,0,0
161437,-166.666666666667,4,2,1,5,0,0
161520,-142.857142857143,4,2,1,35,0,0
161770,-142.857142857143,4,2,1,5,0,0
161854,-125,4,2,1,35,0,0
162104,-125,4,2,1,5,0,0
162187,-133.333333333333,4,2,1,45,0,0
162437,-133.333333333333,4,2,1,5,0,0
162520,-133.333333333333,4,2,1,45,0,0
166104,-133.333333333333,4,2,1,5,0,0
166187,-133.333333333333,4,2,1,45,0,0
167520,-100,4,2,1,50,0,0
169104,-100,4,2,1,5,0,0
169187,-100,4,2,1,50,0,0
170187,-200,4,2,1,40,0,0
172104,-200,4,2,1,5,0,0
172187,-200,4,2,1,40,0,0
172770,-200,4,2,1,5,0,0
172854,-250,4,2,1,30,0,0
174187,-250,4,2,1,5,0,0
185354,-133.333333333333,4,2,2,45,0,0
192770,-133.333333333333,4,2,2,5,0,0
192854,-133.333333333333,4,2,2,45,0,0
194187,-100,4,2,1,40,0,0
194854,-100,4,2,1,45,0,0
196354,-200,4,2,1,20,0,0
196604,-200,4,2,1,5,0,0
196687,-250,4,2,1,50,0,0
197104,-250,4,2,1,5,0,0
197187,-100,4,2,1,85,0,1
197270,-100,4,2,1,65,0,1
198270,-100,4,2,1,5,0,1
198354,-100,4,2,1,65,0,1
199104,-100,4,2,1,5,0,1
199187,-100,4,2,1,65,0,1
202104,-100,4,2,1,5,0,1
202187,-100,4,2,1,65,0,1
202437,-100,4,2,1,5,0,1
202520,-100,4,2,1,65,0,1
204437,-100,4,2,1,5,0,1
204520,-100,4,2,1,65,0,1
207104,-100,4,2,1,5,0,1
207187,-100,4,2,1,65,0,1
211604,-100,4,2,1,5,0,1
211687,-100,4,2,1,65,0,1
213770,-100,4,2,1,5,0,1
213854,-100,4,2,1,65,0,1
219770,-100,4,2,1,5,0,1
219854,-100,4,2,1,65,0,1
220104,-100,4,2,1,5,0,1
220187,-100,4,2,1,65,0,1
220854,-100,4,2,1,50,0,0
223520,-100,4,2,1,55,0,0
223854,-100,4,2,1,60,0,0
224187,-100,4,2,1,65,0,0
224520,-100,4,2,1,70,0,0
225187,-133.333333333333,4,2,1,30,0,0

[Colours]
Combo1 : 255,185,151
Combo2 : 255,128,128
Combo3 : 0,0,255
Combo4 : 242,24,57

[HitObjects]
128,43,10187,6,0,P|104:50|81:68,2,52.5000020027161,8|8|0,0:3|0:3|0:0,0:0:0:0:
203,88,10687,2,0,L|217:159,1,62.9999980773926,8|0,0:3|0:0,0:0:0:0:
236,234,11020,1,8,0:0:0:0:
236,234,11104,1,8,0:0:0:0:
236,234,11187,1,8,0:0:0:0:
323,244,11354,1,8,0:0:0:0:
382,177,11520,6,0,L|361:91,1,70,6|0,0:1|0:0,0:0:0:0:
254,104,11854,1,8,0:0:0:0:
254,104,12020,2,0,P|267:178|290:231,1,105,2|0,0:0|0:0,0:0:0:0:
305,237,12354,2,0,L|330:316,1,70,2|8,0:0|0:0,0:0:0:0:
259,355,12687,1,2,0:0:0:0:
194,300,12854,6,0,L|170:206,1,70,0|2,0:0|0:0,0:0:0:0:
251,192,13187,1,8,0:0:0:0:
251,192,13354,2,0,P|269:149|272:82,1,105,0|0,0:0|0:0,0:0:0:0:
238,46,13687,2,0,L|326:31,1,70,2|8,0:0|0:0,0:0:0:0:
366,93,14020,1,2,0:0:0:0:
362,177,14187,6,0,P|347:232|324:269,1,70,0|2,0:0|0:0,0:0:0:0:
257,244,14520,1,8,0:0:0:0:
225,174,14687,2,0,L|254:92,1,70,2|0,0:0|0:0,0:0:0:0:
366,93,15020,1,2,0:0:0:0:
295,30,15187,2,0,B|263:19|263:19|219:24,1,70,8|0,0:0|0:0,0:0:0:0:
126,38,15520,6,0,P|112:81|113:106,1,70,0|2,0:0|0:0,0:0:0:0:
258,148,15854,2,0,P|264:103|258:78,1,70,8|2,0:0|0:0,0:0:0:0:
194,41,16187,2,0,P|159:33|125:38,1,70,0|2,0:0|0:0,0:0:0:0:
189,150,16520,2,0,P|223:155|257:148,1,70,8|0,0:0|0:0,0:0:0:0:
354,119,16854,5,2,0:0:0:0:
354,119,17020,1,0,0:0:0:0:
431,85,17187,2,0,L|500:56,2,70,8|2|0,0:0|0:0|0:0,0:0:0:0:
354,119,17687,2,0,P|296:154|279:178,1,70,2|8,0:0|0:0,0:0:0:0:
256,229,18020,1,0,0:0:0:0:
347,255,18187,6,0,P|317:295|275:310,1,70,2|2,0:0|0:0,0:0:0:0:
211,304,18520,2,0,P|183:284|165:255,2,70,8|2|0,0:0|0:0|0:0,0:0:0:0:
288,305,19020,1,2,0:0:0:0:
343,251,19187,2,0,L|374:172,1,70,8|8,0:0|0:0,0:0:0:0:
343,55,19520,6,0,L|319:109,1,52.5000020027161,10|2,0:0|0:0,0:0:0:0:
429,166,19854,2,0,L|455:106,1,52.5000020027161,8|2,0:0|0:0,0:0:0:0:
325,162,20187,2,0,L|301:216,1,52.5000020027161,8|2,0:0|0:0,0:0:0:0:
411,273,20520,2,0,L|437:213,1,52.5000020027161,8|2,0:0|0:0,0:0:0:0:
458,145,20854,6,0,P|464:98|461:66,1,70,10|10,0:0|0:0,0:0:0:0:
387,22,21187,2,0,P|324:15|303:17,1,70,10|10,0:0|0:0,0:0:0:0:
235,39,21520,1,10,0:0:0:0:
185,128,21687,1,10,0:0:0:0:
134,39,21854,2,0,L|84:42,3,35,8|8|8|8,0:0|0:0|0:0|0:0,0:0:0:0:
62,55,22187,6,0,P|17:101|34:183,1,140,6|8,0:1|0:0,0:0:0:0:
100,186,22687,2,0,P|168:149|249:159,1,140,2|2,0:0|0:0,0:0:0:0:
232,228,23187,1,8,0:0:0:0:
299,190,23354,1,0,0:0:0:0:
321,263,23520,6,0,L|338:340,1,70,2|0,0:0|0:0,0:0:0:0:
391,226,23854,1,8,0:0:0:0:
431,289,24020,2,0,P|392:332|297:333,1,140,0|2,0:0|0:0,0:0:0:0:
250,295,24520,1,8,0:0:0:0:
166,181,24687,1,0,0:0:0:0:
115,239,24854,6,0,P|161:256|247:211,1,140,2|8,0:0|0:0,0:0:0:0:
279,287,25354,2,0,P|316:211|299:159,1,140,2|0,0:0|0:0,0:0:0:0:
234,122,25854,1,8,0:0:0:0:
168,182,26020,1,0,0:0:0:0:
116,113,26187,6,0,B|141:78|141:78|231:39,1,140,2|8,0:0|0:0,0:0:0:0:
305,56,26687,1,2,0:0:0:0:
334,127,26854,2,0,B|336:177|336:177|295:268,1,140,0|8,0:0|0:0,0:0:0:0:
222,252,27354,1,2,0:0:0:0:
166,198,27520,6,0,P|159:135|184:58,1,140,2|8,0:0|0:0,0:0:0:0:
243,108,28020,2,0,P|197:170|112:177,1,140,2|2,0:0|0:0,0:0:0:0:
74,100,28520,2,0,L|46:197,1,70,8|0,0:0|0:0,0:0:0:0:
61,261,28854,6,0,L|126:308,1,70,2|0,0:0|0:0,0:0:0:0:
189,215,29187,2,0,L|254:262,1,70,8|2,0:0|0:0,0:0:0:0:
188,296,29520,2,0,L|266:243,1,70,0|2,0:0|0:0,0:0:0:0:
364,275,29854,2,0,L|287:330,1,70,8|2,0:0|0:0,0:0:0:0:
232,345,30187,6,0,P|165:327|137:253,1,140,2|8,0:0|0:0,0:0:0:0:
125,185,30687,2,0,P|192:203|220:277,1,140,10|2,0:0|0:0,0:0:0:0:
175,325,31187,1,8,0:0:0:0:
100,343,31354,1,0,0:0:0:0:
43,290,31520,6,0,P|21:203|37:156,1,140,2|8,0:0|0:0,0:0:0:0:
105,123,32020,1,10,0:0:0:0:
96,199,32187,2,0,P|100:241|128:273,1,70,0|2,0:0|0:0,0:0:0:0:
185,297,32520,1,8,0:0:0:0:
260,280,32687,1,2,0:0:0:0:
313,224,32854,6,0,P|324:155|297:69,1,140,2|8,0:0|0:0,0:0:0:0:
234,147,33354,2,0,B|292:186|338:128|391:166,1,140,2|0,0:0|0:0,0:0:0:0:
408,222,33854,1,8,0:0:0:0:
373,290,34020,1,0,0:0:0:0:
295,279,34187,6,0,B|254:275|231:255|231:255|205:275|163:279,1,140,2|8,0:0|0:0,0:0:0:0:
88,270,34687,1,2,0:0:0:0:
80,193,34854,2,0,L|85:121,1,70,0|2,0:0|0:0,0:0:0:0:
172,59,35187,2,0,L|169:136,1,70,8|2,0:0|0:0,0:0:0:0:
198,223,35520,6,0,P|247:248|328:237,1,140,2|8,0:0|0:0,0:0:0:0:
276,160,36020,2,0,P|266:210|294:313,1,140,2|2,0:0|0:0,0:0:0:0:
369,313,36520,1,8,0:0:0:0:
407,255,36687,1,0,0:0:0:0:
368,118,36854,6,0,P|354:173|350:212,1,70,2|0,0:0|0:0,0:0:0:0:
407,255,37187,2,0,P|385:295|350:332,1,70,8|2,0:0|0:0,0:0:0:0:
428,180,37520,2,0,P|442:125|446:86,1,70,0|0,0:0|0:0,0:0:0:0:
393,52,37854,1,8,0:0:0:0:
309,112,38020,1,0,0:0:0:0:
243,46,38187,6,0,L|214:207,1,140,2|8,0:0|0:0,0:0:0:0:
156,75,38687,1,2,0:0:0:0:
156,75,38854,2,0,L|127:236,1,140,0|8,0:0|0:0,0:0:0:0:
64,102,39354,1,0,0:0:0:0:
64,102,39520,6,0,P|72:144|106:178,1,70,2|0,0:0|0:0,0:0:0:0:
236,105,39854,2,0,P|228:63|194:29,1,70,8|2,0:0|0:0,0:0:0:0:
142,104,40187,2,0,L|139:174,1,70,0|2,0:0|0:0,0:0:0:0:
41,22,40520,2,0,L|33:95,1,70,8|0,0:0|0:0,0:0:0:0:
27,188,40854,5,2,0:0:0:0:
100,239,41020,1,2,0:0:0:0:
18,278,41187,2,0,L|91:331,1,70,8|10,0:0|0:0,0:0:0:0:
178,294,41520,2,0,L|190:207,1,70,0|2,0:0|0:0,0:0:0:0:
333,182,41854,2,0,L|323:251,1,70,8|0,0:0|0:0,0:0:0:0:
254,300,42187,5,2,0:0:0:0:
169,294,42354,1,2,0:0:0:0:
123,223,42520,2,0,P|123:157|130:142,1,70,8|10,0:0|0:0,0:0:0:0:
227,109,42854,2,0,P|224:163|191:269,1,140,0|8,0:0|0:0,0:0:0:0:
263,337,43520,6,0,P|302:328|346:304,1,90.9999958343508,6|0,0:1|0:0,0:0:0:0:
398,250,44020,1,2,0:0:0:0:
417,180,44187,1,8,0:0:0:0:
407,105,44354,2,0,L|398:52,2,45.4999979171754,0|0|2,0:0|0:0|0:0,0:0:0:0:
331,70,44854,6,0,L|339:118,1,45.4999979171754,0|2,0:0|0:0,0:0:0:0:
258,62,45187,2,0,L|266:110,1,45.4999979171754,0|2,0:0|0:0,0:0:0:0:
185,54,45520,2,0,L|193:102,1,45.4999979171754,8|0,0:0|0:0,0:0:0:0:
112,46,45854,2,0,L|115:70,3,22.7499989585877,8|8|8|8,0:0|0:0|0:0|0:0,0:0:0:0:
123,106,46187,6,0,P|128:143|133:257,1,136.499993751526,2|2,0:0|0:0,0:0:0:0:
75,294,46854,2,0,P|123:318|174:309,1,90.9999958343508,8|0,0:0|0:0,0:0:0:0:
215,253,47354,2,0,L|276:269,1,45.4999979171754,2|0,0:0|0:0,0:0:0:0:
266,341,47687,2,0,L|326:324,1,45.4999979171754,2|0,0:0|0:0,0:0:0:0:
340,257,48020,1,2,0:0:0:0:
360,165,48187,2,0,P|363:142|361:101,1,45.4999979171754,8|0,0:0|0:0,0:0:0:0:
250,112,48520,2,0,P|247:134|246:157,1,45.4999979171754,0|8,0:0|0:0,0:0:0:0:
363,85,48854,6,0,B|306:66|284:19|226:37,1,136.499993751526,2|2,0:0|0:0,0:0:0:0:
159,50,49520,1,8,0:0:0:0:
78,67,49687,2,0,L|23:83,2,45.4999979171754,0|0|2,0:0|0:0|0:0,0:0:0:0:
138,26,50187,6,0,P|164:32|196:36,1,45.4999979171754,0|2,0:0|0:0,0:0:0:0:
199,102,50520,2,0,P|221:97|247:93,1,45.4999979171754,0|2,0:0|0:0,0:0:0:0:
314,79,50854,2,0,L|325:30,1,45.4999979171754,8|0,0:0|0:0,0:0:0:0:
395,64,51187,2,0,L|388:104,3,22.7499989585877,0|0|8|8,0:0|0:0|0:0|0:0,0:0:0:0:
382,124,51520,6,0,L|358:230,1,90.9999958343508,2|0,0:0|0:0,0:0:0:0:
312,272,52020,1,2,0:0:0:0:
254,219,52187,2,0,P|229:198|202:188,1,45.4999979171754,8|0,0:0|0:0,0:0:0:0:
140,203,52520,1,0,0:0:0:0:
140,203,52687,2,0,L|150:93,1,90.9999958343508,2|0,0:0|0:0,0:0:0:0:
70,89,53187,2,0,L|62:169,1,68.2499968757631,2|0,0:0|0:0,0:0:0:0:
59,196,53520,6,0,L|54:238,3,22.7499989585877,10|8|8|8,0:0|0:0|0:0|0:0,0:0:0:0:
54,257,53854,2,0,P|60:286|84:306,1,45.4999979171754,10|10,0:0|0:0,0:0:0:0:
127,361,54187,6,0,P|156:301|145:262,1,90.9999958343508,6|0,0:1|0:0,0:0:0:0:
126,207,54687,1,2,0:0:0:0:
203,211,54854,1,8,0:0:0:0:
238,279,55020,2,0,L|248:328,2,45.4999979171754,0|0|2,0:0|0:0|0:0,0:0:0:0:
274,210,55520,6,0,L|288:145,1,45.4999979171754,0|2,2:0|2:0,0:0:0:0:
362,49,55854,2,0,L|344:111,1,45.4999979171754,0|2,0:0|0:0,0:0:0:0:
365,209,56187,2,0,L|347:147,1,45.4999979171754,8|0,0:0|0:0,0:0:0:0:
268,49,56520,2,0,L|286:111,1,45.4999979171754,0|0,0:0|0:0,0:0:0:0:
293,202,56854,6,0,P|289:232|232:282,1,90.9999958343508,2|0,0:0|0:0,0:0:0:0:
178,281,57354,1,2,0:0:0:0:
114,237,57520,2,0,L|106:183,1,45.4999979171754,8|0,0:0|0:0,0:0:0:0:
149,126,57854,1,0,0:0:0:0:
215,168,58020,2,0,P|224:141|221:103,1,45.4999979171754,2|0,0:0|0:0,0:0:0:0:
301,36,58354,2,0,P|292:63|295:101,1,45.4999979171754,2|0,0:0|0:0,0:0:0:0:
326,148,58687,1,2,0:0:0:0:
341,226,58854,2,0,B|341:258|341:258|332:286,1,45.4999979171754,8|0,0:0|0:0,0:0:0:0:
228,261,59187,5,8,0:0:0:0:
228,261,59270,1,8,0:0:0:0:
228,261,59354,1,8,0:0:0:0:
207,179,59520,6,0,L|196:101,1,59.5000011348725,2|0,0:0|0:0,0:0:0:0:
278,43,59854,1,8,0:0:0:0:
278,43,60020,2,0,L|286:101,1,59.5000011348725,2|0,0:0|0:0,0:0:0:0:
276,190,60354,2,0,P|249:214|206:220,1,59.5000011348725,2|8,0:0|0:0,0:0:0:0:
188,136,60687,6,0,P|143:179|136:242,1,119.000002269745,2|2,0:0|0:0,0:0:0:0:
196,297,61187,2,0,L|271:303,1,59.5000011348725,8|0,0:0|0:0,0:0:0:0:
391,256,61520,2,0,P|399:213|396:177,1,59.5000011348725,2|2,0:0|0:0,0:0:0:0:
268,131,61854,2,0,P|260:174|263:210,1,59.5000011348725,8|0,0:0|0:0,0:0:0:0:
297,303,62187,6,0,L|324:370,1,66.4999982242585,10|0,0:0|0:0,0:0:0:0:
187,262,62520,2,0,L|118:301,1,66.4999982242585,10|0,0:0|0:0,0:0:0:0:
287,122,62854,2,0,L|273:187,1,66.4999982242585,10|0,0:0|0:0,0:0:0:0:
365,49,63187,2,0,L|430:81,1,66.4999982242585,10|0,0:0|0:0,0:0:0:0:
457,196,63520,5,8,0:3:0:0:
457,196,63687,2,0,L|448:287,1,78.7500030040742,8|0,0:3|0:0,0:0:0:0:
435,315,64020,2,0,P|398:323|362:323,1,52.5000020027161,8|0,0:3|0:0,0:0:0:0:
311,283,64354,2,0,L|318:238,2,35,8|8|8,0:3|0:3|0:3,0:0:0:0:
230,357,64687,1,8,0:3:0:0:
235,234,64854,6,0,L|241:134,1,70,6|0,0:1|0:0,0:0:0:0:
243,82,65187,1,8,0:0:0:0:
160,97,65354,1,2,0:0:0:0:
160,97,65520,2,0,P|114:145|110:163,2,70,0|0|8,0:0|0:0|0:0,0:0:0:0:
242,78,66020,6,0,B|292:62|342:112|406:97,1,140,2|2,0:0|0:0,0:0:0:0:
454,60,66520,1,8,0:0:0:0:
459,144,66687,2,0,P|460:160|459:220,2,70,2|0|2,0:0|0:0|0:0,0:0:0:0:
388,97,67187,1,8,0:0:0:0:
306,116,67354,6,0,P|259:166|262:238,1,140,2|2,0:0|0:0,0:0:0:0:
337,200,67854,2,0,P|352:246|346:297,2,70,8|0|0,0:0|0:0|0:0,0:0:0:0:
249,165,68354,2,0,P|280:149|303:124,1,70,2|8,0:0|0:0,0:0:0:0:
161,138,68687,6,0,P|108:176|98:195,1,70,2|0,0:0|0:0,0:0:0:0:
156,235,69020,2,0,P|145:299|151:319,1,70,2|8,0:0|0:0,0:0:0:0:
224,314,69354,2,0,P|270:330|321:322,2,70,2|0|2,0:0|0:0|0:0,0:0:0:0:
152,216,69854,2,0,P|151:165|161:103,1,105,8|0,0:0|0:0,0:0:0:0:
180,69,70187,6,0,P|238:35|316:45,1,140,2|8,0:0|0:0,0:0:0:0:
398,115,70687,2,0,L|407:203,1,70,2|0,0:0|0:0,0:0:0:0:
329,142,71020,1,2,0:0:0:0:
329,142,71187,2,0,L|238:150,1,70,8|0,0:0|0:0,0:0:0:0:
283,65,71520,6,0,P|218:56|132:68,1,140,2|8,0:0|0:0,0:0:0:0:
124,142,72020,1,2,0:0:0:0:
124,142,72187,2,0,L|122:258,1,105,0|0,0:0|0:0,0:0:0:0:
131,287,72520,1,8,0:0:0:0:
200,334,72687,6,0,P|243:335|300:319,1,70,0|2,0:0|0:0,0:0:0:0:
241,251,73020,1,2,0:0:0:0:
321,277,73187,2,0,L|390:271,1,70,8|8,0:0|0:0,0:0:0:0:
457,219,73520,2,0,L|506:157,2,70,2|2|8,0:0|0:0|0:0,0:0:0:0:
401,289,74020,6,0,P|390:352|394:375,1,70,2|0,0:0|0:0,0:0:0:0:
482,337,74354,1,2,0:0:0:0:
482,337,74520,2,0,L|492:249,1,70,8|8,0:0|0:0,0:0:0:0:
443,141,74854,1,2,0:0:0:0:
398,239,75020,1,0,0:0:0:0:
505,219,75187,1,8,0:0:0:0:
443,141,75354,6,0,P|382:112|290:164,1,175,6|0,0:1|0:0,0:0:0:0:
279,198,75854,2,0,L|259:287,1,70,8|2,0:0|0:0,0:0:0:0:
180,323,76187,1,0,0:0:0:0:
97,340,76354,2,0,L|24:355,1,70,2|8,0:0|0:0,0:0:0:0:
180,323,76687,6,0,L|218:149,1,175,2|0,0:0|0:0,0:0:0:0:
214,109,77187,2,0,P|169:71|130:61,1,70,8|2,0:0|0:0,0:0:0:0:
89,114,77520,2,0,L|48:184,2,70,0|2|8,0:0|0:0|0:0,0:0:0:0:
70,31,78020,6,0,P|152:54|176:128,1,140,2|2,0:0|0:0,0:0:0:0:
142,175,78520,2,0,P|145:242|157:274,1,70,8|0,0:0|0:0,0:0:0:0:
226,217,78854,2,0,P|257:276|281:300,1,70,2|2,0:0|0:0,0:0:0:0:
328,231,79187,5,8,0:0:0:0:
387,290,79354,2,0,P|391:328|379:365,1,70,2|0,0:0|0:0,0:0:0:0:
434,235,79687,2,0,P|430:197|442:160,1,70,2|8,0:0|0:0,0:0:0:0:
473,324,80020,2,0,P|436:332|379:333,1,70,2|0,0:0|0:0,0:0:0:0:
364,245,80354,2,0,P|398:237|433:234,1,70,2|8,0:0|0:0,0:0:0:0:
499,286,80687,1,2,0:0:0:0:
497,204,80854,6,0,B|509:146|465:107|501:49,1,140,2|8,0:0|0:0,0:0:0:0:
417,23,81354,2,0,L|339:33,1,70,0|0,0:0|0:0,0:0:0:0:
269,62,81687,1,2,0:0:0:0:
187,82,81854,2,0,P|227:137|270:145,1,105,8|0,0:0|0:0,0:0:0:0:
305,146,82187,6,0,P|366:169|392:213,1,105,2|0,0:0|0:0,0:0:0:0:
393,245,82520,1,8,0:0:0:0:
350,325,82687,1,2,0:0:0:0:
292,253,82854,2,0,L|274:167,1,70,0|2,0:0|0:0,0:0:0:0:
370,132,83187,2,0,L|390:209,1,70,8|0,0:0|0:0,0:0:0:0:
281,292,83520,6,0,L|209:316,1,70,2|2,0:0|0:0,0:0:0:0:
369,268,83854,1,8,0:0:0:0:
369,268,84020,1,10,0:0:0:0:
395,185,84187,6,0,L|467:161,1,70,0|2,0:0|0:0,0:0:0:0:
307,209,84520,1,8,0:0:0:0:
307,209,84687,1,0,0:0:0:0:
204,238,84854,6,0,P|174:271|158:319,1,70,2|2,0:0|0:0,0:0:0:0:
234,339,85187,1,8,0:0:0:0:
290,274,85354,1,10,0:0:0:0:
366,237,85520,6,0,P|410:218|444:215,1,70,0|2,0:0|0:0,0:0:0:0:
448,298,85854,1,8,0:0:0:0:
374,337,86020,1,0,0:0:0:0:
275,304,86187,6,0,P|249:249|246:222,1,70,2|2,0:0|0:0,0:0:0:0:
360,159,86520,2,0,P|386:214|389:241,1,70,8|10,0:0|0:0,0:0:0:0:
292,120,86854,2,0,P|242:105|206:109,1,70,0|2,0:0|0:0,0:0:0:0:
153,210,87187,2,0,P|203:225|239:221,1,70,8|0,0:0|0:0,0:0:0:0:
272,171,87520,6,0,P|257:228|272:301,1,105,2|0,0:0|0:0,0:0:0:0:
238,309,87854,2,0,L|343:288,1,105,8|0,0:0|0:0,0:0:0:0:
379,273,88187,2,0,P|411:235|418:214,1,70,0|2,0:0|0:0,0:0:0:0:
413,132,88520,2,0,B|396:57|396:57|351:47,1,105,8|0,0:0|0:0,0:0:0:0:
319,55,88854,6,0,P|272:77|296:199,1,192.5,0|0,0:0|0:0,0:0:0:0:
332,209,89854,2,0,L|380:192,1,35,0|0,0:0|0:0,0:0:0:0:
325,130,90187,2,0,P|267:115|204:89,1,122.5,0|0,0:0|0:0,0:0:0:0:
164,77,90854,2,0,P|126:90|93:173,1,122.5,0|0,0:0|0:0,0:0:0:0:
93,209,91520,6,0,L|95:254,1,35,0|0,0:0|0:0,0:0:0:0:
209,287,91854,2,0,L|207:252,1,35,0|0,0:0|0:0,0:0:0:0:
172,154,92187,2,0,L|174:199,1,35,0|0,0:0|0:0,0:0:0:0:
288,232,92520,2,0,L|286:197,1,35,0|0,0:0|0:0,0:0:0:0:
238,89,92854,2,0,B|250:148|250:148|313:101|338:181|401:121|401:121|429:158,1,262.5,0|0,0:0|0:0,0:0:0:0:
431,200,94187,6,0,P|427:245|419:285,1,59.5000011348725,6|0,0:1|0:0,0:0:0:0:
361,351,94520,2,0,P|349:289|350:276,1,59.5000011348725,0|2,0:0|0:0,0:0:0:0:
353,219,94854,1,8,0:0:0:0:
353,219,95020,2,0,L|364:143,1,59.5000011348725,0|0,0:0|0:0,0:0:0:0:
405,95,95354,1,2,0:0:0:0:
327,94,95520,6,0,P|296:103|257:133,1,59.5000011348725,0|2,0:0|0:0,0:0:0:0:
233,220,95854,2,0,P|261:212|287:197,1,59.5000011348725,0|2,0:0|0:0,0:0:0:0:
331,133,96187,1,8,0:0:0:0:
349,57,96354,2,0,L|357:-5,2,59.5000011348725,0|0|2,0:0|0:0|0:0,0:0:0:0:
313,187,97020,5,0,0:0:0:0:
256,240,97187,1,0,0:0:0:0:
238,165,97354,1,2,0:0:0:0:
313,187,97520,2,0,P|331:207|341:247,1,59.5000011348725,8|0,0:0|0:0,0:0:0:0:
256,240,97854,2,0,P|236:258|196:268,1,59.5000011348725,0|2,0:0|0:0,0:0:0:0:
238,165,98187,6,0,P|220:145|210:105,1,59.5000011348725,0|2,0:0|0:0,0:0:0:0:
258,15,98520,2,0,P|277:37|285:65,1,59.5000011348725,0|2,0:0|0:0,0:0:0:0:
265,141,98854,1,8,0:0:0:0:
192,114,99020,1,0,0:0:0:0:
250,63,99187,2,0,L|309:65,1,59.5000011348725,0|0,0:0|0:0,0:0:0:0:
384,84,99520,5,2,0:0:0:0:
384,84,99687,2,0,P|401:114|409:153,1,59.5000011348725,0|0,0:0|0:0,0:0:0:0:
336,262,100020,1,2,0:0:0:0:
336,262,100187,2,0,P|344:233|359:208,1,59.5000011348725,8|0,0:0|0:0,0:0:0:0:
432,181,100520,1,0,0:0:0:0:
482,239,100687,1,2,0:0:0:0:
482,239,100854,6,0,B|485:283|485:283|440:311|424:350,1,119.000002269745,0|0,0:0|0:0,0:0:0:0:
356,353,101354,1,2,0:0:0:0:
287,318,101520,2,0,L|231:281,2,59.5000011348725,8|0|0,0:0|0:0|0:0,0:0:0:0:
392,155,102354,6,0,P|423:164|462:192,2,59.5000011348725,0|0|2,0:0|0:0|0:0,0:0:0:0:
314,157,102854,2,0,B|258:170|236:123|180:158,1,119.000002269745,8|0,0:0|0:0,0:0:0:0:
134,194,103354,1,2,0:0:0:0:
105,265,103520,2,0,P|106:317|111:332,1,59.5000011348725,0|2,0:0|0:0,0:0:0:0:
134,194,103854,2,0,P|144:158|143:122,1,59.5000011348725,0|2,0:0|0:0,0:0:0:0:
102,71,104187,1,8,0:0:0:0:
102,71,104354,1,0,0:0:0:0:
175,46,104520,1,8,0:0:0:0:
175,46,104687,1,0,0:0:0:0:
171,123,104854,5,6,0:1:0:0:
157,199,105020,2,0,P|149:228|131:269,1,59.5000011348725
92,318,105354,1,2,0:0:0:0:
164,343,105520,2,0,P|215:342|297:301,1,119.000002269745,8|0,0:0|0:0,0:0:0:0:
320,252,106020,1,2,0:0:0:0:
339,176,106187,6,0,P|344:141|335:91,1,59.5000011348725,0|2,0:0|0:0,0:0:0:0:
265,126,106520,2,0,P|254:92|225:50,1,59.5000011348725,0|2,0:0|0:0,0:0:0:0:
108,36,106854,2,0,P|118:69|147:111,1,59.5000011348725,8|0,0:0|0:0,0:0:0:0:
172,155,107187,2,0,P|183:179|193:226,1,59.5000011348725,0|0,0:0|0:0,0:0:0:0:
131,263,107520,2,0,L|191:253,1,59.5000011348725,2|0,0:0|0:0,0:0:0:0:
287,206,107854,5,0,0:0:0:0:
339,149,108020,1,2,0:0:0:0:
262,138,108187,2,0,P|226:163|210:194,1,59.5000011348725,8|0,0:0|0:0,0:0:0:0:
224,252,108520,1,0,0:0:0:0:
294,283,108687,1,2,0:0:0:0:
287,206,108854,6,0,P|268:183|242:168,1,59.5000011348725,0|2,0:0|0:0,0:0:0:0:
125,144,109187,2,0,P|143:166|169:181,1,59.5000011348725,0|2,0:0|0:0,0:0:0:0:
236,94,109520,2,0,P|213:112|198:138,1,59.5000011348725,8|0,0:0|0:0,0:0:0:0:
174,256,109854,2,0,P|196:237|211:211,1,59.5000011348725,8|8,0:0|0:0,0:0:0:0:
125,144,110187,5,2,0:0:0:0:
125,144,110354,2,0,P|76:163|55:195,1,89.2500017023087,0|0,0:0|0:0,0:0:0:0:
52,236,110687,1,2,0:0:0:0:
89,304,110854,2,0,P|149:318|190:299,1,89.2500017023087,8|0,0:0|0:0,0:0:0:0:
203,267,111187,2,0,P|236:258|276:267,1,59.5000011348725,0|2,0:0|0:0,0:0:0:0:
353,327,111520,6,0,L|387:261,1,59.5000011348725,0|2,0:0|0:0,0:0:0:0:
326,224,111854,2,0,L|360:158,2,59.5000011348725,0|2|8,0:0|0:0|0:0,0:0:0:0:
291,293,112354,2,0,L|263:345,2,59.5000011348725,0|0|0,0:0|0:0|0:0,0:0:0:0:
246,229,112854,6,0,L|310:108,1,119.000002269745,2|0,0:0|0:0,0:0:0:0:
373,94,113354,1,2,0:0:0:0:
308,52,113520,2,0,P|253:41|209:54,1,89.2500017023087,8|0,0:0|0:0,0:0:0:0:
188,70,113854,2,0,L|150:134,1,59.5000011348725,0|0,0:0|0:0,0:0:0:0:
80,120,114187,5,2,0:0:0:0:
120,185,114354,1,0,0:0:0:0:
197,185,114520,1,0,0:0:0:0:
243,122,114687,2,0,P|265:112|360:141,1,119.000002269745,2|8,0:0|0:0,0:0:0:0:
406,233,115187,2,8,L|410:279,2,29.7500005674362
307,246,115520,6,0,L|355:109,1,140,6|8,0:1|0:0,0:0:0:0:
295,43,116020,2,0,P|340:21|388:33,1,70,2|0,0:0|0:0,0:0:0:0:
445,53,116354,2,0,P|478:99|481:139,2,70,2|8|2,0:0|0:0|0:0,0:0:0:0:
362,91,116854,6,0,L|333:174,1,70,0|2,0:0|0:0,0:0:0:0:
377,239,117187,2,0,L|443:262,1,70,8|0,0:0|0:0,0:0:0:0:
316,169,117520,2,0,L|339:102,1,70,2|2,0:0|0:0,0:0:0:0:
408,44,117854,2,0,L|474:67,1,70,8|0,0:0|0:0,0:0:0:0:
491,157,118187,6,0,P|495:225|486:268,1,105,2|0,0:0|0:0,0:0:0:0:
472,304,118520,1,8,0:0:0:0:
387,339,118687,2,0,P|340:345|298:334,2,70,0|2|2,0:0|0:0|0:0,0:0:0:0:
472,304,119187,1,8,0:0:0:0:
459,213,119354,6,0,P|437:168|344:150,1,140,2|2,0:0|0:0,0:0:0:0:
297,215,119854,1,8,0:0:0:0:
297,215,120020,1,0,0:0:0:0:
249,136,120187,2,0,L|237:48,1,70,2|2,0:0|0:0,0:0:0:0:
342,34,120520,2,0,L|351:103,1,70,8|8,0:0|0:0,0:0:0:0:
350,195,120854,6,0,P|322:263|269:304,1,140,2|8,0:0|0:0,0:0:0:0:
179,309,121354,2,0,L|93:304,1,70,2|0,0:0|0:0,0:0:0:0:
57,229,121687,2,0,L|50:154,2,70,2|8|2,0:0|0:0|0:0,0:0:0:0:
86,315,122187,6,0,P|109:329|175:326,1,70,0|2,0:0|0:0,0:0:0:0:
213,247,122520,2,0,P|190:233|127:230,1,70,8|2,0:0|0:0,0:0:0:0:
201,362,122854,2,0,P|212:324|241:278,1,70,0|2,0:0|0:0,0:0:0:0:
307,190,123187,2,0,P|297:223|281:254,1,70,8|2,0:0|0:0,0:0:0:0:
183,254,123520,6,0,L|63:210,1,105,2|0,0:0|0:0,0:0:0:0:
51,180,123854,2,0,P|71:143|139:122,1,105,8|0,0:0|0:0,0:0:0:0:
164,152,124187,2,0,L|176:57,1,70,2|2,0:0|0:0,0:0:0:0:
272,104,124520,1,8,0:0:0:0:
272,104,124687,2,0,L|263:206,1,70,2|0,0:0|0:0,0:0:0:0:
197,236,125020,1,2,0:0:0:0:
283,265,125187,2,0,P|331:240|351:210,1,70,8|0,0:0|0:0,0:0:0:0:
427,128,125520,6,0,L|424:162,3,35,8|8|8|8,0:0|0:0|0:0|0:0,0:0:0:0:
418,208,125854,2,0,P|406:263|393:288,1,70,8|8,0:0|0:0,0:0:0:0:
291,320,126187,6,0,L|203:336,1,70,2|0,0:0|0:0,0:0:0:0:
223,261,126520,2,0,L|135:277,1,70,10|0,0:0|0:0,0:0:0:0:
91,354,126854,2,0,L|79:261,1,70,2|0,0:0|0:0,0:0:0:0:
12,309,127187,2,0,L|0:216,1,70,10|0,0:0|0:0,0:0:0:0:
23,143,127520,6,0,P|69:117|103:111,1,70,2|0,0:0|0:0,0:0:0:0:
213,150,127854,2,0,P|179:169|134:179,1,70,10|0,0:0|0:0,0:0:0:0:
258,86,128187,1,2,0:0:0:0:
344,39,128354,1,2,0:0:0:0:
344,136,128520,2,0,P|338:168|308:219,1,70,10|2,0:0|0:0,0:0:0:0:
241,259,128854,6,0,L|168:267,1,70,2|0,0:0|0:0,0:0:0:0:
87,215,129187,2,0,P|97:173|125:130,1,70,10|0,0:0|0:0,0:0:0:0:
205,123,129520,2,0,L|183:205,1,70,2|0,0:0|0:0,0:0:0:0:
153,283,129854,1,10,0:0:0:0:
240,238,130020,2,0,P|293:225|380:257,1,140,0|0,0:0|0:0,0:0:0:0:
399,330,130520,1,10,0:0:0:0:
469,261,130687,1,0,0:0:0:0:
441,166,130854,6,0,L|349:158,1,70,10|10,0:0|0:0,0:0:0:0:
273,158,131187,1,10,0:0:0:0:
273,158,131354,1,2,0:0:0:0:
209,224,131520,6,0,L|195:315,1,66.4999982242585,8|2,0:0|0:0,0:0:0:0:
126,229,131854,1,8,0:0:0:0:
52,173,132020,2,0,P|102:159|141:160,1,66.4999982242585,2|8,0:0|0:0,0:0:0:0:
248,165,132354,2,0,P|198:179|159:178,1,66.4999982242585,2|8,0:0|0:0,0:0:0:0:
101,136,132687,6,0,P|104:78|190:71,1,132.999996448517,2|2,0:0|0:0,0:0:0:0:
205,142,133187,2,0,L|199:238,1,66.4999982242585,8|2,0:0|0:0,0:0:0:0:
341,152,133520,2,0,L|285:115,1,66.4999982242585,8|2,0:0|0:0,0:0:0:0:
266,274,133854,2,0,L|325:244,1,66.4999982242585,8|2,0:0|0:0,0:0:0:0:
412,147,134187,6,0,L|467:135,1,52.5000020027161,2|0,0:0|0:0,0:0:0:0:
441,215,134520,2,0,L|491:205,1,45.4999979171754,2|0,0:0|0:0,0:0:0:0:
512,277,134854,2,0,L|474:284,1,38.5000011749268,2|0,0:0|0:0,0:0:0:0:
500,353,135187,2,0,L|464:359,1,35,2|0,0:0|0:0,0:0:0:0:
388,359,135520,6,0,P|328:346|301:273,1,140,0|0,0:0|0:3,0:0:0:0:
312,197,136354,5,8,0:3:0:0:
314,164,136520,5,8,0:3:0:0:
305,132,136687,6,0,P|277:102|161:163,1,175,6|0,0:0|0:0,0:0:0:0:
170,188,137187,2,0,L|262:219,1,70,8|0,0:0|0:0,0:0:0:0:
133,253,137520,2,0,P|110:234|97:178,1,70,2|2,0:0|0:0,0:0:0:0:
121,101,137854,1,8,0:0:0:0:
213,70,138020,6,0,L|204:246,1,175,2|0,0:0|0:0,0:0:0:0:
184,290,138520,2,0,P|226:296|276:290,1,70,8|0,0:0|0:0,0:0:0:0:
318,221,138854,2,0,L|328:147,2,70,2|2|8,0:0|0:0|0:0,0:0:0:0:
246,153,139354,6,0,P|298:77|365:78,1,140,2|2,0:0|0:0,0:0:0:0:
426,108,139854,2,0,L|456:186,2,70,8|0|2,0:0|0:0|0:0,0:0:0:0:
358,36,140354,2,0,P|320:18|278:25,1,70,2|8,0:0|0:0,0:0:0:0:
208,93,140687,6,0,L|210:187,1,70,2|0,0:0|0:0,0:0:0:0:
317,195,141020,2,0,P|322:158|315:125,1,70,2|8,0:0|0:0,0:0:0:0:
185,149,141354,2,0,P|180:186|186:218,1,70,2|0,0:0|0:0,0:0:0:0:
246,286,141687,1,2,0:0:0:0:
326,242,141854,2,0,P|353:187|334:115,1,105,8|0,0:0|0:0,0:0:0:0:
323,107,142187,6,0,L|173:82,1,140,2|8,0:0|0:0,0:0:0:0:
88,103,142687,2,0,P|81:150|129:237,1,140,2|2,0:0|0:0,0:0:0:0:
212,265,143187,2,0,L|304:268,1,70,8|2,0:0|0:0,0:0:0:0:
356,203,143520,6,0,P|379:262|351:337,1,140,0|8,0:0|0:0,0:0:0:0:
257,342,144020,1,2,0:0:0:0:
281,267,144187,2,0,L|424:251,1,140,0|8,0:0|0:0,0:0:0:0:
488,180,144687,6,0,P|480:111|434:59,1,140,2|2,0:0|0:0,0:0:0:0:
336,55,145187,1,8,0:0:0:0:
336,55,145354,2,0,P|279:67|244:88,1,70,8|2,0:0|0:0,0:0:0:0:
202,135,145687,1,2,0:0:0:0:
290,155,145854,2,0,P|347:142|382:122,1,70,8|2,0:0|0:0,0:0:0:0:
416,59,146187,2,0,L|426:-18,2,70,0|2|8,0:0|0:0|0:0,0:0:0:0:
402,156,146687,5,8,0:0:0:0:
402,156,146854,2,0,P|389:201|352:253,1,105,2|0,0:0|0:0,0:0:0:0:
319,280,147187,1,8,0:0:0:0:
266,196,147354,6,0,P|222:158|141:157,1,140,2|0,0:0|0:0,0:0:0:0:
64,215,147854,1,8,0:0:0:0:
64,215,148020,2,0,L|56:290,2,70,0|2|2,0:0|0:0|0:0,0:0:0:0:
102,132,148520,1,8,0:0:0:0:
181,88,148687,6,0,P|245:97|286:160,1,140,2|2,0:0|0:0,0:0:0:0:
263,244,149187,1,8,0:0:0:0:
343,201,149354,2,0,P|378:192|432:197,2,70,0|2|2,0:0|0:0|0:0,0:0:0:0:
263,244,149854,1,8,0:0:0:0:
334,299,150020,6,0,L|474:253,1,140,2|2,0:0|0:0,0:0:0:0:
476,164,150520,2,0,L|423:107,1,70,8|0,0:0|0:0,0:0:0:0:
338,128,150854,2,0,L|315:202,1,70,2|2,0:0|0:0,0:0:0:0:
374,265,151187,1,8,0:0:0:0:
374,265,151354,6,0,L|449:247,1,70,2|0,0:0|0:0,0:0:0:0:
473,163,151687,2,0,P|478:111|456:75,1,70,2|8,0:0|0:0,0:0:0:0:
344,101,152020,2,0,P|386:131|428:130,1,70,2|0,0:0|0:0,0:0:0:0:
464,19,152354,2,0,P|416:40|396:77,1,70,2|8,0:0|0:0,0:0:0:0:
372,138,152687,5,2,0:0:0:0:
372,138,152854,2,0,L|346:285,1,140,2|8,0:0|0:0,0:0:0:0:
299,353,153354,2,0,P|251:373|212:364,1,70,0|2,0:0|0:0,0:0:0:0:
164,313,153687,1,2,0:0:0:0:
235,255,153854,2,0,L|367:246,1,105,8|0,0:0|0:0,0:0:0:0:
379,271,154187,6,0,P|426:204|435:144,1,140,2|8,0:0|0:0,0:0:0:0:
362,93,154687,1,2,0:0:0:0:
287,145,154854,2,0,P|285:195|295:225,1,70,0|2,0:0|0:0,0:0:0:0:
362,93,155187,2,0,P|364:43|354:13,1,70,8|0,0:0|0:0,0:0:0:0:
267,31,155520,5,2,0:0:0:0:
267,31,155687,1,2,0:0:0:0:
190,79,155854,2,0,L|180:159,1,70,8|10,0:0|0:0,0:0:0:0:
272,140,156187,5,0,0:0:0:0:
272,140,156354,1,2,0:0:0:0:
321,215,156520,2,0,L|407:224,1,70,8|0,0:0|0:0,0:0:0:0:
459,161,156854,6,0,P|458:108|440:78,1,70,2|2,0:0|0:0,0:0:0:0:
371,49,157187,1,8,0:0:0:0:
371,49,157354,1,10,0:0:0:0:
293,129,157520,6,0,P|294:182|312:212,1,70,0|2,0:0|0:0,0:0:0:0:
381,241,157854,1,8,0:0:0:0:
381,241,158020,1,0,0:0:0:0:
347,132,158187,6,0,P|308:104|262:103,1,70,2|2,0:0|0:0,0:0:0:0:
153,99,158520,2,0,P|192:127|238:128,1,70,8|10,0:0|0:0,0:0:0:0:
272,19,158854,2,0,P|249:45|240:78,1,70,0|2,0:0|0:0,0:0:0:0:
227,209,159187,2,0,P|249:182|258:149,1,70,8|0,0:0|0:0,0:0:0:0:
220,51,159520,6,0,B|150:28|150:28|93:34,1,105,2|0,0:0|0:0,0:0:0:0:
75,48,159854,2,0,P|69:108|82:173,1,105,8|0,0:0|0:0,0:0:0:0:
110,180,160187,2,0,L|192:197,2,70,0|2|8,0:0|0:0|0:0,0:0:0:0:
35,106,160854,6,0,L|41:50,1,52.5,0|0,0:0|0:0,0:0:0:0:
74,28,161187,2,0,P|109:28|138:47,1,62.9999980773926,0|0,0:0|0:0,0:0:0:0:
156,76,161520,2,0,P|201:83|231:81,1,73.4999977569581,0|0,0:0|0:0,0:0:0:0:
268,48,161854,2,0,B|306:35|306:35|359:45,1,84,0|0,0:0|0:0,0:0:0:0:
391,61,162187,6,0,P|421:86|431:127,1,78.7500030040742,6|0,0:1|0:0,0:0:0:0:
431,159,162520,2,0,L|421:231,2,52.5000020027161,0|2|8,0:0|0:0|0:0,0:0:0:0:
349,126,163020,2,0,P|305:156|251:169,1,105.000004005432,0|2,0:0|0:0,0:0:0:0:
206,97,163520,2,0,P|173:171|176:256,1,157.500006008148,0|2,0:0|0:0,0:0:0:0:
246,258,164187,2,0,B|304:222|401:267|401:267|435:208,1,210.000008010865,8|2,0:0|0:0,0:0:0:0:
450,80,165187,6,0,L|452:24,2,52.5000020027161,0|2|8,0:0|0:0|0:0,0:0:0:0:
441,153,165687,1,0,0:0:0:0:
416,222,165854,2,0,P|380:260|349:270,1,78.7500030040742,0|0,0:0|0:0,0:0:0:0:
309,257,166187,2,0,P|272:215|171:234,1,157.500006008148,0|2,0:0|0:0,0:0:0:0:
235,286,166854,2,0,L|413:295,1,157.500006008148,8|8,0:0|0:0,0:0:0:0:
479,249,167520,6,0,P|493:191|488:167,1,70,2|0,0:0|0:0,0:0:0:0:
355,220,167854,2,0,P|375:248|404:267,1,70,10|0,0:0|0:0,0:0:0:0:
441,129,168187,2,0,P|406:132|375:147,1,70,2|0,0:0|0:0,0:0:0:0:
315,217,168520,2,0,P|282:241|205:267,1,105,10|0,0:0|0:0,0:0:0:0:
181,284,168854,6,0,L|193:125,1,140,2|10,0:0|0:0,0:0:0:0:
238,74,169354,2,0,B|274:69|274:69|312:51,1,70,0|2,0:0|0:0,0:0:0:0:
150,79,169687,2,0,B|111:92|111:92|84:110,2,70,2|10|2,0:0|0:0|0:0,0:0:0:0:
214,114,170187,6,0,L|237:231,1,105,2|0,0:0|0:0,0:0:0:0:
283,271,170854,1,8,0:0:0:0:
211,285,171020,2,0,L|169:295,2,35,0|0|2,0:0|0:0|0:0,0:0:0:0:
283,271,171520,6,0,P|324:248|344:166,1,122.5,2|0,0:0|0:0,0:0:0:0:
343,133,172187,2,0,P|369:82|430:66,1,122.5,8|0,0:0|0:0,0:0:0:0:
466,77,172854,2,0,P|495:176|394:214,1,224,6|0,0:0|0:0,0:0:0:0:
130,117,185354,6,0,L|70:127,2,52.5000020027161,0|0|0,0:0|0:0|0:0,0:0:0:0:
202,104,185854,1,0,0:0:0:0:
273,90,186020,2,0,P|319:111|303:260,1,210.000008010865,0|2,0:0|0:0,0:0:0:0:
264,180,186854,1,8,0:0:0:0:
212,254,187187,1,0,0:0:0:0:
212,254,187354,6,0,B|153:271|98:202|41:260,1,157.500006008148,2|2,0:0|0:0,0:0:0:0:
85,314,188020,2,0,L|154:328,1,52.5000020027161,0|8,0:0|0:0,0:0:0:0:
306,330,188520,5,0,0:0:0:0:
306,330,188687,2,0,P|342:288|346:227,1,105.000004005432,2|0,0:0|0:0,0:0:0:0:
295,183,189187,2,0,P|332:161|358:161,1,52.5000020027161,0|2,0:0|0:0,0:0:0:0:
450,169,189520,2,0,P|413:191|387:191,1,52.5000020027161,8|0,0:0|0:0,0:0:0:0:
396,116,189854,1,0,0:0:0:0:
438,56,190020,6,0,P|450:20|446:2,1,52.5000020027161,2|2,0:0|0:0,0:0:0:0:
315,18,190354,2,0,P|303:54|303:74,1,52.5000020027161,0|2,0:0|0:0,0:0:0:0:
309,139,190687,2,0,L|316:200,1,52.5000020027161,0|8,0:0|0:0,0:0:0:0:
334,262,191020,2,0,L|227:210,1,105.000004005432,0|2,0:0|0:0,0:0:0:0:
189,141,191520,6,0,P|182:226|187:299,1,157.500006008148,2|2,0:0|0:0,0:0:0:0:
129,343,192187,2,0,L|200:351,1,52.5000020027161,8|0,0:0|0:0,0:0:0:0:
254,348,192520,2,0,P|281:318|324:311,1,78.7500030040742,0|0,0:0|0:0,0:0:0:0:
357,339,192854,6,0,P|417:335|475:300,1,105.000004005432,2|0,0:0|0:0,0:0:0:0:
468,226,193354,1,2,0:0:0:0:
447,155,193520,2,0,P|435:130|407:100,1,52.5000020027161,8|2,0:0|0:0,0:0:0:0:
359,154,193854,2,0,P|337:135|299:120,1,52.5000020027161,2|0,0:0|0:0,0:0:0:0:
281,193,194187,6,0,P|252:197|212:222,2,70,8|8|8,0:0|0:0|0:0,0:0:0:0:
369,215,194687,2,0,P|397:210|438:186,2,70,8|8|8,0:0|0:0|0:0,0:0:0:0:
281,193,195187,1,8,0:0:0:0:
231,116,195354,1,8,0:0:0:0:
249,27,195520,6,0,P|272:7|312:-2,2,70,8|2|2,0:0|0:0|0:0,0:0:0:0:
199,103,196020,1,0,0:0:0:0:
189,193,196187,1,8,0:0:0:0:
189,193,196354,2,0,L|185:248,1,52.5,10|0,0:0|0:0,0:0:0:0:
176,281,196687,6,0,L|252:288,1,70,8|0,0:0|0:0,0:0:0:0:
295,247,197187,6,0,P|302:211|301:149,2,70,8|0|2,0:0|0:0|0:0,0:0:0:0:
247,324,197687,1,2,0:0:0:0:
160,294,197854,1,8,0:0:0:0:
160,294,198020,6,0,P|117:220|119:152,1,140,2|2,0:0|0:0,0:0:0:0:
111,90,198520,2,0,L|42:102,2,70,8|0|2,0:0|0:0|0:0,0:0:0:0:
216,82,199020,1,2,0:0:0:0:
216,82,199187,1,8,0:0:0:0:
306,93,199354,6,0,P|302:157|343:227,1,140,2|2,0:0|0:0,0:0:0:0:
425,200,199854,2,0,L|449:129,2,70,8|0|2,0:0|0:0|0:0,0:0:0:0:
398,287,200354,2,0,P|400:339|413:367,1,70,2|8,0:0|0:0,0:0:0:0:
486,250,200687,6,0,P|484:198|471:170,1,70,2|0,0:0|0:0,0:0:0:0:
399,210,201020,2,0,P|364:171|336:158,1,70,2|8,0:0|0:0,0:0:0:0:
257,171,201354,2,0,L|195:248,2,70,2|0|2,0:0|0:0|0:0,0:0:0:0:
322,107,201854,2,0,P|396:72|434:77,1,105,8|0,0:0|0:0,0:0:0:0:
443,110,202187,6,0,L|395:262,1,140,2|8,0:0|0:0,0:0:0:0:
336,178,202687,2,0,L|286:316,1,140,2|2,0:0|0:0,0:0:0:0:
218,256,203187,1,8,0:0:0:0:
252,170,203354,2,0,L|280:102,1,70,2|0,0:0|0:0,0:0:0:0:
361,66,203687,5,2,0:0:0:0:
399,148,203854,2,0,P|376:206|352:233,1,70,8|2,0:0|0:0,0:0:0:0:
284,236,204187,2,0,L|417:280,1,140,2|8,0:0|0:0,0:0:0:0:
490,226,204687,2,0,P|482:137|472:87,1,140,0|2,0:0|0:0,0:0:0:0:
393,40,205187,5,8,0:0:0:0:
393,40,205354,1,8,0:0:0:0:
313,82,205520,2,0,P|275:138|270:168,2,70,2|2|8,0:0|0:0|0:0,0:0:0:0:
397,117,206020,2,0,P|381:192|331:238,1,140,2|2,0:0|0:0,0:0:0:0:
245,234,206520,6,0,L|266:141,1,70,8|2,0:0|0:0,0:0:0:0:
231,81,206854,2,0,P|162:92|107:135,1,140,0|8,0:0|0:0,0:0:0:0:
95,225,207354,6,0,P|184:176|186:108,1,175,2|0,0:0|0:0,0:0:0:0:
153,70,207854,2,0,L|240:46,1,70,12|0,0:0|0:0,0:0:0:0:
300,95,208187,2,0,L|283:190,1,70,2|2,0:0|0:0,0:0:0:0:
271,253,208520,1,8,0:0:0:0:
351,210,208687,6,0,P|428:187|502:244,1,175,2|0,0:0|0:0,0:0:0:0:
506,284,209187,2,0,L|414:299,1,70,8|0,0:0|0:0,0:0:0:0:
357,250,209520,2,0,L|287:243,1,70,2|2,0:0|0:0,0:0:0:0:
216,301,209854,1,8,0:0:0:0:
199,211,210020,6,0,P|225:142|338:83,1,175,2|0,0:0|0:0,0:0:0:0:
351,94,210520,2,0,L|365:179,1,70,8|0,0:0|0:0,0:0:0:0:
276,229,210854,2,0,L|264:159,1,70,2|2,0:0|0:0,0:0:0:0:
283,70,211187,1,8,0:0:0:0:
361,23,211354,6,0,P|413:22|449:39,1,70,2|0,0:0|0:0,0:0:0:0:
344,120,211687,2,0,P|292:121|256:104,1,70,2|8,0:0|0:0,0:0:0:0:
429,27,212020,2,0,P|437:60|433:95,1,70,2|0,0:0|0:0,0:0:0:0:
275,115,212354,2,0,P|266:81|270:46,1,70,2|8,0:0|0:0,0:0:0:0:
388,34,212687,5,2,0:0:0:0:
388,34,212854,2,0,P|410:77|389:176,1,140,2|8,0:0|0:0,0:0:0:0:
305,162,213354,2,0,B|224:119|224:119|158:122,1,140,0|2,0:0|0:0,0:0:0:0:
221,200,213854,2,0,L|235:71,1,105,8|0,0:0|0:0,0:0:0:0:
229,50,214187,6,0,P|160:29|96:47,1,140,2|8,0:0|0:0,0:0:0:0:
62,131,214687,1,0,0:0:0:0:
116,203,214854,2,0,L|185:214,1,70,0|2,0:0|0:0,0:0:0:0:
235,125,215187,2,0,L|165:113,1,70,8|0,0:0|0:0,0:0:0:0:
88,160,215520,6,0,L|76:228,1,70,2|2,0:0|0:0,0:0:0:0:
64,319,215854,1,8,0:0:0:0:
64,319,216020,1,10,0:0:0:0:
153,206,216187,6,0,L|140:282,1,70,0|2,0:0|0:0,0:0:0:0:
130,366,216520,1,8,0:0:0:0:
130,366,216687,1,0,0:0:0:0:
232,314,216854,6,0,P|221:284|220:245,1,70,2|2,0:0|0:0,0:0:0:0:
266,167,217187,1,8,0:0:0:0:
338,222,217354,1,10,0:0:0:0:
264,279,217520,6,0,P|266:247|282:211,1,70,0|2,0:0|0:0,0:0:0:0:
357,161,217854,1,8,0:0:0:0:
399,241,218020,1,0,0:0:0:0:
326,319,218187,6,0,P|268:336|235:331,1,70,2|2,0:0|0:0,0:0:0:0:
132,279,218520,2,0,P|190:262|223:267,1,70,8|10,0:0|0:0,0:0:0:0:
290,258,218854,2,0,P|332:242|358:217,1,70,0|2,0:0|0:0,0:0:0:0:
382,114,219187,2,0,P|348:125|321:146,1,70,8|0,0:0|0:0,0:0:0:0:
350,225,219520,6,0,L|443:271,1,105,2|0,0:0|0:0,0:0:0:0:
461,314,219854,2,0,P|495:236|503:187,1,105,8|0,0:0|0:0,0:0:0:0:
501,171,220187,2,0,L|490:101,1,70,0|2,0:0|0:0,0:0:0:0:
429,33,220520,2,0,P|333:81|317:76,1,105,8|0,0:0|0:0,0:0:0:0:
298,94,220854,6,0,L|284:2,1,70,2|2,0:0|0:0,0:0:0:0:
198,43,221187,1,8,0:0:0:0:
198,43,221354,2,0,L|207:116,1,70,2|0,0:0|0:0,0:0:0:0:
267,180,221687,2,0,P|167:189|127:165,1,140,2|0,0:0|0:0,0:0:0:0:
78,100,222187,6,0,L|51:193,1,70,2|2,0:0|0:0,0:0:0:0:
14,247,222520,1,8,0:0:0:0:
105,247,222687,2,0,P|158:253|260:299,1,140,2|2,0:0|0:0,0:0:0:0:
310,340,223187,2,0,P|366:350|390:349,1,70,8|0,0:0|0:0,0:0:0:0:
438,281,223520,6,0,L|450:208,1,70,10|8,0:0|0:0,0:0:0:0:
317,150,223854,2,0,L|304:218,1,70,10|8,0:0|0:0,0:0:0:0:
353,290,224187,2,0,L|435:310,1,70,10|8,0:0|0:0,0:0:0:0:
410,159,224520,2,0,L|328:139,1,70,10|8,0:0|0:0,0:0:0:0:
265,252,224854,1,14,0:0:0:0:
132,220,225187,6,0,L|123:157,1,52.5000020027161,0|0,0:0|0:0,0:0:0:0:
145,102,225520,2,0,B|180:73|213:128|269:99,1,105.000004005432,0|0,0:0|0:0,0:0:0:0:
