osu file format v14

[General]
AudioFilename: audio.mp3
AudioLeadIn: 0
PreviewTime: 58295
Countdown: 1
SampleSet: Soft
StackLeniency: 0.7
Mode: 3
LetterboxInBreaks: 0
SpecialStyle: 0
WidescreenStoryboard: 1

[Editor]
Bookmarks: 5795,16461,27128,37795,48461,53795,59128,83128
DistanceSpacing: 1
BeatDivisor: 4
GridSize: 8
TimelineZoom: 1

[Metadata]
Title:Dakara, Hitori ja nai
TitleUnicode:だから, ひとりじゃない
Artist:Little Glee Monster
ArtistUnicode:Little Glee Monster
Creator:guineaQ
Version:Lv. 12
Source:僕のヒーローアカデミア
Tags:Boku no Hero Academia
BeatmapID:1258236
BeatmapSetID:594940

[Difficulty]
HPDrainRate:8
CircleSize:4
OverallDifficulty:8
ApproachRate:9
SliderMultiplier:1.6
SliderTickRate:1

[Events]
//Background and Video events
0,0,"bnha.png",0,0
//Break Periods
//Storyboard Layer 0 (Background)
//Storyboard Layer 1 (Fail)
//Storyboard Layer 2 (Pass)
//Storyboard Layer 3 (Foreground)
//Storyboard Sound Samples

[TimingPoints]
462,333.333333333333,4,2,1,20,1,0
5795,-100,4,2,1,50,0,0
16461,-100,4,2,1,40,0,0
59128,-100,4,2,1,60,0,1
83128,-100,4,2,1,40,0,0

[HitObjects]
448,192,462,128,0,4461:0:0:0:0:
192,192,1795,128,0,4461:0:0:0:0:
320,192,3128,128,0,4461:0:0:0:0:
64,192,4128,1,2,0:0:0:0:
64,192,4295,1,2,0:0:0:0:
64,192,4461,1,0,3:0:0:0:
192,192,4628,1,0,0:0:0:0:
320,192,4628,1,2,0:0:0:0:
64,192,4961,1,2,0:0:0:0:
448,192,4961,1,0,0:0:0:0:
192,192,5295,1,0,0:0:0:0:
320,192,5295,1,0,0:0:0:0:
64,192,5378,1,0,0:0:0:0:
448,192,5461,1,0,0:0:0:0:
192,192,5545,1,0,0:0:0:0:
320,192,5628,1,0,0:0:0:0:
448,192,5711,1,0,0:0:0:0:
192,192,5795,1,2,0:0:0:0:
64,192,5795,128,4,6128:0:0:0:0:
320,192,6128,1,8,0:0:0:0:
448,192,6128,1,0,0:0:0:0:
192,192,6295,128,2,6628:0:0:0:0:
320,192,6295,1,0,0:0:0:0:
448,192,6628,1,2,0:0:0:0:
320,192,6795,1,8,0:0:0:0:
64,192,6795,1,0,0:0:0:0:
192,192,6961,1,0,0:0:0:0:
448,192,6961,1,0,0:0:0:0:
320,192,7128,1,2,0:0:0:0:
64,192,7295,1,0,0:0:0:0:
192,192,7461,1,8,0:0:0:0:
320,192,7461,1,0,0:0:0:0:
448,192,7628,128,2,7961:0:0:0:0:
192,192,7795,1,0,0:0:0:0:
320,192,7961,1,2,0:0:0:0:
64,192,8128,1,0,0:0:0:0:
192,192,8128,1,8,0:0:0:0:
448,192,8295,1,0,0:0:0:0:
320,192,8295,1,0,0:0:0:0:
192,192,8461,1,0,0:0:0:0:
320,192,8461,1,2,0:0:0:0:
192,192,8628,1,2,0:0:0:0:
64,192,8795,1,0,0:0:0:0:
320,192,8795,1,8,0:0:0:0:
448,192,8961,128,2,9295:0:0:0:0:
192,192,8961,1,0,0:0:0:0:
192,192,9295,1,2,0:0:0:0:
320,192,9461,1,8,0:0:0:0:
64,192,9461,1,0,0:0:0:0:
448,192,9628,1,0,0:0:0:0:
192,192,9628,1,0,0:0:0:0:
320,192,9795,1,2,0:0:0:0:
320,192,9961,1,2,0:0:0:0:
192,192,10128,1,8,0:0:0:0:
64,192,10128,1,0,0:0:0:0:
192,192,10295,1,2,0:0:0:0:
448,192,10461,1,0,0:0:0:0:
448,192,10628,1,2,0:0:0:0:
64,192,10795,1,8,0:0:0:0:
192,192,10795,1,0,0:0:0:0:
64,192,10961,1,8,0:0:0:0:
320,192,11128,1,2,0:0:0:0:
448,192,11128,1,4,0:0:0:0:
320,192,11295,1,0,0:0:0:0:
192,192,11461,1,8,0:0:0:0:
448,192,11461,1,0,0:0:0:0:
320,192,11628,1,2,0:0:0:0:
64,192,11628,128,0,11961:0:0:0:0:
320,192,11961,1,2,0:0:0:0:
192,192,12128,1,8,0:0:0:0:
448,192,12128,1,0,0:0:0:0:
320,192,12295,1,0,0:0:0:0:
64,192,12461,1,0,0:0:0:0:
192,192,12461,1,2,0:0:0:0:
64,192,12628,1,2,0:0:0:0:
320,192,12795,1,8,0:0:0:0:
448,192,12795,1,0,0:0:0:0:
192,192,12961,128,2,13295:0:0:0:0:
448,192,12961,1,0,0:0:0:0:
320,192,13295,1,2,0:0:0:0:
448,192,13461,1,8,0:0:0:0:
64,192,13461,1,0,0:0:0:0:
192,192,13628,1,0,0:0:0:0:
320,192,13795,1,8,0:0:0:0:
448,192,13795,1,2,0:0:0:0:
448,192,13961,1,2,0:0:0:0:
192,192,14128,1,8,0:0:0:0:
320,192,14128,1,0,0:0:0:0:
192,192,14295,1,2,0:0:0:0:
64,192,14461,1,8,0:0:0:0:
448,192,14461,1,0,0:0:0:0:
64,192,14628,1,2,0:0:0:0:
192,192,14795,1,0,0:0:0:0:
320,192,14795,1,8,0:0:0:0:
320,192,14961,1,2,0:0:0:0:
448,192,15128,1,0,0:0:0:0:
64,192,15128,1,2,0:0:0:0:
192,192,15295,1,2,0:0:0:0:
448,192,15461,1,2,0:0:0:0:
320,192,15628,1,8,0:0:0:0:
192,192,15628,1,0,0:0:0:0:
64,192,15795,1,0,0:0:0:0:
192,192,15795,1,2,0:0:0:0:
320,192,15961,1,2,0:0:0:0:
448,192,15961,1,0,0:0:0:0:
192,192,16128,1,8,0:0:0:0:
64,192,16211,1,2,0:0:0:0:
320,192,16295,1,8,0:0:0:0:
448,192,16378,1,2,0:0:0:0:
192,192,16461,128,6,16795:0:0:0:0:
64,192,16795,1,8,0:0:0:0:
448,192,16961,1,2,0:0:0:0:
320,192,17128,128,0,17461:0:0:0:0:
192,192,17461,1,8,0:0:0:0:
448,192,17628,1,0,0:0:0:0:
64,192,17795,128,2,18128:0:0:0:0:
320,192,18128,1,8,0:0:0:0:
192,192,18295,1,2,0:0:0:0:
448,192,18461,1,0,0:0:0:0:
448,192,18628,1,2,0:0:0:0:
64,192,18795,1,0,0:0:0:0:
192,192,18795,1,8,0:0:0:0:
320,192,19128,128,2,19461:0:0:0:0:
448,192,19461,1,8,0:0:0:0:
192,192,19628,1,2,0:0:0:0:
64,192,19795,128,0,20128:0:0:0:0:
320,192,20128,1,8,0:0:0:0:
192,192,20295,1,0,0:0:0:0:
448,192,20461,128,2,20795:0:0:0:0:
64,192,20795,1,8,0:0:0:0:
320,192,20961,1,2,0:0:0:0:
192,192,21128,1,0,0:0:0:0:
192,192,21295,1,2,0:0:0:0:
448,192,21461,1,0,0:0:0:0:
64,192,21461,1,8,0:0:0:0:
320,192,21795,128,2,22128:0:0:0:0:
448,192,22128,1,8,0:0:0:0:
64,192,22295,1,2,0:0:0:0:
192,192,22461,128,0,22795:0:0:0:0:
64,192,22795,1,8,0:0:0:0:
448,192,22961,1,0,0:0:0:0:
320,192,23128,128,2,23461:0:0:0:0:
64,192,23461,1,8,0:0:0:0:
192,192,23628,1,2,0:0:0:0:
448,192,23795,1,0,0:0:0:0:
448,192,23961,1,2,0:0:0:0:
320,192,24128,1,8,0:0:0:0:
64,192,24128,1,0,0:0:0:0:
448,192,24295,1,0,3:0:0:0:
192,192,24461,1,2,0:0:0:0:
192,192,24628,1,2,0:0:0:0:
448,192,24795,1,8,0:0:0:0:
64,192,24961,1,8,0:0:0:0:
320,192,25295,1,2,0:0:0:0:
192,192,25461,1,8,0:0:0:0:
448,192,25461,1,0,0:0:0:0:
64,192,25628,1,0,3:0:0:0:
320,192,25795,1,2,0:0:0:0:
448,192,25961,1,0,0:0:0:0:
192,192,26128,1,8,0:0:0:0:
192,192,26295,1,8,0:0:0:0:
64,192,26295,1,0,0:0:0:0:
320,192,26461,1,0,0:0:0:0:
64,192,26628,1,2,3:2:0:0:
448,192,26795,1,0,0:0:0:0:
192,192,26795,1,8,0:0:0:0:
320,192,26961,1,0,3:0:0:0:
64,192,27128,128,2,27461:0:0:0:0:
192,192,27128,1,0,0:0:0:0:
448,192,27461,1,8,0:0:0:0:
320,192,27628,1,2,0:0:0:0:
192,192,27795,128,0,28128:0:0:0:0:
64,192,28128,1,8,0:0:0:0:
448,192,28295,1,0,0:0:0:0:
64,192,28461,128,2,28795:0:0:0:0:
320,192,28795,1,8,0:0:0:0:
448,192,28961,1,2,0:0:0:0:
192,192,29128,1,0,0:0:0:0:
192,192,29295,1,2,0:0:0:0:
320,192,29461,1,8,0:0:0:0:
448,192,29461,1,0,0:0:0:0:
64,192,29795,128,2,30128:0:0:0:0:
192,192,30128,1,8,0:0:0:0:
448,192,30295,1,2,0:0:0:0:
320,192,30461,128,0,30795:0:0:0:0:
64,192,30795,1,8,0:0:0:0:
448,192,30961,1,0,0:0:0:0:
192,192,31128,128,2,31461:0:0:0:0:
448,192,31461,1,8,0:0:0:0:
64,192,31628,1,2,0:0:0:0:
320,192,31795,1,0,0:0:0:0:
320,192,31961,1,2,0:0:0:0:
448,192,32128,1,0,0:0:0:0:
192,192,32128,1,8,0:0:0:0:
64,192,32295,1,0,3:0:0:0:
320,192,32461,128,2,32795:0:0:0:0:
448,192,32795,1,8,0:0:0:0:
64,192,32961,1,2,0:0:0:0:
192,192,33128,128,0,33461:0:0:0:0:
448,192,33461,1,8,0:0:0:0:
320,192,33795,128,2,34128:0:0:0:0:
64,192,34128,128,8,34461:0:0:0:0:
192,192,34295,1,2,0:0:0:0:
448,192,34461,128,0,34795:0:0:0:0:
320,192,34628,1,2,0:0:0:0:
64,192,34795,1,8,0:0:0:0:
64,192,34961,1,0,3:0:0:0:
192,192,35128,1,2,0:0:0:0:
320,192,35128,1,0,0:0:0:0:
320,192,35295,1,2,0:0:0:0:
448,192,35295,1,0,0:0:0:0:
64,192,35461,1,0,0:0:0:0:
192,192,35461,1,8,0:0:0:0:
64,192,35628,1,0,0:0:0:0:
320,192,35628,1,8,0:0:0:0:
192,192,35961,1,2,0:0:0:0:
448,192,35961,1,0,0:0:0:0:
320,192,36128,1,8,0:0:0:0:
448,192,36128,1,0,0:0:0:0:
64,192,36461,1,0,0:0:0:0:
192,192,36461,1,2,0:0:0:0:
64,192,36628,1,0,0:0:0:0:
192,192,36628,1,2,0:0:0:0:
320,192,36795,1,8,0:0:0:0:
448,192,36795,1,0,0:0:0:0:
192,192,36961,1,2,0:0:0:0:
320,192,36961,1,0,3:0:0:0:
64,192,37128,1,0,0:0:0:0:
192,192,37295,1,2,0:0:0:0:
320,192,37295,1,0,3:0:0:0:
448,192,37461,1,8,0:0:0:0:
320,192,37545,1,8,0:0:0:0:
64,192,37628,1,8,0:0:0:0:
192,192,37711,1,8,0:0:0:0:
448,192,37795,128,6,38295:0:0:0:0:
192,192,38295,1,2,0:0:0:0:
64,192,38461,1,0,0:0:0:0:
320,192,38461,1,8,0:0:0:0:
320,192,38795,1,0,0:0:0:0:
192,192,38961,1,2,0:0:0:0:
448,192,38961,1,0,0:0:0:0:
448,192,39295,1,2,0:0:0:0:
192,192,39295,1,0,0:0:0:0:
192,192,39628,1,2,0:0:0:0:
448,192,39628,1,0,0:0:0:0:
64,192,39795,1,8,0:0:0:0:
320,192,39795,1,0,0:0:0:0:
64,192,40128,1,8,0:0:0:0:
192,192,40211,1,8,0:0:0:0:
320,192,40295,1,8,0:0:0:0:
448,192,40378,1,8,0:0:0:0:
192,192,40461,128,2,40961:0:0:0:0:
64,192,40961,1,2,0:0:0:0:
320,192,41128,1,8,0:0:0:0:
448,192,41128,1,0,0:0:0:0:
192,192,41461,1,0,0:0:0:0:
64,192,41628,1,2,0:0:0:0:
320,192,41628,1,0,0:0:0:0:
64,192,41961,1,2,0:0:0:0:
320,192,41961,1,0,0:0:0:0:
64,192,42295,1,2,0:0:0:0:
320,192,42295,1,0,0:0:0:0:
448,192,42461,1,0,0:0:0:0:
192,192,42461,1,8,0:0:0:0:
448,192,42795,1,0,0:0:0:0:
448,192,42961,1,0,0:0:0:0:
320,192,42961,1,2,0:0:0:0:
64,192,43128,128,6,43628:0:0:0:0:
448,192,43628,1,2,0:0:0:0:
320,192,43795,1,8,0:0:0:0:
192,192,44128,1,0,0:0:0:0:
320,192,44295,1,2,0:0:0:0:
448,192,44295,1,0,0:0:0:0:
320,192,44628,1,2,0:0:0:0:
448,192,44628,1,0,0:0:0:0:
320,192,44961,1,2,0:0:0:0:
448,192,44961,1,0,0:0:0:0:
64,192,45128,1,0,0:0:0:0:
192,192,45128,1,8,0:0:0:0:
64,192,45461,1,0,0:0:0:0:
320,192,45628,1,0,0:0:0:0:
192,192,45795,128,2,46295:0:0:0:0:
448,192,46295,1,0,0:0:0:0:
320,192,46461,1,8,0:0:0:0:
448,192,46795,1,0,0:0:0:0:
192,192,46961,1,2,0:0:0:0:
64,192,46961,1,0,0:0:0:0:
192,192,47295,1,2,0:0:0:0:
64,192,47295,1,0,0:0:0:0:
448,192,47461,1,0,3:0:0:0:
192,192,47628,1,2,0:0:0:0:
64,192,47628,1,0,0:0:0:0:
320,192,47795,1,8,0:0:0:0:
448,192,47878,1,8,0:0:0:0:
192,192,47961,1,8,0:0:0:0:
64,192,48045,1,8,0:0:0:0:
320,192,48128,1,2,0:0:0:0:
320,192,48295,1,2,0:0:0:0:
448,192,48461,128,2,48961:0:0:0:0:
64,192,48961,1,2,0:0:0:0:
192,192,49128,1,8,0:0:0:0:
448,192,49461,1,0,0:0:0:0:
320,192,49628,1,2,0:0:0:0:
64,192,49628,1,0,0:0:0:0:
192,192,49961,1,2,0:0:0:0:
448,192,49961,1,0,0:0:0:0:
320,192,50295,1,2,0:0:0:0:
64,192,50295,1,0,0:0:0:0:
192,192,50461,1,8,0:0:0:0:
448,192,50461,1,0,0:0:0:0:
320,192,50795,1,0,0:0:0:0:
64,192,50961,1,0,3:0:0:0:
192,192,51128,128,2,51628:0:0:0:0:
448,192,51628,1,2,0:0:0:0:
320,192,51795,1,8,0:0:0:0:
64,192,52128,1,0,0:0:0:0:
192,192,52295,1,2,0:0:0:0:
448,192,52295,1,0,0:0:0:0:
320,192,52628,1,2,0:0:0:0:
64,192,52628,1,0,0:0:0:0:
192,192,52961,1,2,0:0:0:0:
448,192,52961,1,0,0:0:0:0:
320,192,53128,1,8,0:0:0:0:
64,192,53128,1,0,0:0:0:0:
192,192,53295,1,0,0:0:0:0:
448,192,53461,1,8,0:0:0:0:
320,192,53545,1,8,0:0:0:0:
64,192,53628,1,8,0:0:0:0:
192,192,53711,1,8,0:0:0:0:
448,192,53795,1,0,0:0:0:0:
320,192,53795,1,2,0:0:0:0:
192,192,54128,1,8,0:0:0:0:
320,192,54128,1,0,0:0:0:0:
64,192,54295,128,2,54628:0:0:0:0:
448,192,54628,1,0,0:0:0:0:
320,192,54628,1,2,0:0:0:0:
192,192,54795,1,0,0:0:0:0:
320,192,54795,1,8,0:0:0:0:
448,192,54961,1,0,3:0:0:0:
64,192,55128,1,0,0:0:0:0:
192,192,55128,1,2,0:0:0:0:
64,192,55295,1,0,0:0:0:0:
192,192,55295,1,2,0:0:0:0:
320,192,55461,1,8,0:0:0:0:
448,192,55461,1,0,0:0:0:0:
64,192,55628,1,2,0:0:0:0:
192,192,55795,1,0,0:0:0:0:
448,192,55961,1,2,0:0:0:0:
320,192,56128,1,8,0:0:0:0:
64,192,56128,1,0,0:0:0:0:
192,192,56461,1,8,0:0:0:0:
320,192,56461,1,0,0:0:0:0:
448,192,56461,1,0,0:0:0:0:
192,192,56628,1,8,0:0:0:0:
320,192,56628,1,0,0:0:0:0:
448,192,56628,1,0,0:0:0:0:
192,192,56795,1,0,0:0:0:0:
320,192,56795,1,8,0:0:0:0:
64,192,56795,1,0,0:0:0:0:
64,192,56961,1,0,0:0:0:0:
192,192,56961,1,0,0:0:0:0:
320,192,56961,1,8,0:0:0:0:
64,192,57128,1,8,0:0:0:0:
448,192,57128,1,0,0:0:0:0:
320,192,57128,1,0,0:0:0:0:
64,192,57295,1,0,0:0:0:0:
320,192,57295,1,8,0:0:0:0:
448,192,57295,1,0,0:0:0:0:
192,192,57461,1,8,0:0:0:0:
448,192,57461,1,0,0:0:0:0:
64,192,57461,1,0,0:0:0:0:
64,192,57628,1,0,0:0:0:0:
192,192,57628,1,8,0:0:0:0:
448,192,57628,1,0,0:0:0:0:
320,192,57795,1,0,0:0:0:0:
448,192,57795,1,0,0:0:0:0:
192,192,57795,1,8,0:0:0:0:
64,192,57795,1,0,0:0:0:0:
320,192,57961,1,2,0:0:0:0:
192,192,58295,1,2,0:0:0:0:
64,192,58461,1,0,0:0:0:0:
448,192,58628,1,2,0:0:0:0:
320,192,58711,1,2,0:0:0:0:
192,192,58795,1,2,0:0:0:0:
448,192,58961,1,2,0:0:0:0:
320,192,59128,1,0,0:0:0:0:
192,192,59128,1,4,0:0:0:0:
64,192,59128,128,2,59461:0:0:0:0:
320,192,59461,1,0,0:0:0:0:
448,192,59461,1,0,0:0:0:0:
448,192,59628,1,0,0:0:0:0:
192,192,59628,1,2,0:0:0:0:
64,192,59795,1,0,0:0:0:0:
320,192,59795,1,0,0:0:0:0:
192,192,59961,1,2,0:0:0:0:
448,192,59961,1,0,0:0:0:0:
320,192,60128,1,8,0:0:0:0:
448,192,60128,1,0,0:0:0:0:
192,192,60295,1,2,0:0:0:0:
64,192,60295,128,0,60628:0:0:0:0:
448,192,60628,1,2,0:0:0:0:
192,192,60795,1,0,0:0:0:0:
320,192,60795,1,8,0:0:0:0:
64,192,60961,1,0,0:0:0:0:
448,192,60961,1,2,0:0:0:0:
192,192,61128,1,0,0:0:0:0:
320,192,61128,1,0,0:0:0:0:
64,192,61295,1,2,0:0:0:0:
448,192,61295,1,0,0:0:0:0:
192,192,61461,1,0,0:0:0:0:
320,192,61461,1,8,0:0:0:0:
192,192,61628,1,0,0:0:0:0:
448,192,61628,1,0,0:0:0:0:
320,192,61795,1,2,0:0:0:0:
448,192,61795,1,0,0:0:0:0:
64,192,61961,1,2,0:0:0:0:
192,192,62128,1,8,0:0:0:0:
320,192,62128,1,0,0:0:0:0:
448,192,62295,1,0,0:0:0:0:
320,192,62295,1,2,0:0:0:0:
192,192,62461,1,0,0:0:0:0:
64,192,62628,1,2,0:0:0:0:
448,192,62628,1,0,0:0:0:0:
192,192,62795,1,0,0:0:0:0:
320,192,62795,1,8,0:0:0:0:
64,192,62961,1,2,0:0:0:0:
320,192,62961,128,0,63295:0:0:0:0:
448,192,63295,1,2,0:0:0:0:
192,192,63461,1,8,0:0:0:0:
64,192,63461,1,0,0:0:0:0:
192,192,63628,1,2,0:0:0:0:
320,192,63628,1,0,0:0:0:0:
448,192,63795,1,0,0:0:0:0:
192,192,63961,1,0,0:0:0:0:
320,192,63961,1,2,0:0:0:0:
64,192,64128,1,0,0:0:0:0:
192,192,64128,1,8,0:0:0:0:
448,192,64461,128,2,65628:0:0:0:0:
320,192,64461,1,0,0:0:0:0:
192,192,64795,1,8,0:0:0:0:
64,192,64795,1,0,0:0:0:0:
320,192,64961,1,2,0:0:0:0:
64,192,65128,1,0,0:0:0:0:
320,192,65295,1,2,0:0:0:0:
192,192,65461,1,8,0:0:0:0:
64,192,65461,1,0,0:0:0:0:
320,192,65628,1,2,0:0:0:0:
192,192,65795,1,0,0:0:0:0:
320,192,65795,1,2,0:0:0:0:
192,192,65961,1,2,0:0:0:0:
64,192,66128,1,0,0:0:0:0:
448,192,66128,1,8,0:0:0:0:
320,192,66295,1,2,0:0:0:0:
192,192,66295,1,0,0:0:0:0:
448,192,66461,1,0,0:0:0:0:
192,192,66628,1,0,0:0:0:0:
320,192,66628,1,2,0:0:0:0:
64,192,66795,1,8,0:0:0:0:
448,192,66795,1,0,0:0:0:0:
192,192,66961,1,0,0:0:0:0:
192,192,67128,1,2,0:0:0:0:
320,192,67128,1,0,0:0:0:0:
320,192,67295,1,2,0:0:0:0:
448,192,67461,1,0,0:0:0:0:
64,192,67461,1,8,0:0:0:0:
192,192,67628,1,2,0:0:0:0:
448,192,67795,1,0,0:0:0:0:
320,192,67795,1,0,0:0:0:0:
320,192,67961,1,2,0:0:0:0:
64,192,68128,1,0,0:0:0:0:
192,192,68128,1,8,0:0:0:0:
448,192,68295,1,0,0:0:0:0:
320,192,68461,1,2,0:0:0:0:
192,192,68461,1,0,0:0:0:0:
64,192,68628,1,2,0:0:0:0:
320,192,68795,1,8,0:0:0:0:
448,192,68795,1,0,0:0:0:0:
448,192,68961,1,8,0:0:0:0:
320,192,68961,1,0,0:0:0:0:
64,192,69128,1,0,0:0:0:0:
192,192,69128,1,0,0:0:0:0:
320,192,69295,1,2,0:0:0:0:
448,192,69295,1,0,0:0:0:0:
192,192,69461,1,8,0:0:0:0:
64,192,69461,1,0,0:0:0:0:
320,192,69628,1,0,0:0:0:0:
192,192,69628,1,0,0:0:0:0:
64,192,69795,1,0,0:0:0:0:
320,192,69795,1,4,0:0:0:0:
448,192,69795,128,2,70128:0:0:0:0:
64,192,70128,1,8,0:0:0:0:
192,192,70128,1,0,0:0:0:0:
320,192,70295,1,2,0:0:0:0:
64,192,70295,1,0,0:0:0:0:
192,192,70461,1,0,0:0:0:0:
448,192,70461,1,0,0:0:0:0:
320,192,70628,1,2,0:0:0:0:
64,192,70628,1,0,0:0:0:0:
64,192,70795,1,0,0:0:0:0:
192,192,70795,1,8,0:0:0:0:
448,192,70961,128,2,71295:0:0:0:0:
320,192,70961,1,0,0:0:0:0:
192,192,71295,1,2,0:0:0:0:
320,192,71461,1,8,0:0:0:0:
64,192,71461,1,0,0:0:0:0:
192,192,71628,1,2,0:0:0:0:
448,192,71628,1,0,0:0:0:0:
320,192,71795,1,0,0:0:0:0:
448,192,71795,1,0,0:0:0:0:
448,192,71961,1,0,0:0:0:0:
192,192,71961,1,2,0:0:0:0:
320,192,72128,1,8,0:0:0:0:
64,192,72128,1,0,0:0:0:0:
448,192,72295,1,0,0:0:0:0:
192,192,72295,1,0,0:0:0:0:
320,192,72461,1,2,0:0:0:0:
448,192,72461,1,0,0:0:0:0:
64,192,72628,1,2,0:0:0:0:
192,192,72795,1,8,0:0:0:0:
320,192,72795,1,0,0:0:0:0:
320,192,72961,1,2,0:0:0:0:
448,192,72961,1,0,0:0:0:0:
64,192,73128,1,0,0:0:0:0:
320,192,73295,1,2,0:0:0:0:
448,192,73295,1,0,0:0:0:0:
192,192,73461,1,0,0:0:0:0:
320,192,73461,1,8,0:0:0:0:
64,192,73628,1,2,0:0:0:0:
192,192,73628,128,0,73961:0:0:0:0:
448,192,73961,1,2,0:0:0:0:
320,192,74128,1,8,0:0:0:0:
64,192,74128,1,0,0:0:0:0:
192,192,74295,1,0,0:0:0:0:
320,192,74295,1,2,0:0:0:0:
448,192,74461,1,0,0:0:0:0:
320,192,74628,1,2,0:0:0:0:
192,192,74628,1,0,0:0:0:0:
320,192,74795,1,8,0:0:0:0:
64,192,74795,1,0,0:0:0:0:
448,192,74961,1,0,0:0:0:0:
320,192,75128,1,0,0:0:0:0:
64,192,75128,128,2,76295:0:0:0:0:
192,192,75295,1,2,0:0:0:0:
320,192,75461,1,8,0:0:0:0:
448,192,75461,1,0,0:0:0:0:
192,192,75628,1,2,0:0:0:0:
448,192,75795,1,0,0:0:0:0:
320,192,75961,1,2,0:0:0:0:
192,192,76128,1,0,0:0:0:0:
448,192,76128,1,8,0:0:0:0:
320,192,76295,1,0,0:0:0:0:
192,192,76461,1,2,0:0:0:0:
320,192,76461,1,0,0:0:0:0:
192,192,76628,1,2,0:0:0:0:
320,192,76795,1,8,0:0:0:0:
448,192,76795,1,0,0:0:0:0:
64,192,76961,1,2,0:0:0:0:
192,192,76961,1,0,0:0:0:0:
448,192,77128,1,0,0:0:0:0:
64,192,77295,1,2,0:0:0:0:
192,192,77461,1,0,0:0:0:0:
320,192,77461,1,8,0:0:0:0:
448,192,77795,128,0,81795:0:0:0:0:
192,192,77795,1,2,0:0:0:0:
192,192,77961,1,2,0:0:0:0:
320,192,78128,1,8,0:0:0:0:
64,192,78128,1,0,0:0:0:0:
320,192,78295,1,8,0:0:0:0:
64,192,78295,1,0,0:0:0:0:
192,192,78461,1,0,0:0:0:0:
320,192,78628,1,0,0:0:0:0:
192,192,78795,1,8,0:0:0:0:
64,192,78795,1,0,0:0:0:0:
320,192,78961,1,0,0:0:0:0:
64,192,79128,1,2,0:0:0:0:
64,192,79295,1,2,0:0:0:0:
192,192,79461,1,8,0:0:0:0:
320,192,79461,1,0,0:0:0:0:
192,192,79628,1,8,0:0:0:0:
320,192,79628,1,0,0:0:0:0:
64,192,79795,1,0,0:0:0:0:
320,192,79961,1,2,0:0:0:0:
192,192,80128,1,8,0:0:0:0:
64,192,80128,1,0,0:0:0:0:
320,192,80461,1,2,0:0:0:0:
320,192,80628,1,2,0:0:0:0:
64,192,80795,1,0,0:0:0:0:
192,192,80795,1,8,0:0:0:0:
64,192,80961,1,0,0:0:0:0:
192,192,80961,1,8,0:0:0:0:
320,192,81128,1,0,0:0:0:0:
64,192,81295,1,2,0:0:0:0:
192,192,81461,1,8,0:0:0:0:
320,192,81461,1,0,0:0:0:0:
64,192,81628,1,2,0:0:0:0:
320,192,81795,1,0,0:0:0:0:
192,192,81961,1,2,0:0:0:0:
64,192,82128,1,8,0:0:0:0:
448,192,82128,1,0,0:0:0:0:
320,192,82295,1,0,0:0:0:0:
192,192,82295,1,2,0:0:0:0:
448,192,82461,1,0,0:0:0:0:
320,192,82628,1,2,0:0:0:0:
192,192,82628,1,0,0:0:0:0:
64,192,82795,1,0,0:0:0:0:
448,192,82795,1,8,0:0:0:0:
448,192,83128,128,6,83461:0:0:0:0:
192,192,83461,1,2,0:0:0:0:
320,192,83628,1,0,0:0:0:0:
64,192,83795,1,2,0:0:0:0:
320,192,83961,1,0,0:0:0:0:
192,192,84128,1,2,0:0:0:0:
64,192,84461,128,2,84795:0:0:0:0:
320,192,84795,1,2,0:0:0:0:
192,192,84961,1,0,0:0:0:0:
448,192,85128,1,2,0:0:0:0:
192,192,85295,1,0,0:0:0:0:
320,192,85461,1,2,0:0:0:0:
64,192,85795,1,2,0:0:0:0:
192,192,85795,1,0,0:0:0:0:
64,192,85961,1,0,0:0:0:0:
320,192,85961,1,0,0:0:0:0:
192,192,86128,1,0,0:0:0:0:
448,192,86128,1,2,0:0:0:0:
320,192,86295,1,0,0:0:0:0:
448,192,86295,1,0,0:0:0:0:
64,192,86461,1,2,0:0:0:0:
192,192,86461,1,0,0:0:0:0:
448,192,86628,1,0,0:0:0:0:
192,192,86628,1,0,0:0:0:0:
448,192,86795,1,2,0:0:0:0:
320,192,86795,1,0,0:0:0:0:
320,192,86961,1,0,0:0:0:0:
64,192,86961,1,0,0:0:0:0:
192,192,87128,1,2,0:0:0:0:
320,192,87128,1,0,0:0:0:0:
448,192,87128,1,0,0:0:0:0:
64,192,87128,1,0,0:0:0:0:
192,192,88128,128,0,88461:0:0:0:0:
