osu file format v14

[General]
AudioFilename: audio.mp3
AudioLeadIn: 0
PreviewTime: 64063
Countdown: 0
SampleSet: Soft
StackLeniency: 0.3
Mode: 0
LetterboxInBreaks: 0
WidescreenStoryboard: 0

[Editor]
DistanceSpacing: 0.9
BeatDivisor: 4
GridSize: 8
TimelineZoom: 1.3

[Metadata]
Title:Dakara, Hitori ja nai
TitleUnicode:だから、ひとりじゃない
Artist:Little Glee Monster
ArtistUnicode:Little Glee Monster
Creator:Rishe
Version:Ochako
Source:僕のヒーローアカデミア 2ndシーズン
Tags:Boku no Hero Academia
BeatmapID:1342582
BeatmapSetID:632486

[Difficulty]
HPDrainRate:6
CircleSize:4
OverallDifficulty:8
ApproachRate:9.2
SliderMultiplier:1.7
SliderTickRate:1

[Events]
//Background and Video events
0,0,"8.jpg",0,0
//Break Periods
2,89095,92325
2,175762,185159
//Storyboard Layer 0 (Background)
//Storyboard Layer 1 (Fail)
//Storyboard Layer 2 (Pass)
//Storyboard Layer 3 (Foreground)
//Storyboard Sound Samples

[TimingPoints]
896,333.333333333333,4,2,1,60,1,0
896,-133.333333333333,4,2,1,60,0,0
10146,-100,4,2,1,60,0,0
11562,-90.9090909090909,4,2,1,60,0,0
22229,-90.9090909090909,4,2,1,50,0,0
43562,-111.111111111111,4,2,1,50,0,0
59562,-99.9999999999999,4,2,1,55,0,0
63729,-333.333333333333,4,2,1,55,0,0
64395,-100,4,2,1,60,0,0
64895,-83.3333333333333,4,2,1,65,0,0
75562,-250,4,2,1,65,0,0
75895,-71.4285714285714,4,2,1,65,0,0
76229,-83.3333333333333,4,2,1,65,0,0
88562,-111.111111111111,4,2,1,65,0,0
94229,-111.111111111111,4,2,1,50,0,0
115562,-99.9999999999999,4,2,1,50,0,0
131562,-95.2380952380952,4,2,1,50,0,0
136729,-90.9090909090909,4,2,1,65,0,0
161895,-100,4,2,1,65,0,0
162229,-117.647058823529,4,2,1,50,0,0
166562,-117.647058823529,4,2,1,40,0,0
166729,-117.647058823529,4,2,1,45,0,0
166895,-105.263157894737,4,2,1,55,0,0
167562,-100,4,2,1,60,0,0
170895,-125,4,2,1,60,0,0
185729,-125,4,2,1,50,0,0
195562,-100,4,2,1,60,0,0
196729,-200,4,2,1,60,0,0
197229,-83.3333333333333,4,2,1,60,0,0
197395,-90.9090909090909,4,2,1,67,0,0
207895,-90.9090909090909,4,2,1,67,0,0

[Colours]
Combo1 : 255,168,255
Combo2 : 81,199,255

[HitObjects]
256,192,8895,12,0,10062,0:0:0:0:
324,257,10229,5,4,0:0:0:0:
249,189,10395,2,0,L|272:92,1,85
219,338,10729,1,8,2:3:0:0:
219,338,10895,1,0,0:0:0:0:
43,226,11062,1,8,2:3:0:0:
82,210,11145,1,0,0:0:0:0:
123,217,11229,1,8,0:0:0:0:
156,243,11312,1,0,0:0:0:0:
153,257,11395,1,0,0:0:0:0:
151,270,11479,1,0,0:0:0:0:
149,284,11562,6,0,L|190:85,1,187.000005706787,4|8,0:0|0:0,0:0:0:0:
290,59,12062,1,0,0:0:0:0:
376,181,12229,2,0,P|325:174|265:162,1,93.5000028533936
150,281,12562,2,0,P|201:288|261:300,1,93.5000028533936,10|0,0:0|0:0,0:0:0:0:
458,190,12895,5,0,0:0:0:0:
328,312,13062,1,0,0:0:0:0:
231,96,13229,1,10,0:0:0:0:
351,169,13395,1,0,0:0:0:0:
351,169,13479,1,0,0:0:0:0:
351,169,13562,1,2,0:0:0:0:
223,215,13729,5,0,0:0:0:0:
132,195,13895,1,10,0:0:0:0:
40,175,14062,1,0,0:0:0:0:
124,377,14229,6,0,P|143:309|121:168,1,187.000005706787,2|8,0:0|0:0,0:0:0:0:
34,61,14729,1,2,0:0:0:0:
195,97,14895,2,0,P|120:113|81:120,1,93.5000028533936
40,213,15229,2,0,P|115:197|190:184,1,140.25000428009,8|0,0:0|0:0,0:0:0:0:
256,172,15562,6,0,P|247:226|240:274,1,93.5000028533936,2|0,0:0|0:0,0:0:0:0:
437,351,15895,1,10,0:0:0:0:
351,268,16062,1,0,0:0:0:0:
464,211,16229,2,0,P|473:157|480:109,1,93.5000028533936,2|0,0:0|0:0,0:0:0:0:
341,66,16562,1,10,0:0:0:0:
306,72,16645,1,2,0:0:0:0:
271,70,16729,1,2,0:0:0:0:
238,59,16812,1,2,0:0:0:0:
210,43,16895,6,0,P|216:89|224:135,1,93.5000028533936,4|0,0:0|0:0,0:0:0:0:
341,279,17229,2,0,P|349:232|355:186,2,93.5000028533936,8|0|0,0:0|0:0|0:0,0:0:0:0:
234,214,17729,2,0,P|187:226|124:240,1,93.5000028533936,2|8,0:0|0:0,0:0:0:0:
28,355,18062,1,2,0:0:0:0:
28,355,18145,1,2,0:0:0:0:
28,355,18229,6,0,P|75:343|138:329,1,93.5000028533936,4|0,0:0|0:0,0:0:0:0:
160,128,18562,1,10,0:0:0:0:
231,211,18729,1,0,0:0:0:0:
270,25,18895,1,0,0:0:0:0:
359,148,19062,2,0,P|425:134|469:124,1,93.5000028533936,2|8,0:0|0:0,0:0:0:0:
270,22,19395,1,0,0:0:0:0:
270,22,19479,1,0,0:0:0:0:
270,22,19562,6,0,P|167:43|91:57,1,140.25000428009,6|0,0:0|0:0,0:0:0:0:
40,28,19895,1,2,1:2:0:0:
85,135,20062,1,0,0:0:0:0:
131,247,20229,1,2,1:2:0:0:
211,171,20395,5,0,0:0:0:0:
7,116,20562,1,2,1:2:0:0:
262,93,20729,5,0,0:0:0:0:
0,216,20895,1,2,1:2:0:0:
262,184,21062,5,2,0:0:0:0:
5,115,21229,1,2,1:2:0:0:
178,25,21395,1,0,3:0:0:0:
111,281,21562,1,0,3:0:0:0:
228,164,21729,1,0,3:0:0:0:
276,135,21812,1,0,3:0:0:0:
331,127,21895,1,0,3:0:0:0:
384,144,21979,1,0,3:0:0:0:
427,179,22062,2,0,L|411:253,1,46.7500014266968,0|0,3:0|3:0,3:0:0:0:
350,316,22229,6,0,P|265:317|208:254,1,140.25000428009,2|0,0:0|0:0,0:0:0:0:
210,264,22562,2,0,P|142:280|103:290,1,93.5000028533936,10|0,0:0|0:0,0:0:0:0:
29,201,22895,2,0,P|117:180|161:169,1,93.5000028533936,2|0,0:0|0:0,0:0:0:0:
249,49,23229,2,0,P|269:115|271:148,1,93.5000028533936,8|0,0:0|0:0,0:0:0:0:
206,259,23562,6,0,P|298:238|393:264,1,187.000005706787,2|8,0:0|0:0,0:0:0:0:
489,311,24062,1,2,0:0:0:0:
410,151,24229,1,0,0:0:0:0:
386,259,24395,1,2,0:0:0:0:
362,357,24562,1,8,0:0:0:0:
274,272,24729,1,0,0:0:0:0:
467,217,24895,6,0,P|350:191|260:169,1,187.000005706787,2|8,0:0|0:0,0:0:0:0:
254,12,25395,1,2,0:0:0:0:
357,108,25562,2,0,P|303:97|257:85,1,93.5000028533936
35,37,25895,1,10,0:0:0:0:
88,116,26062,1,0,0:0:0:0:
190,14,26229,6,0,P|168:108|194:210,1,187.000005706787,2|8,0:0|0:0,0:0:0:0:
270,316,26729,1,2,0:0:0:0:
270,316,26812,1,2,0:0:0:0:
270,316,26895,1,2,0:0:0:0:
183,197,27062,1,0,0:0:0:0:
359,161,27229,1,10,0:0:0:0:
270,316,27395,1,0,0:0:0:0:
93,357,27562,6,0,P|111:266|89:175,1,187.000005706787,2|8,0:0|0:0,0:0:0:0:
25,66,28062,1,2,0:0:0:0:
166,114,28229,2,0,P|217:103|272:90,1,93.5000028533936
367,29,28562,1,10,0:0:0:0:
300,185,28729,1,0,0:0:0:0:
300,185,28812,1,0,0:0:0:0:
300,185,28895,6,0,P|236:200|201:209,1,93.5000028533936,2|0,0:0|0:0,0:0:0:0:
30,148,29229,2,0,L|54:279,1,93.5000028533936,8|2,0:0|0:0,0:0:0:0:
151,343,29562,2,0,L|135:252,1,93.5000028533936
58,320,29895,1,10,0:0:0:0:
119,164,30062,1,0,0:0:0:0:
221,219,30229,6,0,P|276:240|409:184,1,187.000005706787,2|8,0:0|0:0,0:0:0:0:
459,126,30729,1,2,0:0:0:0:
321,40,30895,2,0,L|337:138,1,93.5000028533936
377,318,31229,1,10,0:0:0:0:
365,232,31395,1,0,0:0:0:0:
365,232,31479,1,0,0:0:0:0:
365,232,31562,5,2,0:0:0:0:
255,204,31729,1,2,0:0:0:0:
145,179,31895,1,10,0:0:0:0:
233,138,32062,5,10,0:0:0:0:
63,195,32229,1,2,0:0:0:0:
131,318,32395,1,2,0:0:0:0:
154,208,32562,1,10,0:0:0:0:
185,100,32729,1,2,0:0:0:0:
185,100,32812,1,2,0:0:0:0:
185,100,32895,6,0,P|239:115|387:93,1,187.000005706787,4|8,0:0|0:0,0:0:0:0:
136,50,33395,1,2,0:0:0:0:
136,50,33562,2,0,P|144:106|152:176,1,93.5000028533936,2|0,0:0|0:0,0:0:0:0:
160,297,33895,1,10,0:0:0:0:
245,197,34062,1,0,0:0:0:0:
62,265,34229,6,0,P|53:180|39:68,1,187.000005706787,2|8,0:0|0:0,0:0:0:0:
141,13,34729,1,2,0:0:0:0:
151,107,34895,1,0,0:0:0:0:
42,80,35062,1,2,0:0:0:0:
260,134,35229,2,0,P|275:81|279:26,1,93.5000028533936,10|0,0:0|0:0,0:0:0:0:
175,196,35479,1,2,0:0:0:0:
175,196,35562,6,0,L|372:170,1,187.000005706787,2|8,0:0|0:0,0:0:0:0:
468,110,36062,1,2,0:0:0:0:
414,344,36229,1,0,0:0:0:0:
347,252,36395,1,0,0:0:0:0:
451,191,36562,1,10,0:0:0:0:
257,340,36729,1,2,0:0:0:0:
257,340,36812,1,2,0:0:0:0:
257,340,36895,6,0,P|142:334|96:264,1,187.000005706787,2|8,0:0|0:0,0:0:0:0:
134,174,37395,1,2,0:0:0:0:
3,226,37562,2,0,L|22:333,1,93.5000028533936,2|0,0:0|0:0,0:0:0:0:
224,224,37895,2,0,L|207:131,1,93.5000028533936,10|0,0:0|0:0,0:0:0:0:
185,30,38145,1,0,0:0:0:0:
185,30,38229,6,0,P|266:50|383:63,1,187.000005706787,2|8,0:0|0:0,0:0:0:0:
488,40,38729,1,2,0:0:0:0:
394,175,38895,2,0,P|344:165|287:158,1,93.5000028533936
108,220,39229,1,10,0:0:0:0:
190,100,39395,1,0,0:0:0:0:
235,316,39562,6,0,P|227:270|219:200,1,93.5000028533936,2|0,0:0|0:0,0:0:0:0:
122,133,39895,1,8,0:0:0:0:
358,23,40062,5,2,0:0:0:0:
298,115,40229,2,0,P|303:161|311:207,2,93.5000028533936,0|0|10,0:0|0:0|0:0,0:0:0:0:
124,208,40729,1,2,0:0:0:0:
124,208,40812,1,2,0:0:0:0:
124,208,40895,5,2,0:0:0:0:
256,148,41062,1,8,3:0:0:0:
155,303,41229,1,0,0:0:0:0:
111,108,41395,1,8,3:0:0:0:
244,213,41562,5,0,0:0:0:0:
354,185,41729,1,8,3:0:0:0:
255,338,41895,5,0,0:0:0:0:
146,367,42062,1,0,0:0:0:0:
29,176,42229,6,0,P|86:165|163:210,1,140.25000428009,4|0,0:0|0:0,0:0:0:0:
177,224,42562,2,0,L|195:123,1,93.5000028533936,8|2,0:0|0:0,0:0:0:0:
214,26,42895,5,0,0:0:0:0:
301,145,43062,1,0,0:0:0:0:
162,123,43229,5,10,0:0:0:0:
373,74,43395,1,0,0:0:0:0:
373,74,43479,1,0,0:0:0:0:
373,74,43562,6,0,P|390:149|359:246,1,152.999995330811,2|0,0:0|0:0,0:0:0:0:
250,187,44062,1,0,0:0:0:0:
344,308,44229,2,0,L|437:292,1,76.4999976654053,8|0,0:0|0:0,0:0:0:0:
247,253,44562,1,0,0:0:0:0:
156,275,44729,1,0,0:0:0:0:
67,296,44895,6,0,P|28:280|-8:267,1,76.4999976654053,0|0,3:0|0:0,0:0:0:0:
119,197,45229,2,0,P|154:183|190:169,1,76.4999976654053
26,76,45562,2,0,L|42:164,1,76.4999976654053,8|0,0:0|0:0,0:0:0:0:
80,332,45895,1,8,0:0:0:0:
80,332,45979,1,8,0:0:0:0:
80,332,46062,1,8,0:0:0:0:
80,332,46145,1,8,0:0:0:0:
80,332,46229,6,0,P|151:313|230:334,1,152.999995330811,4|0,0:0|0:0,0:0:0:0:
306,262,46729,1,0,0:0:0:0:
373,329,46895,2,0,L|394:228,1,76.4999976654053,8|0,0:0|0:0,0:0:0:0:
447,187,47229,2,0,L|426:86,1,76.4999976654053
406,24,47729,5,2,0:0:0:0:
406,24,47895,1,10,0:0:0:0:
321,110,48062,1,8,0:0:0:0:
321,110,48229,2,0,P|275:101|230:89,1,76.4999976654053,2|0,0:0|0:0,0:0:0:0:
153,203,48562,2,0,P|199:212|244:224,1,76.4999976654053,2|0,0:0|0:0,0:0:0:0:
85,115,48895,6,0,P|46:180|59:269,1,152.999995330811,2|0,0:0|0:0,0:0:0:0:
97,355,49562,5,2,0:0:0:0:
97,355,49729,2,0,P|139:345|194:336,1,76.4999976654053
254,276,50062,1,0,0:0:0:0:
254,276,50229,2,0,P|296:286|351:295,1,76.4999976654053,0|8,0:0|0:0,0:0:0:0:
434,347,50562,2,0,P|443:282|461:163,2,152.999995330811,2|8|0,0:0|0:0|0:0,0:0:0:0:
329,214,51395,1,2,0:0:0:0:
329,214,51479,1,2,0:0:0:0:
329,214,51562,6,0,P|321:159|310:108,1,76.4999976654053,2|0,0:0|0:0,0:0:0:0:
197,44,51895,1,0,0:0:0:0:
280,64,52062,1,0,0:0:0:0:
371,11,52229,2,0,P|432:26|473:35,1,76.4999976654053,8|0,0:0|0:0,0:0:0:0:
316,138,52562,1,0,0:0:0:0:
316,138,52729,6,0,P|255:123|214:114,1,76.4999976654053
119,167,53062,1,0,0:0:0:0:
165,335,53229,2,0,P|211:288|216:214,1,114.749996498108
192,247,53562,1,8,0:0:0:0:
154,253,53645,1,0,0:0:0:0:
116,259,53729,1,0,0:0:0:0:
78,266,53812,1,0,0:0:0:0:
40,273,53895,2,0,L|-59:291,1,76.4999976654053
79,55,54229,6,0,P|96:121|70:220,1,152.999995330811,4|0,0:0|0:0,0:0:0:0:
12,96,54729,1,0,0:0:0:0:
174,155,54895,1,8,0:0:0:0:
76,201,55062,1,0,0:0:0:0:
108,106,55229,1,0,0:0:0:0:
139,11,55395,1,0,0:0:0:0:
212,78,55562,5,0,0:0:0:0:
212,78,55729,2,0,P|279:61|317:51,1,76.4999976654053
382,164,56062,5,0,0:0:0:0:
382,164,56229,2,0,P|315:181|277:191,1,76.4999976654053,8|0,0:0|0:0,0:0:0:0:
165,182,56562,1,0,0:0:0:0:
165,182,56645,1,0,0:0:0:0:
165,182,56729,1,0,0:0:0:0:
165,182,56812,1,0,0:0:0:0:
165,182,56895,6,0,P|177:258|187:346,1,152.999995330811,2|0,0:0|0:0,0:0:0:0:
71,232,57395,1,0,0:0:0:0:
196,283,57562,2,0,P|242:270|275:258,1,76.4999976654053,8|0,0:0|0:0,0:0:0:0:
433,197,57895,1,0,0:0:0:0:
354,359,58062,6,0,P|339:291|359:193,1,152.999995330811
449,296,58562,1,8,0:0:0:0:
349,222,58729,1,0,0:0:0:0:
247,311,58895,1,8,0:0:0:0:
117,142,59062,1,0,0:0:0:0:
40,346,59229,1,0,1:2:0:0:
84,360,59312,1,0,1:2:0:0:
130,350,59395,1,0,1:2:0:0:
164,317,59479,1,0,1:2:0:0:
176,271,59562,6,0,P|189:211|200:174,1,85,4|0,0:0|0:0,0:0:0:0:
339,88,59895,1,8,0:0:0:0:
208,33,60062,2,0,P|142:50|106:59,1,85
113,209,60395,2,0,P|179:192|215:183,1,85,0|8,0:0|0:0,0:0:0:0:
282,68,60729,1,0,0:0:0:0:
327,234,60895,6,0,P|334:192|343:151,1,85
221,352,61229,2,0,P|213:310|205:268,1,85,8|0,0:0|0:0,0:0:0:0:
102,158,61562,1,0,0:0:0:0:
205,268,61729,1,0,0:0:0:0:
23,325,61895,1,8,0:0:0:0:
66,240,62062,1,0,0:0:0:0:
185,378,62229,5,8,0:0:0:0:
131,191,62395,1,0,0:0:0:0:
219,272,62562,5,8,0:0:0:0:
265,83,62729,1,0,0:0:0:0:
319,189,62895,5,8,0:0:0:0:
453,48,63062,1,0,0:0:0:0:
417,288,63229,5,8,0:0:0:0:
149,229,63395,1,0,0:0:0:0:
303,62,63562,6,0,L|294:112,1,42.5
288,141,63729,1,8,3:0:0:0:
244,340,64062,5,2,0:0:0:0:
272,225,64229,1,2,0:0:0:0:
77,290,64395,1,8,3:0:0:0:
92,329,64479,1,8,3:0:0:0:
124,356,64562,1,8,3:3:0:0:
165,367,64645,1,8,3:0:0:0:
206,359,64729,2,8,L|257:331,1,42.5,12|12,3:0|3:0,3:0:0:0:
329,303,64895,6,0,L|161:264,1,152.999995330811,4|0,0:0|0:0,0:0:0:0:
147,262,65229,2,0,P|151:205|177:155,1,101.999996887207,8|0,0:0|0:0,0:0:0:0:
322,242,65562,1,0,0:0:0:0:
147,381,65729,5,0,0:0:0:0:
228,275,65895,1,8,0:0:0:0:
350,339,66062,2,0,P|405:321|455:307,1,101.999996887207,2|0,0:0|0:0,0:0:0:0:
272,128,66395,1,0,0:0:0:0:
447,190,66562,2,0,P|392:208|342:222,1,101.999996887207,8|0,0:0|0:0,0:0:0:0:
201,88,66895,5,0,0:0:0:0:
257,185,67062,1,0,0:0:0:0:
222,292,67229,1,8,0:0:0:0:
131,357,67395,1,2,0:0:0:0:
131,357,67479,1,0,0:0:0:0:
131,357,67562,6,0,L|7:327,1,101.999996887207,4|0,0:0|0:0,0:0:0:0:
129,210,67895,1,8,0:0:0:0:
206,292,68062,1,0,0:0:0:0:
294,145,68229,2,0,P|303:79|295:38,1,101.999996887207
184,194,68562,1,8,0:0:0:0:
263,254,68729,6,0,P|321:239|377:227,1,101.999996887207,8|0,0:0|0:0,0:0:0:0:
212,88,69062,2,0,P|162:100|112:112,1,101.999996887207,8|2,0:0|0:0,0:0:0:0:
214,182,69395,1,8,0:0:0:0:
292,45,69562,1,2,0:0:0:0:
157,16,69729,1,2,0:0:0:0:
157,16,69812,1,2,0:0:0:0:
157,16,69895,2,2,P|143:83|143:102,1,50.9999984436036,10|2,0:0|0:0,0:0:0:0:
300,189,70062,2,2,P|294:164|286:139,1,50.9999984436036,2|2,0:0|0:0,0:0:0:0:
115,284,70229,6,0,B|189:262|189:262|319:306,2,203.999993774414,4|8|0,0:0|0:0|0:0,0:0:0:0:
17,318,71062,1,0,0:0:0:0:
131,372,71229,1,8,0:0:0:0:
187,129,71395,1,2,0:0:0:0:
187,129,71479,1,2,0:0:0:0:
187,129,71562,6,0,P|239:143|298:155,1,101.999996887207
380,123,71895,1,8,0:0:0:0:
133,320,72062,1,0,0:0:0:0:
287,263,72229,2,0,P|234:248|176:237,1,101.999996887207
312,363,72562,1,8,0:0:0:0:
428,204,72729,6,0,P|422:146|411:92,1,101.999996887207
226,246,73062,1,0,0:0:0:0:
452,303,73229,2,0,P|401:311|352:322,1,101.999996887207,8|0,0:0|0:0,0:0:0:0:
206,145,73562,2,0,P|256:153|306:163,1,101.999996887207,8|0,0:0|0:0,0:0:0:0:
127,294,73895,1,0,0:0:0:0:
107,188,74062,6,0,L|93:81,1,101.999996887207,8|0,0:0|0:0,0:0:0:0:
278,160,74395,1,8,0:0:0:0:
123,271,74562,1,8,0:0:0:0:
294,65,74729,1,2,0:0:0:0:
329,78,74812,1,2,0:0:0:0:
356,105,74895,1,2,0:0:0:0:
371,140,74979,1,2,0:0:0:0:
372,178,75062,2,2,P|363:212|350:239,1,50.9999984436036
176,311,75229,2,2,P|185:277|198:250,1,50.9999984436036,10|2,0:0|0:0,0:0:0:0:
354,353,75395,2,2,P|320:343|293:330,1,50.9999984436036
221,156,75562,6,0,P|254:165|279:176,1,51,10|0,0:0|0:0,0:0:0:0:
368,205,75895,6,0,P|394:129|380:21,1,178.499994552612,12|0,0:0|0:0,0:0:0:0:
376,14,76229,1,8,0:0:0:0:
182,163,76395,2,0,L|195:220,1,50.9999984436036,4|0,3:0|0:0,0:0:0:0:
198,239,76562,1,8,0:0:0:0:
351,345,76729,6,0,P|364:302|342:239,1,101.999996887207
205,317,77062,1,0,0:0:0:0:
321,161,77229,2,0,P|376:172|429:181,1,101.999996887207,8|0,0:0|0:0,0:0:0:0:
305,335,77562,2,0,P|250:324|197:315,2,101.999996887207,8|0|8,0:0|0:0|0:0,0:0:0:0:
121,197,78062,1,2,0:0:0:0:
121,197,78145,1,2,0:0:0:0:
121,197,78229,6,0,P|99:263|115:338,1,101.999996887207,4|0,0:0|0:0,0:0:0:0:
187,356,78562,1,8,0:0:0:0:
121,173,78729,1,0,0:0:0:0:
279,230,78895,2,0,P|340:219|386:209,1,101.999996887207
457,122,79229,1,8,0:0:0:0:
458,309,79395,6,0,P|397:320|351:330,1,101.999996887207,8|0,0:0|0:0,0:0:0:0:
208,287,79729,2,0,P|197:226|187:180,1,101.999996887207,8|8,0:0|0:0,0:0:0:0:
336,223,80062,1,2,0:0:0:0:
232,371,80229,1,0,0:0:0:0:
176,109,80395,1,0,0:0:0:0:
339,223,80562,1,10,0:0:0:0:
149,344,80729,2,2,P|114:325|89:305,1,50.9999984436036
39,265,80895,6,0,P|50:204|60:158,1,101.999996887207,4|0,0:0|0:0,0:0:0:0:
111,84,81229,1,8,0:0:0:0:
160,220,81395,1,0,0:0:0:0:
297,157,81562,2,0,P|244:149|194:139,1,101.999996887207
217,296,81895,2,0,P|267:303|317:313,1,101.999996887207,8|0,0:0|0:0,0:0:0:0:
434,235,82229,6,0,P|455:171|431:36,1,203.999993774414,0|8,0:0|0:0,0:0:0:0:
333,154,82729,1,2,0:0:0:0:
268,75,82895,2,0,P|199:88|149:97,1,101.999996887207
279,259,83229,2,0,P|348:246|398:237,1,101.999996887207,10|0,0:0|0:0,0:0:0:0:
172,178,83562,5,0,0:0:0:0:
141,264,83729,1,2,0:0:0:0:
111,350,83895,1,8,0:0:0:0:
63,288,84062,5,8,0:0:0:0:
217,233,84229,1,0,0:0:0:0:
171,76,84395,1,0,0:0:0:0:
16,130,84562,1,10,0:0:0:0:
218,232,84729,1,0,0:0:0:0:
253,130,84895,6,0,P|260:75|247:0,1,101.999996887207,2|0,0:0|0:0,0:0:0:0:
86,222,85229,1,8,0:0:0:0:
198,196,85395,1,8,0:0:0:0:
324,166,85562,2,0,P|328:216|321:267,1,101.999996887207,2|0,0:0|0:0,0:0:0:0:
153,365,85895,2,0,P|146:314|150:263,1,101.999996887207,10|0,0:0|0:0,0:0:0:0:
304,355,86229,6,0,P|356:341|439:324,1,101.999996887207
403,330,86562,1,8,0:0:0:0:
236,217,86729,1,8,0:0:0:0:
153,365,86895,1,0,0:0:0:0:
300,304,87062,1,0,0:0:0:0:
300,304,87145,1,0,0:0:0:0:
300,304,87229,1,8,0:0:0:0:
123,224,87395,1,0,0:0:0:0:
343,158,87562,5,0,0:0:0:0:
198,75,87729,1,0,0:0:0:0:
243,223,87895,1,8,0:0:0:0:
400,66,88062,1,0,0:0:0:0:
400,66,88145,1,0,0:0:0:0:
400,66,88229,2,0,P|382:27|370:10,1,50.9999984436036,8|0,0:0|0:0,0:0:0:0:
220,177,88395,2,0,P|238:216|250:233,1,50.9999984436036
462,224,88562,6,0,P|452:307|445:385,1,152.999995330811,8|4,0:0|0:0,0:0:0:0:
256,192,92895,12,0,94062,0:0:0:0:
359,264,94229,6,0,P|373:217|386:172,1,76.4999976654053,4|0,0:0|0:0,0:0:0:0:
270,38,94562,1,0,0:0:0:0:
408,98,94729,1,0,0:0:0:0:
257,149,94895,2,0,P|246:175|238:195,1,38.2499988327027,8|0,0:0|0:0,0:0:0:0:
306,258,95062,2,0,P|290:303|276:346,1,76.4999976654053
164,258,95395,1,2,0:0:0:0:
164,258,95479,1,2,0:0:0:0:
164,258,95562,5,8,0:0:0:0:
280,222,95729,1,0,0:0:0:0:
157,166,95895,1,0,0:0:0:0:
208,337,96062,1,0,0:0:0:0:
298,216,96229,1,8,0:0:0:0:
129,292,96395,2,0,P|98:283|78:277,1,38.2499988327027,2|0,0:0|0:0,0:0:0:0:
77,200,96562,1,8,0:0:0:0:
77,200,96645,1,0,0:0:0:0:
77,200,96729,2,0,P|46:191|26:185,1,38.2499988327027,8|0,0:0|0:0,0:0:0:0:
74,116,96895,6,0,P|65:70|64:34,1,76.4999976654053,4|0,0:0|0:0,0:0:0:0:
156,159,97229,1,2,0:0:0:0:
220,71,97395,1,0,0:0:0:0:
220,71,97479,1,0,0:0:0:0:
220,71,97562,2,0,P|277:61|324:52,1,76.4999976654053,8|0,0:0|0:0,0:0:0:0:
408,37,97895,1,0,0:0:0:0:
351,136,98062,1,0,0:0:0:0:
463,111,98229,6,0,P|457:165|453:200,1,76.4999976654053,8|0,0:0|0:0,0:0:0:0:
440,317,98562,1,0,0:0:0:0:
329,244,98729,2,2,L|389:234,1,38.2499988327027
397,233,98895,5,8,0:0:0:0:
241,258,99062,1,0,0:0:0:0:
418,231,99229,5,8,0:0:0:0:
223,261,99395,1,0,0:0:0:0:
338,138,99562,6,0,B|245:152,1,76.4999976654053,4|2,0:0|0:0,0:0:0:0:
187,163,99812,1,2,0:0:0:0:
187,163,99895,1,2,0:0:0:0:
260,251,100062,1,0,0:0:0:0:
113,343,100229,2,0,L|119:291,1,38.2499988327027,8|0,0:0|0:0,0:0:0:0:
128,222,100395,1,0,0:0:0:0:
197,297,100562,6,0,P|191:341|186:387,1,76.4999976654053,2|0,0:0|0:0,0:0:0:0:
29,352,100895,2,0,P|35:308|40:262,1,76.4999976654053,8|0,0:0|0:0,0:0:0:0:
38,276,101145,1,0,0:0:0:0:
38,276,101229,1,8,0:0:0:0:
123,232,101395,1,0,0:0:0:0:
108,358,101562,6,0,L|116:296,1,38.2499988327027,8|0,0:0|0:0,0:0:0:0:
134,167,101729,1,2,0:0:0:0:
134,167,101812,1,0,0:0:0:0:
134,167,101895,1,0,0:0:0:0:
167,185,101979,1,0,0:0:0:0:
205,189,102062,1,2,0:0:0:0:
241,179,102145,1,0,0:0:0:0:
271,155,102229,6,0,P|278:110|269:63,1,76.4999976654053,8|0,0:0|0:0,0:0:0:0:
193,22,102562,2,0,P|186:67|195:114,1,76.4999976654053
345,222,102895,2,0,L|184:258,1,152.999995330811,2|0,0:0|0:0,0:0:0:0:
116,177,103395,1,2,0:0:0:0:
116,177,103479,1,0,0:0:0:0:
116,177,103562,5,8,0:0:0:0:
184,258,103729,1,0,0:0:0:0:
72,331,103895,1,0,0:0:0:0:
121,145,104062,1,0,0:0:0:0:
185,342,104229,5,8,0:0:0:0:
226,183,104395,1,0,0:0:0:0:
296,353,104562,1,8,0:0:0:0:
301,324,104645,1,0,0:0:0:0:
307,296,104729,1,2,0:0:0:0:
313,268,104812,1,0,0:0:0:0:
318,240,104895,6,0,P|362:249|402:258,1,76.4999976654053,4|0,0:0|0:0,0:0:0:0:
468,155,105229,2,0,P|424:146|384:137,1,76.4999976654053
279,52,105562,2,0,P|292:109|299:147,1,76.4999976654053,8|0,0:0|0:0,0:0:0:0:
169,273,105895,1,0,0:0:0:0:
278,220,106062,1,10,0:0:0:0:
278,220,106145,1,0,0:0:0:0:
278,220,106229,5,0,0:0:0:0:
157,187,106395,1,8,0:0:0:0:
209,323,106562,1,8,0:0:0:0:
266,135,106729,1,0,0:0:0:0:
138,263,106895,1,8,0:0:0:0:
245,370,107062,1,0,0:0:0:0:
346,294,107229,2,0,P|324:286|307:279,1,38.2499988327027,8|0,0:0|0:0,0:0:0:0:
140,220,107395,1,2,0:0:0:0:
140,220,107479,1,2,0:0:0:0:
140,220,107562,6,0,P|184:209|246:189,1,76.4999976654053,4|0,0:0|0:0,0:0:0:0:
299,142,107895,1,0,0:0:0:0:
299,250,108062,1,0,0:0:0:0:
299,250,108145,1,0,0:0:0:0:
299,250,108229,2,0,P|309:296|318:342,1,76.4999976654053
211,290,108562,1,0,0:0:0:0:
386,238,108729,6,0,L|393:185,1,38.2499988327027
399,125,108895,1,8,0:0:0:0:
377,315,109062,1,0,0:0:0:0:
283,260,109229,5,8,0:0:0:0:
296,373,109395,1,0,0:0:0:0:
478,176,109562,5,8,0:0:0:0:
465,289,109729,1,2,0:0:0:0:
239,308,109895,6,0,L|298:296,1,38.2499988327027,8|0,0:0|0:0,0:0:0:0:
356,284,110062,1,0,0:0:0:0:
134,332,110229,1,4,0:0:0:0:
230,235,110395,6,0,P|241:319|214:411,1,152.999995330811,2|0,0:0|0:0,0:0:0:0:
52,247,110895,2,0,P|102:257|138:266,1,76.4999976654053,8|0,0:0|0:0,0:0:0:0:
126,263,111145,1,0,0:0:0:0:
126,263,111229,1,0,0:0:0:0:
181,131,111395,1,0,0:0:0:0:
70,177,111562,5,8,0:0:0:0:
209,128,111729,1,0,0:0:0:0:
164,262,111895,1,8,0:0:0:0:
138,100,112062,5,0,0:0:0:0:
230,301,112229,1,8,0:0:0:0:
307,143,112395,1,0,0:0:0:0:
82,222,112562,5,0,0:0:0:0:
109,195,112645,1,0,0:0:0:0:
144,180,112729,1,0,0:0:0:0:
182,177,112812,1,0,0:0:0:0:
218,188,112895,6,0,P|231:121|203:18,1,152.999995330811
118,115,113395,1,0,0:0:0:0:
155,238,113562,2,0,L|317:201,1,152.999995330811,8|0,0:0|0:0,0:0:0:0:
401,186,114062,1,0,0:0:0:0:
401,186,114145,1,0,0:0:0:0:
401,186,114229,6,0,P|393:246|389:295,1,76.4999976654053,8|0,0:0|0:0,0:0:0:0:
456,357,114562,1,0,0:0:0:0:
318,337,114729,2,0,P|313:298|308:261,1,76.4999976654053,8|0,0:0|0:0,0:0:0:0:
220,302,115062,1,0,0:0:0:0:
297,129,115229,5,8,0:0:0:0:
269,155,115312,1,0,0:0:0:0:
235,172,115395,1,0,0:0:0:0:
198,178,115478,1,8,0:0:0:0:
160,173,115562,6,0,P|119:163|65:151,1,85,4|0,0:0|0:0,0:0:0:0:
266,71,115895,2,0,P|273:124|257:188,1,85,8|0,0:0|0:0,0:0:0:0:
227,305,116229,1,0,0:0:0:0:
352,273,116395,1,0,0:0:0:0:
227,218,116562,1,8,0:0:0:0:
177,374,116729,1,0,0:0:0:0:
406,338,116895,6,0,P|341:351|316:357,1,85
227,218,117229,2,0,P|292:205|317:199,1,85,8|0,0:0|0:0,0:0:0:0:
401,107,117562,1,0,0:0:0:0:
474,164,117729,1,0,0:0:0:0:
406,338,117895,2,0,P|384:291|413:190,1,127.5,8|0,0:0|0:0,0:0:0:0:
456,212,118229,6,0,P|386:202|282:180,1,170,2|8,0:0|0:0,0:0:0:0:
238,92,118729,1,0,0:0:0:0:
339,43,118895,1,0,0:0:0:0:
390,145,119062,1,0,0:0:0:0:
284,206,119229,2,0,P|271:250|262:310,1,85,8|0,0:0|0:0,0:0:0:0:
418,383,119562,5,4,3:0:0:0:
342,339,119729,1,0,0:0:0:0:
255,363,119895,2,0,L|154:341,1,85,8|0,0:0|0:0,0:0:0:0:
22,213,120229,1,8,0:0:0:0:
64,356,120395,1,8,0:0:0:0:
190,216,120562,1,8,0:0:0:0:
114,56,120729,1,0,0:0:0:0:
114,56,120812,1,8,0:0:0:0:
114,56,120895,6,0,P|94:127|120:234,1,170,0|8,0:0|0:0,0:0:0:0:
236,346,121395,1,0,0:0:0:0:
338,140,121562,2,0,P|291:150|240:158,1,85,2|0,0:0|0:0,0:0:0:0:
182,281,121895,2,0,P|229:271|280:263,1,85,8|0,0:0|0:0,0:0:0:0:
424,359,122229,5,0,0:0:0:0:
424,359,122395,1,0,0:0:0:0:
368,208,122562,2,0,P|358:261|351:313,1,85,8|0,0:0|0:0,0:0:0:0:
259,381,122895,2,0,P|252:338|244:297,1,85,2|0,0:0|0:0,0:0:0:0:
67,204,123229,2,0,P|135:192|169:185,1,85,8|0,0:0|0:0,0:0:0:0:
320,36,123562,6,0,P|240:50|150:65,1,170,0|8,0:0|0:0,0:0:0:0:
39,23,124062,1,0,0:0:0:0:
52,193,124229,2,0,P|66:140|76:102,1,85
208,176,124562,1,8,0:0:0:0:
208,176,124729,2,0,P|194:229|184:267,1,85
10,331,125062,5,0,0:0:0:0:
89,295,125229,1,8,0:0:0:0:
141,377,125395,1,0,0:0:0:0:
310,247,125562,1,8,0:0:0:0:
273,226,125645,1,0,0:0:0:0:
231,228,125728,1,8,0:0:0:0:
197,252,125811,1,0,0:0:0:0:
181,290,125895,2,0,L|166:189,1,85,8|0,0:0|0:0,0:0:0:0:
152,80,126229,6,0,P|220:92|338:107,2,170,2|8|0,0:0|0:0|0:0,0:0:0:0:
47,26,127062,1,0,0:0:0:0:
79,198,127229,2,0,P|134:188|174:182,1,85,8|0,0:0|0:0,0:0:0:0:
211,349,127562,5,0,0:0:0:0:
292,207,127729,1,0,0:0:0:0:
430,295,127895,2,0,P|388:302|346:309,1,85,8|0,0:0|0:0,0:0:0:0:
165,273,128229,5,0,0:0:0:0:
265,352,128395,1,0,0:0:0:0:
307,128,128562,1,8,0:0:0:0:
144,232,128729,1,0,0:0:0:0:
144,232,128812,1,8,0:0:0:0:
144,232,128895,2,0,P|135:183|124:128,1,85
102,14,129229,5,8,0:0:0:0:
200,89,129395,1,0,0:0:0:0:
288,45,129562,2,0,L|386:62,1,85
474,172,129895,1,8,0:0:0:0:
366,263,130062,1,0,0:0:0:0:
266,153,130229,6,0,L|246:245,1,85
241,270,130479,1,0,0:0:0:0:
241,270,130562,1,8,0:0:0:0:
132,246,130729,1,0,0:0:0:0:
225,363,130895,1,8,0:0:0:0:
380,122,131062,6,0,L|391:67,1,42.5,8|0,0:0|0:0,0:0:0:0:
274,174,131229,1,8,0:0:0:0:
305,284,131395,1,8,0:0:0:0:
453,321,131562,6,0,P|449:234|393:216,1,133.874995914459,4|0,0:0|0:0,0:0:0:0:
376,215,131895,1,8,0:0:0:0:
322,341,132062,1,0,0:0:0:0:
257,142,132229,1,8,0:0:0:0:
192,269,132395,1,0,0:0:0:0:
402,206,132562,1,8,0:0:0:0:
174,107,132729,1,0,0:0:0:0:
379,82,132895,5,8,0:0:0:0:
237,224,133062,1,0,0:0:0:0:
473,148,133229,1,8,0:0:0:0:
197,82,133395,1,0,0:0:0:0:
424,271,133562,5,8,0:0:0:0:
343,49,133729,1,0,0:0:0:0:
183,229,133895,1,8,0:0:0:0:
350,29,134062,1,0,0:0:0:0:
295,312,134229,6,0,B|231:328|169:354|169:354|119:332,2,178.499994552612,0|8|0,0:0|0:0|0:0,0:0:0:0:
375,195,135229,2,0,P|364:142|357:104,1,89.2499972763062,8|0,0:0|0:0,0:0:0:0:
445,340,135562,6,0,P|345:359|286:274,1,178.499994552612
202,191,136395,1,4,3:0:0:0:
202,191,136562,1,4,3:0:0:0:
132,360,136729,6,0,P|113:278|85:161,1,187.000005706787,4|0,0:0|0:0,0:0:0:0:
203,41,137229,2,0,P|128:61|87:71,1,93.5000028533936,8|0,0:0|0:0,0:0:0:0:
12,45,137562,1,0,0:0:0:0:
87,175,137729,1,0,0:0:0:0:
292,30,137895,6,0,P|324:34|358:46,1,46.7500014266968,8|0,0:0|0:0,0:0:0:0:
374,186,138062,2,0,L|395:95,1,93.5000028533936
340,349,138395,1,0,0:0:0:0:
340,349,138479,1,0,0:0:0:0:
340,349,138562,2,0,P|264:333|211:323,1,93.5000028533936,10|0,0:0|0:0,0:0:0:0:
202,184,138895,2,0,P|278:200|331:210,1,93.5000028533936
149,344,139229,1,8,0:0:0:0:
137,55,139395,5,2,0:0:0:0:
137,55,139479,1,0,0:0:0:0:
137,55,139562,1,6,0:0:0:0:
208,154,139729,1,0,0:0:0:0:
103,247,139895,1,8,0:0:0:0:
22,150,140062,1,0,0:0:0:0:
209,255,140229,6,0,L|185:355,1,93.5000028533936,2|0,0:0|0:0,0:0:0:0:
235,160,140562,1,8,0:0:0:0:
401,225,140729,2,0,P|350:237|310:247,1,93.5000028533936,8|0,0:0|0:0,0:0:0:0:
175,121,141062,2,0,P|226:109|265:98,1,93.5000028533936,8|8,0:0|0:0,0:0:0:0:
279,18,141395,1,8,0:0:0:0:
454,129,141562,1,0,0:0:0:0:
325,208,141729,5,2,0:0:0:0:
325,208,141812,1,2,0:0:0:0:
325,208,141895,2,0,P|314:241|309:267,1,46.7500014266968,10|2,0:0|0:0,0:0:0:0:
417,367,142062,2,0,P|386:356|360:349,1,46.7500014266968,2|2,0:0|0:0,0:0:0:0:
211,326,142229,6,0,B|159:271|168:198|168:198|225:161,2,187.000005706787,4|8|0,0:0|0:0|0:0,0:0:0:0:
411,238,143062,1,0,0:0:0:0:
231,92,143229,1,8,0:0:0:0:
360,21,143395,1,0,0:0:0:0:
360,21,143479,1,0,0:0:0:0:
360,21,143562,6,0,P|369:78|348:135,1,93.5000028533936
249,163,143895,1,8,0:0:0:0:
352,233,144062,1,0,0:0:0:0:
245,359,144229,2,0,P|254:302|233:245,1,93.5000028533936
64,194,144562,1,8,0:0:0:0:
239,135,144729,6,0,P|184:118|136:101,1,93.5000028533936
354,53,145062,1,0,0:0:0:0:
228,229,145229,2,0,P|241:281|257:351,1,93.5000028533936,8|0,0:0|0:0,0:0:0:0:
365,351,145562,1,8,0:0:0:0:
446,212,145729,2,0,P|385:224|334:237,1,93.5000028533936
300,32,146062,5,8,0:0:0:0:
250,148,146229,2,0,P|311:136|362:123,1,93.5000028533936,8|0,0:0|0:0,0:0:0:0:
142,104,146562,1,8,0:0:0:0:
168,211,146729,1,0,0:0:0:0:
192,322,146895,2,0,P|241:347|290:348,1,93.5000028533936,8|0,0:0|0:0,0:0:0:0:
108,284,147229,5,8,0:0:0:0:
23,365,147395,2,0,P|1:319|42:188,1,187.000005706787,2|0,0:0|0:0,0:0:0:0:
224,106,147895,2,0,P|165:94|125:84,1,93.5000028533936,4|0,0:0|0:0,0:0:0:0:
312,38,148229,1,8,0:0:0:0:
276,186,148395,2,0,L|267:234,1,46.7500014266968,4|0,3:0|0:0,0:0:0:0:
260,263,148562,1,8,0:0:0:0:
411,364,148729,6,0,P|436:281|407:185,1,187.000005706787
343,226,149145,1,0,0:0:0:0:
343,226,149229,2,0,P|286:210|248:198,1,93.5000028533936,8|0,0:0|0:0,0:0:0:0:
120,286,149562,1,0,0:0:0:0:
211,333,149729,1,0,0:0:0:0:
294,273,149895,1,8,0:0:0:0:
274,117,150062,1,2,0:0:0:0:
274,117,150145,1,2,0:0:0:0:
274,117,150229,6,0,P|264:60|257:16,1,93.5000028533936,6|0,0:0|0:0,0:0:0:0:
378,127,150562,1,8,0:0:0:0:
306,260,150729,1,0,0:0:0:0:
117,124,150895,2,0,P|169:135|220:144,1,93.5000028533936
18,316,151229,1,8,0:0:0:0:
205,268,151395,6,0,P|153:257|102:248,1,93.5000028533936,8|0,0:0|0:0,0:0:0:0:
354,159,151729,2,0,P|345:204|335:250,1,93.5000028533936,8|0,0:0|0:0,0:0:0:0:
233,188,152062,1,8,0:0:0:0:
319,331,152229,1,0,0:0:0:0:
374,78,152395,1,0,0:0:0:0:
229,207,152562,1,8,0:0:0:0:
384,333,152729,2,0,P|431:323|446:315,1,46.7500014266968,2|2,0:0|0:0,0:0:0:0:
494,286,152895,6,0,P|503:240|510:193,1,93.5000028533936,8|0,0:0|0:0,0:0:0:0:
310,129,153229,1,8,0:0:0:0:
389,237,153395,1,0,0:0:0:0:
480,99,153562,2,0,P|417:113|357:123,1,93.5000028533936
261,264,153895,2,0,P|324:250|384:240,1,93.5000028533936,8|0,0:0|0:0,0:0:0:0:
227,143,154229,6,0,P|164:181|155:316,1,187.000005706787,0|8,0:0|0:0,0:0:0:0:
256,369,154729,1,0,0:0:0:0:
352,244,154895,2,0,P|306:253|261:264,1,93.5000028533936
64,319,155229,2,0,P|53:273|44:227,1,93.5000028533936,8|0,0:0|0:0,0:0:0:0:
257,178,155562,5,0,0:0:0:0:
173,284,155729,1,0,0:0:0:0:
121,125,155895,1,8,0:0:0:0:
352,159,156062,5,8,0:0:0:0:
199,373,156229,1,0,0:0:0:0:
380,287,156395,1,0,0:0:0:0:
165,219,156562,1,8,0:0:0:0:
398,99,156729,1,0,0:0:0:0:
161,18,156895,6,0,P|150:73|175:134,1,93.5000028533936
277,165,157229,1,8,0:0:0:0:
395,106,157395,1,8,0:0:0:0:
327,313,157562,2,0,P|277:302|226:292,1,93.5000028533936
363,179,157895,2,0,P|413:190|464:200,1,93.5000028533936,8|0,0:0|0:0,0:0:0:0:
254,66,158229,6,0,P|234:115|230:179,1,93.5000028533936
228,154,158562,1,8,0:0:0:0:
367,134,158729,1,8,0:0:0:0:
246,277,158895,1,0,0:0:0:0:
191,183,159062,1,0,0:0:0:0:
191,183,159145,1,0,0:0:0:0:
191,183,159229,1,8,0:0:0:0:
354,269,159395,1,0,0:0:0:0:
191,363,159562,5,0,0:0:0:0:
258,179,159729,1,0,0:0:0:0:
318,367,159895,1,8,0:0:0:0:
170,253,160062,1,0,0:0:0:0:
170,253,160145,1,0,0:0:0:0:
170,253,160229,2,0,P|197:245|226:232,1,46.7500014266968,8|0,0:0|0:0,0:0:0:0:
360,159,160395,2,0,L|346:221,1,46.7500014266968
317,365,160562,6,0,P|275:374|192:309,1,140.25000428009,4|0,0:0|0:0,0:0:0:0:
167,277,160895,6,0,P|158:324|146:381,1,93.5000028533936,2|0,0:0|0:0,0:0:0:0:
286,261,161229,2,0,P|277:214|265:157,1,93.5000028533936,8|0,0:0|0:0,0:0:0:0:
345,44,161562,1,0,0:0:0:0:
227,84,161729,1,8,0:0:0:0:
364,161,161895,2,0,L|467:136,1,85,8|0,0:0|0:0,0:0:0:0:
230,326,162229,6,0,P|210:265|237:175,1,144.500002756119,4|0,0:0|0:0,0:0:0:0:
332,287,162729,1,0,0:0:0:0:
257,384,162895,2,0,P|213:373|160:359,1,72.2500013780594,8|0,0:0|0:0,0:0:0:0:
101,325,163229,2,0,P|57:335|4:350,1,72.2500013780594,0|8,0:0|0:0,0:0:0:0:
30,342,163479,1,0,0:0:0:0:
30,342,163562,5,8,0:0:0:0:
57,239,163729,2,0,L|69:167,1,72.2500013780594,8|0,0:0|0:0,0:0:0:0:
90,59,164062,1,0,0:0:0:0:
161,120,164229,2,0,P|209:109|248:104,1,72.2500013780594,8|0,0:0|0:0,0:0:0:0:
311,155,164562,1,0,0:0:0:0:
356,37,164729,1,4,3:0:0:0:
160,119,164895,6,0,P|177:181|194:264,1,144.500002756119,0|8,0:0|0:0,0:0:0:0:
59,358,165395,1,0,0:0:0:0:
59,358,165479,1,0,0:0:0:0:
59,358,165562,2,0,P|99:344|143:329,1,72.2500013780594,8|0,0:0|0:0,0:0:0:0:
325,378,165895,5,0,0:0:0:0:
231,285,166062,1,4,3:0:0:0:
345,243,166229,2,0,P|352:204|363:155,1,72.2500013780594,8|0,0:0|0:0,0:0:0:0:
462,57,166562,5,8,0:0:0:0:
462,57,166645,1,8,0:0:0:0:
462,57,166729,1,8,0:0:0:0:
462,57,166812,1,8,0:0:0:0:
462,57,166895,1,8,0:0:0:0:
358,172,167062,1,0,0:0:0:0:
308,63,167229,1,8,0:0:0:0:
355,214,167395,1,4,3:0:0:0:
476,26,167562,6,0,P|467:68|459:110,1,85,2|0,0:0|0:0,0:0:0:0:
480,225,167895,1,8,0:0:0:0:
327,142,168062,1,0,0:0:0:0:
400,336,168229,2,0,P|392:294|383:252,1,85,2|0,0:0|0:0,0:0:0:0:
205,327,168562,1,8,0:0:0:0:
293,375,168729,1,0,0:0:0:0:
273,216,168895,6,0,P|204:194|82:241,1,170,2|8,0:0|0:0,0:0:0:0:
240,318,169395,1,0,0:0:0:0:
316,257,169562,2,0,L|303:155,1,85
356,32,169895,1,8,0:0:0:0:
256,87,170062,1,0,0:0:0:0:
173,32,170229,6,0,L|5:67,1,170,2|0,0:0|0:0,0:0:0:0:
96,208,170729,1,0,0:0:0:0:
96,208,170812,1,0,0:0:0:0:
96,208,170895,2,0,P|116:160|92:66,1,136,8|0,0:0|0:0,0:0:0:0:
8,206,171395,1,0,0:0:0:0:
215,294,171562,6,0,P|154:283|72:333,1,136,8|0,0:0|0:0,0:0:0:0:
197,367,172062,1,0,0:0:0:0:
230,378,172229,2,0,L|263:213,1,136,8|0,0:0|0:0,0:0:0:0:
283,110,172895,5,4,0:0:0:0:
256,192,172979,12,2,175562,0:0:0:0:
192,373,185729,5,8,3:0:0:0:
150,214,185895,1,4,3:0:0:0:
279,284,186062,1,0,0:0:0:0:
279,284,186145,1,0,0:0:0:0:
279,284,186229,6,0,P|340:267|424:286,1,136,4|8,0:0|0:0,0:0:0:0:
492,334,186729,1,4,3:0:0:0:
420,252,186895,2,0,L|435:160,1,68
336,52,187229,1,8,0:0:0:0:
464,99,187395,2,0,P|413:110|371:121,1,68,4|0,3:0|0:0,0:0:0:0:
212,167,187729,5,0,0:0:0:0:
308,261,187895,2,0,P|331:195|284:128,1,136,4|2,3:0|0:0,0:0:0:0:
217,317,188395,1,0,0:0:0:0:
308,291,188562,1,0,0:0:0:0:
419,270,188729,1,0,0:0:0:0:
419,270,188812,1,0,0:0:0:0:
419,270,188895,6,0,P|412:334|410:353,1,68,8|0,0:0|0:0,0:0:0:0:
284,384,189229,1,0,0:0:0:0:
327,280,189395,1,0,0:0:0:0:
225,313,189562,2,0,P|171:299|142:291,1,68,2|0,0:0|0:0,0:0:0:0:
70,261,189895,1,0,0:0:0:0:
70,261,190062,6,0,P|53:303|44:342,1,68,8|0,0:0|0:0,0:0:0:0:
61,174,190395,2,0,P|20:195|-10:219,1,68
110,101,190729,2,0,P|65:91|25:89,1,68,0|8,0:0|0:0,0:0:0:0:
194,73,191062,2,0,P|165:37|136:9,1,68
70,261,191395,5,0,0:0:0:0:
190,237,191562,2,0,P|252:250|328:262,2,136,2|0|0,0:0|0:0|0:0,0:0:0:0:
91,185,192395,1,0,0:0:0:0:
128,298,192562,2,0,L|105:376,1,68,2|0,0:0|0:0,0:0:0:0:
247,166,192895,6,0,P|263:112|234:19,1,136
90,246,193395,1,0,0:0:0:0:
167,221,193562,1,8,3:0:0:0:
246,238,193729,1,4,3:0:0:0:
293,303,193895,1,4,3:0:0:0:
156,343,194062,1,0,0:0:0:0:
156,343,194145,1,0,0:0:0:0:
156,343,194229,5,8,0:0:0:0:
258,287,194395,1,0,0:0:0:0:
232,376,194562,1,8,0:0:0:0:
169,249,194729,1,0,0:0:0:0:
278,194,194895,1,8,0:0:0:0:
332,299,195062,1,0,0:0:0:0:
223,354,195228,1,8,0:0:0:0:
166,245,195395,1,0,0:0:0:0:
361,145,195562,6,0,P|250:125|202:114,1,127.5,4|0,0:0|0:0,0:0:0:0:
204,114,195895,2,0,P|183:176|189:222,1,85,8|0,0:0|0:0,0:0:0:0:
405,328,196229,5,8,0:0:0:0:
336,294,196395,1,8,0:0:0:0:
259,295,196562,1,8,0:0:0:0:
192,333,196729,6,0,L|70:306,1,106.25,2|0,0:0|0:0,0:0:0:0:
49,335,197229,6,0,P|40:286|69:221,1,101.999996887207,4|0,0:0|0:0,0:0:0:0:
241,199,197562,1,8,0:0:0:0:
188,376,197729,1,0,0:0:0:0:
165,249,197895,1,8,0:0:0:0:
342,290,198062,1,0,0:0:0:0:
422,165,198229,6,0,P|378:178|331:194,1,93.5000028533936
205,109,198562,2,0,P|245:97|297:78,1,93.5000028533936,8|0,0:0|0:0,0:0:0:0:
27,45,198895,1,0,0:0:0:0:
146,238,199062,1,0,0:0:0:0:
188,118,199229,1,8,0:0:0:0:
29,201,199395,5,2,0:0:0:0:
29,201,199479,1,0,0:0:0:0:
29,201,199562,2,0,P|51:261|68:318,1,93.5000028533936,4|0,0:0|0:0,0:0:0:0:
50,374,199895,1,8,0:0:0:0:
136,123,200062,1,0,0:0:0:0:
233,260,200229,2,0,P|176:274|140:284,1,93.5000028533936
204,384,200562,1,8,0:0:0:0:
334,231,200729,6,0,P|319:186|303:140,1,93.5000028533936,8|0,0:0|0:0,0:0:0:0:
430,35,201062,2,0,P|369:54|316:67,1,93.5000028533936,8|0,0:0|0:0,0:0:0:0:
120,19,201395,1,0,0:0:0:0:
224,230,201562,1,0,0:0:0:0:
255,77,201729,1,2,0:0:0:0:
255,77,201812,1,0,0:0:0:0:
255,77,201895,2,0,P|275:119|288:136,1,46.7500014266968,8|0,0:0|0:0,0:0:0:0:
389,374,202062,2,0,P|407:339|422:315,1,46.7500014266968,2|2,0:0|0:0,0:0:0:0:
479,241,202229,6,0,P|394:225|283:198,2,187.000005706787,4|8|0,0:0|0:0|0:0,0:0:0:0:
349,94,203062,1,0,0:0:0:0:
212,341,203229,1,8,0:0:0:0:
371,304,203395,1,0,0:0:0:0:
371,304,203479,1,0,0:0:0:0:
371,304,203562,6,0,P|292:284|259:277,1,93.5000028533936
100,332,203895,1,8,0:0:0:0:
14,89,204062,1,0,0:0:0:0:
136,193,204229,2,0,P|83:205|29:218,1,93.5000028533936
17,306,204562,1,8,0:0:0:0:
96,110,204729,6,0,P|149:98|203:85,1,93.5000028533936,8|0,0:0|0:0,0:0:0:0:
305,47,205062,1,0,0:0:0:0:
250,238,205229,2,0,P|265:292|284:352,1,93.5000028533936,8|0,0:0|0:0,0:0:0:0:
213,139,205562,1,8,0:0:0:0:
69,199,205729,2,0,P|82:154|95:109,1,93.5000028533936,0|8,0:0|0:0,0:0:0:0:
173,286,206062,5,0,0:0:0:0:
302,119,206229,2,0,P|246:124|201:146,1,93.5000028533936,0|8,0:0|0:0,0:0:0:0:
359,303,206562,1,8,0:0:0:0:
386,196,206729,1,0,0:0:0:0:
408,89,206895,2,0,P|407:48|385:0,1,93.5000028533936,8|0,0:0|0:0,0:0:0:0:
264,218,207229,1,8,0:0:0:0:
368,196,207395,2,0,L|431:183,1,46.7500014266968,8|0,0:0|0:0,0:0:0:0:
477,124,207562,6,0,P|465:180|445:298,1,140.25000428009,2|0,0:0|0:0,0:0:0:0:
393,359,207895,6,0,P|379:307|356:234,1,93.5000028533936,4|0,0:0|0:0,0:0:0:0:
193,199,208229,1,8,0:0:0:0:
243,329,208395,1,4,3:0:0:0:
243,329,208479,1,0,0:0:0:0:
243,329,208562,2,0,L|261:280,1,46.7500014266968
309,162,208729,6,0,P|263:114|129:119,1,187.000005706787
77,92,209145,1,0,0:0:0:0:
77,92,209229,2,0,L|92:-6,1,93.5000028533936,8|8,0:0|0:0,0:0:0:0:
5,134,209562,1,0,0:0:0:0:
43,240,209729,1,4,3:0:0:0:
79,347,209895,1,8,0:0:0:0:
234,218,210062,1,2,0:0:0:0:
234,218,210145,1,0,0:0:0:0:
234,218,210229,6,0,P|183:228|137:244,1,93.5000028533936,4|0,0:0|0:0,0:0:0:0:
23,189,210562,1,8,0:0:0:0:
140,343,210729,1,0,0:0:0:0:
231,143,210895,2,0,P|236:93|215:31,1,93.5000028533936
120,167,211229,1,0,0:0:0:0:
344,276,211395,6,0,P|293:286|247:302,1,93.5000028533936,8|0,0:0|0:0,0:0:0:0:
118,364,211729,2,0,P|105:315|120:252,1,93.5000028533936,8|0,0:0|0:0,0:0:0:0:
244,213,212062,1,8,0:0:0:0:
287,377,212229,1,0,0:0:0:0:
126,155,212395,1,8,0:0:0:0:
331,246,212562,1,8,0:0:0:0:
76,317,212729,2,0,L|137:334,1,46.7500014266968,2|2,0:0|0:0,0:0:0:0:
157,342,212895,6,0,P|177:300|165:250,1,93.5000028533936,4|0,0:0|0:0,0:0:0:0:
23,121,213229,1,8,0:0:0:0:
68,236,213395,1,0,0:0:0:0:
175,76,213562,2,0,P|233:66|284:57,1,93.5000028533936
399,203,213895,2,0,P|341:213|290:222,1,93.5000028533936,8|0,0:0|0:0,0:0:0:0:
114,202,214229,6,0,P|81:116|112:10,1,187.000005706787,0|8,0:0|0:0,0:0:0:0:
311,168,214729,1,0,0:0:0:0:
377,47,214895,2,0,P|304:63|263:70,1,93.5000028533936
186,265,215229,2,0,P|259:249|300:242,1,93.5000028533936,8|0,0:0|0:0,0:0:0:0:
452,223,215562,6,0,P|474:285|464:347,1,93.5000028533936
379,364,215895,1,8,0:0:0:0:
316,161,216062,1,8,0:0:0:0:
453,224,216229,1,0,0:0:0:0:
287,363,216395,1,0,0:0:0:0:
336,69,216562,1,8,0:0:0:0:
169,199,216729,1,0,0:0:0:0:
449,354,216895,6,0,P|456:310|472:232,1,93.5000028533936
280,144,217229,1,8,0:0:0:0:
333,285,217395,1,0,0:0:0:0:
215,353,217562,2,0,P|151:336|109:326,1,93.5000028533936
46,170,217895,2,0,P|110:187|152:197,1,93.5000028533936,8|0,0:0|0:0,0:0:0:0:
284,128,218229,6,0,P|295:73|281:28,1,93.5000028533936
285,37,218562,1,8,0:0:0:0:
155,109,218729,1,8,0:0:0:0:
220,269,218895,1,0,0:0:0:0:
310,174,219062,1,0,0:0:0:0:
310,174,219145,1,0,0:0:0:0:
310,174,219229,1,8,0:0:0:0:
127,98,219395,1,0,0:0:0:0:
83,293,219562,5,0,0:0:0:0:
264,378,219729,1,0,0:0:0:0:
71,202,219895,1,8,0:0:0:0:
148,366,220062,1,0,0:0:0:0:
148,366,220145,1,0,0:0:0:0:
148,366,220229,2,0,P|161:334|169:313,1,46.7500014266968,8|0,0:0|0:0,0:0:0:0:
213,114,220395,2,0,P|221:135|230:157,1,46.7500014266968
414,274,220562,6,0,P|346:260|280:362,1,187.000005706787,8|4,0:0|0:0,0:0:0:0:
