osu file format v14

[General]
AudioFilename: audio.mp3
AudioLeadIn: 0
PreviewTime: 58346
Countdown: 0
SampleSet: Soft
StackLeniency: 0.7
Mode: 2
LetterboxInBreaks: 0
WidescreenStoryboard: 0

[Editor]
DistanceSpacing: 1
BeatDivisor: 4
GridSize: 16
TimelineZoom: 1.76

[Metadata]
Title:Dakara, Hitori ja Nai -TV Size-
TitleUnicode:だから、ひとりじゃない -TV Size-
Artist:Little Glee Monster
ArtistUnicode:Little Glee Monster
Creator:-Sh1n1-
Version:Overdose
Source:僕のヒーローアカデミア 第2期
Tags:Boku no Hero Academia second Season ending shini arcwinolivirus akitoshi nardoxyribonucleic pentori sotarks iyiyo lasse mir critical_star
BeatmapID:1337110
BeatmapSetID:631624

[Difficulty]
HPDrainRate:6
CircleSize:4.2
OverallDifficulty:9.3
ApproachRate:9.3
SliderMultiplier:1.9
SliderTickRate:2

[Events]
//Background and Video events
Video,0,"video.mp4"
0,0,"BGCatch.jpg",0,0
//Break Periods
//Storyboard Layer 0 (Background)
//Storyboard Layer 1 (Fail)
//Storyboard Layer 2 (Pass)
//Storyboard Layer 3 (Foreground)
//Storyboard Sound Samples

[TimingPoints]
680,333.333333333333,4,2,22,40,1,0
5513,-100,4,2,22,50,0,0
6013,-100,4,2,22,70,0,0
6263,-100,4,2,22,5,0,0
6346,-100,4,2,22,70,0,0
11596,-100,4,2,22,5,0,0
11679,-100,4,2,22,70,0,0
16679,-100,4,2,22,60,0,0
38013,-100,4,2,22,50,0,0
54013,-100,4,2,22,60,0,0
59346,-100,4,2,22,70,0,1
83346,-100,4,2,22,60,0,0
84679,-100,4,2,22,70,0,0
87679,-100,4,2,22,40,0,0
88013,-100,4,2,22,20,0,0
88346,-100,4,2,22,10,0,0
88679,-100,4,2,22,5,0,0

[Colours]
Combo1 : 255,157,255
Combo2 : 83,96,100
Combo3 : 245,213,192
Combo4 : 133,175,239

[HitObjects]
256,192,680,12,8,4679,1:0:0:0:
339,264,5013,6,0,B|405:177,1,95,0|4,0:0|3:0,0:0:0:0:
111,204,5346,5,0,0:0:0:0:
68,197,5429,1,0,0:0:0:0:
67,153,5513,1,0,3:0:0:0:
109,144,5596,1,0,3:0:0:0:
322,116,5679,2,0,L|378:116,1,47.5,0|0,3:0|3:0,0:0:0:0:
132,48,5846,2,0,L|76:48,1,47.5,0|0,3:0|3:0,0:0:0:0:
324,278,6013,6,0,B|371:295|371:295|462:280,1,142.5,0|0,1:0|0:0,0:0:0:0:
247,203,6346,2,0,B|135:201,2,95,10|2|0,0:0|1:0|3:0,0:0:0:0:
342,116,6846,1,2,1:0:0:0:
112,116,7013,1,8,0:0:0:0:
451,152,7179,6,0,P|519:117|441:92,1,190,0|0,1:0|1:0,0:0:0:0:
165,261,7679,2,0,P|121:271|74:256,1,95,10|2,0:0|1:0,0:0:0:0:
203,180,8013,1,0,3:0:0:0:
46,180,8179,1,2,1:0:0:0:
360,141,8346,2,0,P|405:127|450:142,1,95,8|2,0:0|3:0,0:0:0:0:
420,159,8596,1,0,0:0:0:0:
183,72,8679,6,0,B|143:80|143:80|84:63|84:63|45:69,1,142.5,0|0,1:0|0:0,0:0:0:0:
286,18,9013,1,10,0:0:0:0:
373,17,9179,1,2,1:0:0:0:
392,103,9346,1,0,3:0:0:0:
313,141,9513,1,0,1:0:0:0:
83,191,9679,2,0,B|49:208|49:208|-4:189,1,95,8|2,0:0|3:0,0:0:0:0:
235,279,10013,6,0,L|135:279,1,95,2|0,3:0|1:0,0:0:0:0:
416,192,10346,2,0,L|516:192,1,95,10|0,0:0|1:0,0:0:0:0:
263,94,10679,2,0,L|358:94,1,95,2|0,3:0|1:0,0:0:0:0:
102,191,11013,2,0,L|7:191,1,95,10|2,0:0|3:0,0:0:0:0:
36,170,11263,1,0,0:0:0:0:
287,204,11346,6,0,P|344:224|302:273,1,142.5,0|0,1:0|0:0,0:0:0:0:
91,345,11679,2,0,B|53:358|53:358|0:347,2,95,10|2|0,0:0|1:0|3:0,0:0:0:0:
186,348,12179,1,2,1:0:0:0:
443,163,12346,2,0,B|504:83,1,95,8|2,0:0|3:0,0:0:0:0:
174,128,12679,6,0,P|122:96|170:59,1,142.5,0|0,1:0|0:0,0:0:0:0:
399,81,13013,2,0,P|443:71|490:86,1,95,10|2,0:0|1:0,0:0:0:0:
361,162,13346,1,0,3:0:0:0:
512,162,13513,1,2,1:0:0:0:
234,314,13679,2,0,P|190:324|143:309,1,95,8|2,0:0|3:0,0:0:0:0:
378,295,14013,5,2,1:0:0:0:
132,192,14179,1,0,0:0:0:0:
408,219,14346,2,0,L|469:147,1,95,0|0,1:0|0:0,0:0:0:0:
231,138,14679,5,0,1:0:0:0:
477,70,14846,1,0,0:0:0:0:
196,38,15013,2,0,L|101:38,1,95,0|0,1:0|0:0,0:0:0:0:
350,165,15346,5,2,1:0:0:0:
369,165,15513,1,0,1:0:0:0:
136,157,15679,1,0,1:0:0:0:
401,257,15846,2,0,B|458:177,2,95,2|0|0,1:0|1:0|1:0,0:0:0:0:
129,348,16346,2,0,L|79:348,1,47.5,0|0,1:0|1:0,0:0:0:0:
321,347,16513,2,0,L|371:347,1,47.5,2|0,1:0|1:0,0:0:0:0:
108,166,16679,6,0,P|40:132|114:92,1,190,6|8,1:0|0:0,0:0:0:0:
203,87,17179,1,2,1:0:0:0:
355,178,17346,2,0,L|361:279,1,95,2|0,0:0|0:0,0:0:0:0:
179,332,17679,2,0,L|173:231,1,95,8|2,0:0|0:0,0:0:0:0:
443,115,18013,6,0,P|511:81|437:41,1,190,2|8,1:0|0:0,0:0:0:0:
291,38,18513,2,0,L|194:37,2,95,2|2|0,1:0|0:0|1:0,0:0:0:0:
472,292,19013,2,0,L|490:196,1,95,8|2,0:0|0:0,0:0:0:0:
190,319,19346,6,0,B|127:303|127:303|4:321,1,190,2|8,1:0|0:0,0:0:0:0:
100,197,19846,1,2,1:0:0:0:
252,198,20013,2,0,L|252:99,1,95,2|0,0:0|0:0,0:0:0:0:
71,18,20346,2,0,L|71:117,1,95,8|2,0:0|0:0,0:0:0:0:
388,297,20679,6,0,P|445:233|384:172,1,190,2|8,1:0|0:0,0:0:0:0:
289,138,21179,1,2,1:0:0:0:
175,138,21346,1,2,0:0:0:0:
308,49,21513,1,0,1:0:0:0:
127,49,21679,2,0,L|62:137,1,95,8|2,0:0|3:0,0:0:0:0:
387,239,22013,6,0,P|455:273|381:313,1,190,2|8,1:0|0:0,0:0:0:0:
292,274,22513,1,2,1:0:0:0:
150,200,22679,2,0,L|193:111,1,95,2|0,0:0|1:0,0:0:0:0:
373,127,23013,2,0,L|416:38,1,95,8|2,0:0|3:0,0:0:0:0:
103,292,23346,6,0,B|231:320|231:320|287:292,2,190,2|10|2,1:0|0:0|0:0,0:0:0:0:
198,145,24179,1,0,1:0:0:0:
379,138,24346,2,0,L|398:45,1,95,10|2,0:0|3:0,0:0:0:0:
122,243,24679,6,0,P|78:233|31:248,1,95,2|0,1:0|1:0,0:0:0:0:
160,324,25013,1,8,0:0:0:0:
3,324,25179,1,0,1:0:0:0:
194,221,25346,2,0,L|194:125,1,95,2|0,0:0|1:0,0:0:0:0:
13,126,25679,2,0,L|13:30,1,95,10|2,0:0|3:0,0:0:0:0:
281,348,26013,5,2,1:0:0:0:
413,348,26179,1,0,1:0:0:0:
165,266,26346,1,8,0:0:0:0:
393,142,26513,1,10,0:0:0:0:
261,142,26679,5,2,0:0:0:0:
509,224,26846,1,2,3:0:0:0:
223,46,27013,2,0,L|127:46,1,95,8|2,0:0|3:0,0:0:0:0:
399,239,27346,6,0,P|467:273|393:313,1,190,2|8,1:0|0:0,0:0:0:0:
246,282,27846,2,0,L|143:279,2,95,2|2|0,1:0|0:0|1:0,0:0:0:0:
426,126,28346,2,0,L|438:27,1,95,8|2,0:0|3:2,0:0:0:0:
104,299,28679,6,0,P|36:265|122:241,1,190,2|8,1:0|0:0,0:0:0:0:
199,258,29179,1,2,1:0:0:0:
350,258,29346,2,0,L|296:175,1,95,2|0,0:0|1:0,0:0:0:0:
117,120,29679,2,0,L|63:37,1,95,8|2,0:0|3:0,0:0:0:0:
338,132,30013,6,0,B|384:155|384:155|456:117|456:117|512:130,1,190,2|8,1:0|0:0,0:0:0:0:
418,36,30513,1,2,1:0:0:0:
266,302,30679,2,0,L|226:206,1,95,2|0,0:0|1:0,0:0:0:0:
410,226,31013,2,0,L|450:322,1,95,8|2,0:0|3:2,0:0:0:0:
152,126,31346,6,0,P|84:92|158:52,1,190,2|8,1:0|0:0,0:0:0:0:
247,171,31846,1,2,1:0:0:0:
129,218,32013,1,2,0:0:0:0:
271,264,32179,1,0,1:0:0:0:
89,313,32346,2,0,L|36:222,1,95,8|2,0:0|3:0,0:0:0:0:
365,203,32679,6,0,P|433:169|359:129,1,190,2|8,1:0|0:0,0:0:0:0:
213,164,33179,2,0,L|100:163,2,95,2|0|0,1:0|0:0|1:0,0:0:0:0:
394,54,33679,2,0,L|288:54,1,95,8|2,0:0|3:2,0:0:0:0:
31,320,34013,6,0,L|223:320,2,190,2|10|2,1:0|0:0|0:0,0:0:0:0:
145,225,34846,1,0,1:0:0:0:
326,168,35013,2,0,L|366:82,1,95,10|2,0:0|3:0,0:0:0:0:
119,114,35346,6,0,P|75:124|28:109,1,95,4|4,3:0|3:0,0:0:0:0:
143,33,35679,1,8,3:0:0:0:
10,33,35846,1,8,3:0:0:0:
191,179,36013,6,0,P|235:169|282:184,1,95,2|0,1:0|1:0,0:0:0:0:
101,276,36346,2,0,L|58:185,1,95,10|8,0:0|3:0,0:0:0:0:
347,362,36679,6,0,L|426:294,1,95,4|2,3:0|3:0,0:0:0:0:
390,274,36929,1,0,0:0:0:0:
170,208,37013,2,0,L|91:140,1,95,8|2,0:0|3:0,0:0:0:0:
368,147,37346,1,0,1:0:0:0:
455,140,37513,1,2,3:0:0:0:
468,52,37679,1,8,0:0:0:0:
387,22,37846,1,2,3:0:0:0:
52,296,38013,6,0,P|-15:252|62:211,1,190,4|0,1:0|0:0,0:0:0:0:
137,245,38513,1,4,3:0:0:0:
303,150,38679,2,0,L|399:150,2,95,8|2|2,0:0|0:0|0:0,0:0:0:0:
217,150,39179,1,2,1:0:0:0:
384,353,39346,5,2,0:0:0:0:
465,323,39513,1,0,0:0:0:0:
452,235,39679,1,2,0:0:0:0:
365,228,39846,1,0,0:0:0:0:
198,264,40013,2,0,L|97:263,1,95,10|0,0:0|0:0,0:0:0:0:
344,133,40346,1,2,0:0:0:0:
358,86,40429,1,0,1:0:0:0:
440,133,40513,1,0,1:0:0:0:
454,86,40596,1,0,1:0:0:0:
187,94,40679,6,0,L|91:94,1,95,2|0,1:0|0:0,0:0:0:0:
193,14,41013,1,0,0:0:0:0:
359,292,41179,2,0,P|427:265|347:242,1,190,4|0,3:0|0:0,0:0:0:0:
268,142,41679,1,2,0:0:0:0:
101,227,41846,2,0,P|32:258|101:291,1,190,2|0,1:0|1:0,0:0:0:0:
214,143,42346,5,0,0:0:0:0:
85,143,42513,1,0,1:0:0:0:
318,133,42679,2,0,L|322:36,1,95,10|0,0:0|0:0,0:0:0:0:
154,146,43013,2,0,L|150:243,1,95,2|6,0:0|3:0,0:0:0:0:
419,205,43346,6,0,P|486:161|409:120,1,190,2|2,1:0|0:0,0:0:0:0:
334,154,43846,1,4,3:0:0:0:
168,71,44013,2,0,L|262:70,2,95,8|2|2,0:0|0:0|0:0,0:0:0:0:
82,27,44513,1,2,1:0:0:0:
248,280,44679,5,2,0:0:0:0:
329,250,44846,1,0,0:0:0:0:
316,162,45013,1,2,0:0:0:0:
229,155,45179,1,0,0:0:0:0:
62,347,45346,2,0,L|157:347,1,95,10|0,0:0|0:0,0:0:0:0:
301,347,45679,2,0,L|411:349,1,95,2|2,0:0|3:0,0:0:0:0:
367,318,45929,1,0,0:0:0:0:
103,145,46013,6,0,L|8:145,1,95,2|0,1:0|0:0,0:0:0:0:
109,61,46346,1,0,0:0:0:0:
270,92,46513,2,0,P|338:65|258:42,1,190,4|0,3:0|0:0,0:0:0:0:
179,157,47013,1,2,3:0:0:0:
346,202,47179,2,0,P|415:233|346:266,1,190,2|2,1:0|1:0,0:0:0:0:
261,119,47679,5,0,3:0:0:0:
408,119,47846,1,0,1:0:0:0:
161,221,48013,2,0,L|113:221,2,47.5,10|0|2,0:0|0:0|3:0,0:0:0:0:
247,321,48346,1,2,0:0:0:0:
80,321,48513,1,2,3:0:0:0:
413,296,48679,6,0,P|480:252|403:211,1,190,6|0,1:0|0:0,0:0:0:0:
328,245,49179,1,4,3:0:0:0:
162,150,49346,2,0,L|66:150,2,95,8|2|2,0:0|0:0|0:0,0:0:0:0:
248,150,49846,1,2,1:0:0:0:
81,353,50013,5,2,0:0:0:0:
0,323,50179,1,0,1:0:0:0:
13,235,50346,1,2,0:0:0:0:
100,228,50513,1,0,1:0:0:0:
267,228,50679,2,0,L|172:228,1,95,10|0,0:0|0:0,0:0:0:0:
3,137,51013,2,0,L|98:137,1,95,2|0,0:0|0:0,0:0:0:0:
372,137,51346,6,0,L|468:137,1,95,2|0,1:0|0:0,0:0:0:0:
366,57,51679,1,0,0:0:0:0:
200,335,51846,2,0,P|132:308|212:285,1,190,4|0,3:0|0:0,0:0:0:0:
291,185,52346,1,2,0:0:0:0:
458,270,52513,2,0,P|527:301|458:334,1,190,2|0,1:0|1:0,0:0:0:0:
345,186,53013,5,0,0:0:0:0:
497,186,53179,1,0,1:0:0:0:
213,176,53346,2,0,L|114:176,1,95,8|0,0:0|0:0,0:0:0:0:
426,96,53679,1,2,1:0:0:0:
469,89,53763,1,0,1:0:0:0:
470,45,53846,1,8,3:0:0:0:
428,36,53929,1,4,3:0:0:0:
185,61,54013,6,0,L|77:60,1,95,6|0,1:0|0:0,0:0:0:0:
357,270,54346,2,0,L|465:269,1,95,10|2,0:0|1:0,0:0:0:0:
319,187,54679,1,0,3:0:0:0:
471,187,54846,1,2,0:0:0:0:
185,184,55013,2,0,L|151:85,1,95,8|2,0:0|3:0,0:0:0:0:
337,17,55346,6,0,L|366:107,1,95,0|0,1:0|1:0,0:0:0:0:
95,215,55679,2,0,L|67:125,1,95,10|0,0:0|0:0,0:0:0:0:
201,260,56013,1,2,1:0:0:0:
50,312,56179,1,2,3:0:0:0:
349,312,56346,2,0,L|458:313,1,95,10|2,0:0|3:0,0:0:0:0:
216,134,56679,5,2,1:0:0:0:
329,134,56846,1,0,0:0:0:0:
99,53,57013,2,0,L|4:52,1,95,0|0,1:0|0:0,0:0:0:0:
242,134,57346,5,0,1:0:0:0:
128,134,57513,1,0,0:0:0:0:
366,178,57679,2,0,L|465:178,1,95,0|0,1:0|0:0,0:0:0:0:
111,290,58013,2,0,L|16:289,1,95,2|8,1:0|3:0,0:0:0:0:
45,309,58263,1,0,0:0:0:0:
235,169,58346,6,0,B|288:83,1,95
104,61,58679,2,0,L|52:146,1,95,0|8,0:0|3:0,0:0:0:0:
285,283,59013,2,0,L|343:266,1,47.5,4|0,3:0|0:0,0:0:0:0:
94,343,59179,2,0,L|36:326,1,47.5,4|0,3:0|0:0,0:0:0:0:
307,193,59346,6,0,L|346:102,1,95,6|0,1:0|0:0,0:0:0:0:
59,113,59679,1,10,0:0:0:0:
288,64,59846,1,0,1:0:0:0:
174,61,60013,1,0,3:0:0:0:
401,34,60179,1,0,1:0:0:0:
134,34,60346,1,8,0:0:0:0:
401,218,60513,6,0,P|462:181|392:126,1,190,2|0,1:0|1:0,0:0:0:0:
107,113,61013,1,10,0:0:0:0:
336,64,61179,1,0,1:0:0:0:
222,61,61346,1,0,3:0:0:0:
449,34,61513,1,0,1:0:0:0:
182,34,61679,1,8,0:0:0:0:
457,218,61846,6,0,P|521:186|456:125,1,190,2|0,3:2|0:0,0:0:0:0:
230,313,62346,1,10,0:0:0:0:
317,294,62513,1,2,1:0:0:0:
90,237,62679,1,2,3:2:0:0:
3,218,62846,1,0,1:0:0:0:
254,143,63013,5,10,0:0:0:0:
122,124,63179,2,0,L|28:78,1,95,2|0,1:0|0:0,0:0:0:0:
314,124,63513,2,0,L|408:78,1,95,2|8,1:0|0:0,0:0:0:0:
134,302,63846,1,2,1:0:0:0:
39,302,64013,1,2,3:2:0:0:
162,222,64179,1,2,1:0:0:0:
393,216,64346,6,0,L|487:170,1,95,10|0,0:0|0:0,0:0:0:0:
212,195,64679,1,6,1:0:0:0:
127,169,64846,1,0,0:0:0:0:
129,81,65013,1,12,0:0:0:0:
214,59,65179,2,0,L|314:58,2,95,0|0|0,1:0|0:0|1:0,0:0:0:0:
452,138,65679,6,0,L|467:239,1,95,8|2,0:0|3:2,0:0:0:0:
207,243,66013,2,0,L|192:142,1,95,2|0,1:0|0:0,0:0:0:0:
480,138,66346,2,0,L|495:239,1,95,8|2,0:0|1:0,0:0:0:0:
342,310,66679,2,0,L|246:310,2,95,2|0|10,3:2|1:0|0:0,0:0:0:0:
65,80,67179,6,0,P|5:144|72:155,1,190,2|2,3:2|1:0,0:0:0:0:
306,136,67679,2,0,L|206:135,1,95,10|0,0:0|1:0,0:0:0:0:
393,253,68013,1,0,0:0:0:0:
279,253,68179,1,2,1:0:0:0:
421,173,68346,1,8,0:0:0:0:
183,312,68513,6,0,B|137:334|137:334|1:310,1,190,2|2,3:2|1:0,0:0:0:0:
257,182,69013,2,0,L|376:181,1,95,10|2,0:0|1:0,0:0:0:0:
95,107,69346,1,2,0:0:0:0:
209,107,69513,1,2,1:0:0:0:
67,27,69679,1,10,0:0:0:0:
410,243,69846,6,0,P|468:181|404:125,1,190,2|0,1:0|0:0,0:0:0:0:
172,154,70346,1,14,0:0:0:0:
267,154,70513,1,0,1:0:0:0:
37,96,70679,1,0,3:0:0:0:
294,54,70846,2,0,L|395:55,1,95,0|8,1:0|0:0,0:0:0:0:
63,197,71179,6,0,P|-7:236|54:289,1,190,2|0,1:0|1:0,0:0:0:0:
292,154,71679,1,14,0:0:0:0:
197,154,71846,1,0,1:0:0:0:
427,96,72013,1,0,3:0:0:0:
162,54,72179,2,0,L|117:137,1,95,0|8,1:0|0:0,0:0:0:0:
432,218,72513,6,0,P|496:186|431:125,1,190,2|0,1:0|0:0,0:0:0:0:
184,313,73013,2,0,L|155:212,1,95,10|0,0:0|1:0,0:0:0:0:
405,33,73346,2,0,L|434:134,1,95,2|0,3:2|1:0,0:0:0:0:
165,98,73679,2,0,L|71:52,2,95,10|2|0,0:0|1:0|0:0,0:0:0:0:
424,224,74179,6,0,L|518:178,1,95,2|8,1:0|0:0,0:0:0:0:
271,262,74513,2,0,L|177:216,1,95,2|0,1:0|0:0,0:0:0:0:
471,107,74846,1,2,1:0:0:0:
357,107,75013,1,8,0:0:0:0:
499,27,75179,1,2,3:2:0:0:
271,40,75346,6,0,L|176:39,2,95,6|0|12,1:0|0:0|0:0,0:0:0:0:
355,61,75846,1,0,1:0:0:0:
357,149,76013,1,0,3:0:0:0:
272,175,76179,1,0,1:0:0:0:
42,272,76346,2,0,L|138:272,1,95,10|0,0:0|0:0,0:0:0:0:
375,341,76679,6,0,L|470:341,1,95,6|0,1:0|0:0,0:0:0:0:
221,177,77013,2,0,L|316:177,1,95,8|0,0:0|1:0,0:0:0:0:
135,92,77346,2,0,L|40:92,1,95,2|0,0:0|1:0,0:0:0:0:
307,31,77679,2,0,L|402:31,1,95,10|0,0:0|0:0,0:0:0:0:
134,247,78013,6,0,L|39:247,1,95,4|4,3:0|3:0,0:0:0:0:
315,134,78346,1,8,3:0:0:0:
201,134,78513,1,8,3:0:0:0:
430,219,78679,2,0,L|488:294,1,95,0|0,1:0|1:0,0:0:0:0:
230,337,79013,2,0,L|171:261,1,95,8|0,0:0|0:0,0:0:0:0:
448,44,79346,6,0,L|506:119,1,95,4|4,3:0|3:0,0:0:0:0:
240,141,79679,1,8,3:0:0:0:
354,141,79846,1,8,3:0:0:0:
115,42,80013,2,0,L|2:41,1,95,0|0,1:0|1:0,0:0:0:0:
287,283,80346,2,0,L|390:282,1,95,8|0,0:0|0:0,0:0:0:0:
96,224,80679,6,0,P|48:241|9:224,1,95,0|0,1:0|0:0,0:0:0:0:
300,124,81013,2,0,P|344:114|391:129,1,95,8|8,0:0|0:0,0:0:0:0:
257,205,81346,1,4,3:0:0:0:
409,205,81513,1,4,3:0:0:0:
229,259,81679,1,8,3:0:0:0:
457,276,81846,2,0,P|525:317|450:340,1,190,0|0,0:0|1:0,0:0:0:0:
190,338,82346,2,0,L|132:247,1,95,10|0,0:0|1:0,0:0:0:0:
407,168,82679,5,2,0:0:0:0:
450,161,82763,1,0,0:0:0:0:
450,117,82846,1,2,1:0:0:0:
407,110,82929,1,0,0:0:0:0:
191,112,83013,2,0,L|135:84,1,47.5,10|0,0:0|0:0,0:0:0:0:
385,50,83179,2,0,L|424:8,1,47.5,0|0,0:0|3:0,0:0:0:0:
130,204,83346,6,0,P|81:240|141:235,1,142.5,4|0,1:0|0:0,0:0:0:0:
349,345,83679,2,0,B|458:347,1,95,2|2,1:0|3:2,0:0:0:0:
310,258,84013,1,0,1:0:0:0:
461,258,84179,1,2,3:2:0:0:
175,151,84346,2,0,B|114:71,1,95,0|0,1:0|0:0,0:0:0:0:
422,108,84679,6,0,P|467:56|403:54,1,142.5,4|0,1:0|0:0,0:0:0:0:
200,69,85013,2,0,P|156:59|109:74,1,95,2|2,1:2|3:2,0:0:0:0:
243,150,85346,1,0,1:0:0:0:
87,150,85513,1,2,3:2:0:0:
371,291,85679,2,0,L|432:219,1,95,0|0,1:0|0:0,0:0:0:0:
174,287,86013,5,14,0:0:0:0:
439,184,86179,1,0,1:0:0:0:
153,211,86346,2,0,L|92:139,1,95,12|0,0:0|1:0,0:0:0:0:
349,130,86679,5,12,0:0:0:0:
84,62,86846,1,0,1:0:0:0:
370,30,87013,2,0,L|465:30,1,95,12|0,0:0|1:0,0:0:0:0:
37,149,87346,5,12,0:0:0:0:
256,192,87513,12,0,88679,0:0:0:0:
