osu file format v14

[General]
AudioFilename: audio.mp3
AudioLeadIn: 0
PreviewTime: -1
Countdown: 0
SampleSet: Soft
StackLeniency: 0.2
Mode: 0
LetterboxInBreaks: 0
WidescreenStoryboard: 0

[Editor]
DistanceSpacing: 1
BeatDivisor: 4
GridSize: 8
TimelineZoom: 2.2

[Metadata]
Title:Dakara, Hitori ja Nai
TitleUnicode:だから、ひとりじゃない
Artist:Little Glee Monster
ArtistUnicode:Little Glee Monster
Creator:tohooz
Version:extra
Source:僕のヒーローアカデミア 第2期
Tags:Boku no Hero Academia second Season ending
BeatmapID:1516282
BeatmapSetID:717796

[Difficulty]
HPDrainRate:6
CircleSize:4
OverallDifficulty:8.6
ApproachRate:9.3
SliderMultiplier:1.6
SliderTickRate:1

[Events]
//Background and Video events
0,0,"myherobg.jpg",0,0
//Break Periods
2,90454,93700
2,174454,185033
//Storyboard Layer 0 (Background)
//Storyboard Layer 1 (Fail)
//Storyboard Layer 2 (Pass)
//Storyboard Layer 3 (Foreground)
//Storyboard Sound Samples

[TimingPoints]
921,333.333333333333,4,2,0,50,1,0
921,-133.333333333333,4,2,0,50,0,0
10254,-117.647058823529,4,2,0,50,0,0
10920,-100,4,2,0,50,0,0
11587,-83.3333333333333,4,2,0,50,0,0
22254,-100,4,2,0,50,0,0
43587,-111.111111111111,4,2,0,50,0,0
59587,-99.9999999999999,4,2,0,50,0,0
64920,-83.3333333333333,4,2,0,50,0,1
88920,-83.3333333333333,4,2,0,50,0,0
94254,-100,4,2,0,50,0,0
115587,-90.9090909090909,4,2,0,50,0,0
131587,-83.3333333333333,4,2,0,50,0,0
134254,-100,4,2,0,50,0,0
136754,-83.3333333333333,4,2,0,50,0,1
160920,-90.9090909090909,4,2,0,50,0,0
170254,-100,4,2,0,50,0,0
195587,-83.3333333333333,4,2,0,50,0,0
196754,-133.333333333333,4,2,0,50,0,0
197254,-79.9999999999999,4,2,0,50,0,1
220920,-86.9565217391304,4,2,0,50,0,0

[HitObjects]
410,40,921,6,0,P|403:108|419:159,1,120.000004577637
315,130,1421,2,0,P|337:194|373:234,1,120.000004577637
266,251,1921,2,0,P|313:300|362:320,1,120.000004577637
371,232,2420,5,0,0:0:0:0:
255,226,2587,2,0,P|227:272|200:293,1,60.0000022888184
131,321,2921,2,0,P|136:261|97:197,1,120.000004577637
3,35,3587,6,0,P|62:58|131:31,1,120.000004577637
202,1,4087,2,0,L|189:144,1,120.000004577637
257,198,4587,1,0,0:0:0:0:
113,186,4754,1,0,0:0:0:0:
290,105,4921,6,0,P|327:130|348:167,1,60.0000022888184
364,299,5254,2,0,P|327:274|306:237,1,60.0000022888184
453,268,5587,2,0,P|453:326|405:384,1,120.000004577637
156,371,6254,6,0,B|218:336|218:336|230:269,1,120.000004577637
68,261,6754,2,0,B|138:255|138:255|178:199,1,120.000004577637
34,124,7254,2,0,B|100:148|100:148|159:115,1,120.000004577637
158,11,7754,5,0,0:0:0:0:
247,81,7920,2,0,L|278:131,1,60.0000022888184
341,232,8254,2,0,P|408:232|462:182,1,120.000004577637
436,38,8920,6,0,L|373:140,1,120.000004577637
442,317,9587,1,0,0:0:0:0:
319,212,9754,1,0,0:0:0:0:
484,237,9920,1,0,0:0:0:0:
379,367,10087,1,0,0:0:0:0:
373,140,10254,6,0,P|336:122|286:127,1,68.0000012969971
176,213,10587,6,0,P|142:210|113:194,1,68.0000012969971
53,66,10920,1,0,0:0:0:0:
263,168,11087,1,0,0:0:0:0:
272,198,11170,1,0,0:0:0:0:
272,230,11253,1,0,0:0:0:0:
261,260,11337,1,0,0:0:0:0:
242,285,11420,1,0,0:0:0:0:
215,302,11503,1,0,0:0:0:0:
184,310,11587,6,0,B|104:294|120:342|8:310,1,143.999995605469
69,208,11920,1,0,0:0:0:0:
191,348,12087,2,0,B|327:360|327:360|265:331,1,191.999994140625
404,195,12587,1,0,0:0:0:0:
417,377,12754,1,0,0:0:0:0:
310,172,12920,6,0,P|337:125|388:99,1,95.9999970703126
512,254,13254,1,0,0:0:0:0:
330,267,13421,1,0,0:0:0:0:
478,123,13587,1,0,0:0:0:0:
401,347,13754,1,0,0:0:0:0:
371,103,13920,1,0,0:0:0:0:
508,367,14087,1,0,0:0:0:0:
310,172,14254,6,0,P|256:164|201:187,1,95.9999970703126
129,276,14587,1,0,0:0:0:0:
168,68,14754,1,0,0:0:0:0:
266,261,14920,2,0,L|275:360,1,95.9999970703126
23,287,15254,2,0,L|14:188,1,95.9999970703126
0,47,15587,5,0,0:0:0:0:
129,276,15754,1,0,0:0:0:0:
87,34,15920,5,0,0:0:0:0:
152,288,16087,1,0,0:0:0:0:
174,43,16254,5,0,0:0:0:0:
171,306,16421,1,0,0:0:0:0:
14,191,16587,1,0,0:0:0:0:
277,195,16754,1,0,0:0:0:0:
277,195,16837,1,0,0:0:0:0:
277,195,16920,6,0,P|336:184|371:148,1,95.9999970703126
396,0,17254,1,0,0:0:0:0:
464,179,17420,2,0,B|489:248|479:318|479:318|464:294|436:284,1,191.999994140625
219,359,17920,1,0,0:0:0:0:
410,362,18087,1,0,0:0:0:0:
162,278,18254,6,0,P|124:306|77:312,1,95.9999970703126
0,92,18587,1,0,0:0:0:0:
88,215,18754,2,0,B|142:158|215:195|215:195|216:161|256:122,1,191.999994140625
346,3,19254,1,0,0:0:0:0:
356,229,19420,1,0,0:0:0:0:
356,229,19504,1,0,0:0:0:0:
356,229,19587,6,0,L|361:352,1,95.9999970703126
136,102,19920,2,0,L|131:-21,1,95.9999970703126
341,252,20254,2,0,L|346:375,1,95.9999970703126
121,125,20587,2,0,L|116:2,1,95.9999970703126
430,56,20920,5,0,0:0:0:0:
136,102,21087,1,0,0:0:0:0:
356,229,21254,1,0,0:0:0:0:
62,183,21421,1,0,0:0:0:0:
283,79,21587,1,0,0:0:0:0:
224,347,21754,1,0,0:0:0:0:
437,244,21920,5,0,0:0:0:0:
432,196,22003,1,0,0:0:0:0:
401,160,22086,1,0,0:0:0:0:
356,146,22169,1,0,0:0:0:0:
311,160,22254,6,0,P|223:139|203:53,1,160
283,79,22754,1,0,0:0:0:0:
334,197,22920,2,0,B|334:317|334:317|310:285|278:277,1,160
252,372,23420,1,0,0:0:0:0:
198,279,23587,6,0,P|124:248|36:305,1,160
125,346,24087,1,0,0:0:0:0:
0,237,24254,2,0,P|-30:165|0:93,1,160
67,165,24754,1,0,0:0:0:0:
95,69,24920,6,0,P|166:101|238:70,1,160
167,3,25420,1,0,0:0:0:0:
305,0,25587,2,0,P|335:71|304:143,1,160
221,212,26087,1,0,0:0:0:0:
323,250,26254,6,0,L|490:314,1,160
461,210,26754,1,0,0:0:0:0:
334,347,26920,2,0,P|285:340|238:298,1,80
386,187,27254,2,0,P|435:194|482:236,1,80
323,250,27587,6,0,P|297:180|357:102,1,160
455,68,28087,1,0,0:0:0:0:
342,72,28254,2,0,L|192:14,1,160
213,128,28754,1,0,0:0:0:0:
122,82,28920,6,0,P|98:38|98:0,1,80
237,143,29254,2,0,P|258:176|262:216,1,80
165,207,29587,1,0,0:0:0:0:
239,311,29754,1,0,0:0:0:0:
110,322,29920,2,0,L|31:330,1,80
63,188,30254,6,0,P|63:140|36:100,1,80
0,251,30587,1,0,0:0:0:0:
165,207,30754,1,0,0:0:0:0:
48,112,30920,2,0,L|40:32,1,80
238,110,31254,2,0,L|245:189,1,80
181,305,31587,5,0,0:0:0:0:
327,292,31754,1,0,0:0:0:0:
245,189,31920,1,0,0:0:0:0:
391,202,32087,1,0,0:0:0:0:
263,382,32254,5,0,0:0:0:0:
318,195,32420,1,0,0:0:0:0:
452,336,32587,1,0,0:0:0:0:
507,149,32754,1,0,0:0:0:0:
507,149,32837,1,0,0:0:0:0:
507,149,32920,6,0,P|445:84|366:75,1,160
391,202,33420,1,0,0:0:0:0:
289,96,33587,2,0,L|297:3,1,80
391,202,33920,2,0,L|382:294,1,80
284,210,34254,6,0,P|202:173|129:217,1,160
208,271,34754,1,0,0:0:0:0:
70,264,34920,2,0,P|43:191|81:123,1,160
142,199,35420,1,0,0:0:0:0:
152,25,35587,6,0,B|89:43|25:24|25:24|33:39|41:60,1,160
149,112,36087,1,0,0:0:0:0:
245,0,36254,2,0,P|240:39|252:79,1,80
419,157,36587,2,0,P|424:117|412:77,1,80
350,225,36920,6,0,P|428:255|509:194,1,160
419,157,37420,1,0,0:0:0:0:
320,243,37587,2,0,L|313:322,1,80
217,363,37920,1,0,0:0:0:0:
400,379,38087,1,0,0:0:0:0:
227,279,38254,6,0,B|166:280|141:333|141:333|114:308|73:299,1,160
16,369,38754,1,0,0:0:0:0:
62,236,38920,2,0,P|97:167|70:94,1,160
0,160,39420,1,0,0:0:0:0:
20,30,39587,6,0,P|61:13|107:20,1,80
62,236,39920,1,0,0:0:0:0:
70,94,40087,1,0,0:0:0:0:
187,170,40254,2,0,P|226:172|263:156,1,80
358,6,40587,2,0,P|318:3|282:20,1,80
324,227,40920,5,0,0:0:0:0:
332,85,41087,1,0,0:0:0:0:
187,170,41253,1,0,0:0:0:0:
399,164,41420,2,0,P|420:208|353:321,1,160
280,359,41920,1,0,0:0:0:0:
470,360,42087,1,0,0:0:0:0:
246,264,42254,6,0,P|204:286|160:287,1,80
0,109,42587,2,0,P|42:87|86:86,1,80
246,264,42920,1,0,0:0:0:0:
64,183,43087,1,0,0:0:0:0:
207,105,43254,1,0,0:0:0:0:
102,341,43421,1,0,0:0:0:0:
151,47,43587,6,0,P|219:24|286:83,1,143.999995605469
207,105,44087,1,0,0:0:0:0:
362,89,44254,2,0,L|348:240,1,143.999995605469
339,339,44754,1,0,0:0:0:0:
249,246,44920,5,0,0:0:0:0:
446,263,45087,2,0,L|459:120,1,143.999995605469
501,12,45587,2,0,P|444:39|354:7,1,143.999995605469
335,3,46004,1,0,0:0:0:0:
300,0,46087,1,0,0:0:0:0:
265,7,46171,1,0,0:0:0:0:
235,26,46254,6,0,B|184:47|128:28|128:28|160:88,1,143.999995605469
34,49,46754,1,0,0:0:0:0:
154,92,46920,2,0,P|179:164|131:239,1,143.999995605469
81,156,47420,1,0,0:0:0:0:
12,273,47587,6,0,L|84:280,1,71.9999978027344,0|0,0:3|0:3,0:3:0:0:
235,369,47920,2,0,L|163:362,1,71.9999978027344,0|0,0:3|0:3,0:3:0:0:
271,279,48254,2,0,B|325:301|331:356|331:356|344:333|383:323,1,143.999995605469
498,380,48754,1,0,0:0:0:0:
436,289,48920,6,0,P|402:222|429:147,1,143.999995605469
498,214,49420,1,0,0:0:0:0:
474,79,49587,2,0,P|405:62|344:96,1,143.999995605469
419,158,50087,1,0,0:0:0:0:
285,189,50254,6,0,P|281:153|263:117,1,71.9999978027344
85,30,50587,2,0,P|89:65|105:98,1,71.9999978027344
187,179,50920,2,0,P|114:213|31:186,1,143.999995605469
16,176,51337,1,0,0:0:0:0:
18,211,51420,1,0,0:0:0:0:
20,247,51503,1,0,0:0:0:0:
22,283,51587,6,0,B|66:309|126:303|126:303|92:332,1,143.999995605469
1,375,52087,1,0,0:0:0:0:
182,384,52254,2,0,P|223:321|206:247,1,143.999995605469
126,303,52754,1,0,0:0:0:0:
187,179,52920,6,0,P|232:183|286:167,1,71.9999978027344
337,81,53254,1,0,0:0:0:0:
351,253,53420,1,0,0:0:0:0:
262,43,53587,5,0,0:0:0:0:
285,16,53670,1,0,0:0:0:0:
318,1,53753,1,0,0:0:0:0:
353,0,53837,1,0,0:0:0:0:
386,14,53920,1,0,0:0:0:0:
506,112,54087,1,0,0:0:0:0:
506,112,54170,1,0,0:0:0:0:
506,112,54254,6,0,P|458:167|471:248,1,143.999995605469
511,347,54754,1,0,0:0:0:0:
390,367,54920,2,0,B|332:380|278:344|278:344|287:388,1,143.999995605469
167,353,55420,1,0,0:0:0:0:
271,262,55587,6,0,P|278:226|263:177,1,71.9999978027344
110,137,55920,2,0,P|103:173|118:222,1,71.9999978027344
193,85,56254,2,0,P|136:42|64:52,1,143.999995605469
110,137,56754,1,0,0:0:0:0:
0,267,56920,6,0,P|55:309|125:301,1,143.999995605469
83,215,57420,1,0,0:0:0:0:
211,258,57587,2,0,P|219:328|177:383,1,143.999995605469
125,301,58087,1,0,0:0:0:0:
314,208,58254,6,0,L|385:214,1,71.9999978027344
441,384,58587,2,0,L|369:377,1,71.9999978027344
454,285,58920,2,0,P|482:222|453:142,1,143.999995605469
445,120,59337,1,0,0:0:0:0:
440,84,59420,1,0,0:0:0:0:
449,49,59504,1,0,0:0:0:0:
468,20,59587,6,0,L|387:27,1,80
228,39,59920,1,0,0:0:0:0:
445,120,60087,1,0,0:0:0:0:
205,139,60254,2,0,L|124:146,1,80
381,292,60587,2,0,L|461:284,1,80
181,238,60920,5,0,0:0:0:0:
405,193,61087,1,0,0:0:0:0:
225,326,61254,2,0,P|188:335|136:325,1,80
52,107,61587,1,0,0:0:0:0:
181,238,61754,1,0,0:0:0:0:
3,284,61920,2,0,L|30:382,1,80
117,173,62254,5,0,0:0:0:0:
170,365,62420,1,0,0:0:0:0:
240,132,62587,5,0,0:0:0:0:
241,350,62753,1,0,0:0:0:0:
371,113,62920,5,0,0:0:0:0:
310,345,63086,1,0,0:0:0:0:
117,173,63254,5,0,0:0:0:0:
407,238,63420,1,0,0:0:0:0:
217,26,63587,5,0,0:0:0:0:
310,345,63754,1,0,0:0:0:0:
310,345,64087,1,0,0:0:0:0:
314,174,64254,1,0,0:0:0:0:
170,365,64420,1,0,0:0:0:0:
170,365,64504,1,0,0:0:0:0:
170,365,64587,1,0,0:0:0:0:
19,103,64754,1,0,0:0:0:0:
19,103,64838,1,0,0:0:0:0:
19,103,64920,6,0,B|103:104|130:31|130:31|143:93,1,191.999994140625
35,4,65420,1,0,0:0:0:0:
243,66,65587,1,0,0:0:0:0:
104,207,65754,1,0,0:0:0:0:
312,145,65921,1,0,0:0:0:0:
40,135,66087,6,0,P|9:225|88:304,1,191.999994140625
208,176,66587,1,0,0:0:0:0:
141,380,66754,1,0,0:0:0:0:
104,207,66920,1,0,0:0:0:0:
245,349,67087,1,0,0:0:0:0:
0,365,67254,1,0,0:0:0:0:
227,263,67420,1,0,0:0:0:0:
227,263,67504,1,0,0:0:0:0:
227,263,67587,6,0,P|286:271|329:321,1,95.9999970703126
141,380,67920,1,0,0:0:0:0:
395,372,68087,1,0,0:0:0:0:
226,262,68254,2,0,P|229:215|256:176,1,95.9999970703126
361,381,68587,1,0,0:0:0:0:
352,152,68754,6,0,P|311:94|199:99,1,191.999994140625
313,293,69254,1,0,0:0:0:0:
504,146,69420,2,0,B|511:92|475:12|475:12|467:54|448:78,1,191.999994140625
313,293,69920,1,0,0:0:0:0:
506,237,70087,1,0,0:0:0:0:
256,176,70254,6,0,B|175:202|121:152|121:152|129:178|128:208,1,191.999994140625
78,362,70754,1,0,0:0:0:0:
17,126,70920,1,0,0:0:0:0:
256,176,71087,1,0,0:0:0:0:
47,244,71254,1,0,0:0:0:0:
226,58,71420,1,0,0:0:0:0:
286,294,71587,6,0,P|342:324|387:323,1,95.9999970703126
501,47,71920,2,0,P|445:17|400:18,1,95.9999970703126
359,227,72254,1,0,0:0:0:0:
506,167,72420,1,0,0:0:0:0:
256,176,72587,1,0,0:0:0:0:
462,278,72754,1,0,0:0:0:0:
237,81,72920,6,0,P|188:107|161:166,1,95.9999970703126
359,227,73254,1,0,0:0:0:0:
305,13,73420,1,0,0:0:0:0:
228,265,73587,2,0,P|181:273|136:257,1,95.9999970703126
237,81,73920,1,0,0:0:0:0:
44,227,74087,6,0,P|60:318|153:354,1,191.999994140625
359,227,74587,1,0,0:0:0:0:
136,257,74754,1,0,0:0:0:0:
283,363,74920,1,0,0:0:0:0:
121,130,75087,1,0,0:0:0:0:
144,355,75254,1,0,0:0:0:0:
183,53,75420,1,0,0:0:0:0:
183,53,75504,1,0,0:0:0:0:
183,53,75587,6,0,P|93:36|28:102,1,191.999994140625
246,242,76087,1,0,0:0:0:0:
121,130,76254,1,0,0:0:0:0:
213,366,76420,1,0,0:0:0:0:
279,118,76587,1,0,0:0:0:0:
371,354,76754,6,0,B|447:383|500:320|500:320|510:383,1,191.999994140625
410,248,77254,2,0,P|401:202|413:156,1,95.9999970703126
501,320,77587,1,0,0:0:0:0:
307,229,77754,1,0,0:0:0:0:
501,199,77920,2,0,P|510:142|497:103,1,95.9999970703126
264,40,78254,6,0,L|369:20,1,95.9999970703126
307,229,78587,2,0,L|202:249,1,95.9999970703126
333,126,78920,1,0,0:0:0:0:
281,332,79087,1,0,0:0:0:0:
177,101,79254,1,0,0:0:0:0:
125,307,79420,6,0,P|70:340|59:223,1,191.999994140625
212,246,79920,1,0,0:0:0:0:
36,70,80087,2,0,B|104:101|178:57|178:57|171:83|176:117,1,191.999994140625
338,8,80587,1,0,0:0:0:0:
307,229,80754,1,0,0:0:0:0:
307,229,80837,1,0,0:0:0:0:
307,229,80920,6,0,P|349:267|402:276,1,95.9999970703126
512,51,81254,2,0,P|470:13|417:4,1,95.9999970703126
254,120,81587,1,0,0:0:0:0:
427,101,81754,1,0,0:0:0:0:
307,229,81920,1,0,0:0:0:0:
480,248,82087,1,0,0:0:0:0:
251,308,82254,6,0,P|218:268|213:211,1,95.9999970703126
352,357,82587,1,0,0:0:0:0:
179,376,82754,1,0,0:0:0:0:
306,228,82920,2,0,P|297:181|266:146,1,95.9999970703126
14,52,83254,2,0,P|23:98|54:134,1,95.9999970703126
210,225,83587,5,0,0:0:0:0:
12,274,83754,1,0,0:0:0:0:
109,53,83920,1,0,0:0:0:0:
131,284,84087,1,0,0:0:0:0:
82,86,84254,1,0,0:0:0:0:
286,120,84420,1,0,0:0:0:0:
28,183,84587,1,0,0:0:0:0:
259,153,84754,1,0,0:0:0:0:
184,366,84920,6,0,P|138:382|81:368,1,95.9999970703126
286,120,85254,1,0,0:0:0:0:
316,351,85421,1,0,0:0:0:0:
189,246,85587,1,0,0:0:0:0:
467,210,85754,1,0,0:0:0:0:
360,84,85920,1,0,0:0:0:0:
396,362,86087,1,0,0:0:0:0:
286,120,86254,6,0,P|279:71|307:20,1,95.9999970703126
467,210,86587,2,0,P|474:259|446:310,1,95.9999970703126
189,246,86920,1,0,0:0:0:0:
393,247,87087,1,0,0:0:0:0:
283,364,87254,1,0,0:0:0:0:
286,120,87421,1,0,0:0:0:0:
74,240,87587,5,0,0:0:0:0:
284,242,87754,1,0,0:0:0:0:
44,158,87920,5,0,0:0:0:0:
247,303,88087,1,0,0:0:0:0:
66,73,88254,5,0,0:0:0:0:
149,308,88421,1,0,0:0:0:0:
312,119,88587,1,0,0:0:0:0:
166,206,88754,1,0,0:0:0:0:
256,192,88920,12,0,90254,0:0:0:0:
456,36,94254,6,0,B|417:89|444:151|444:151|399:140,1,160
250,107,94754,1,0,0:0:0:0:
356,51,94920,1,0,0:0:0:0:
306,192,95087,2,0,P|294:274|356:336,1,160
387,243,95587,5,0,0:0:0:0:
420,362,95754,1,0,0:0:0:0:
280,300,95920,2,0,P|236:291|196:304,1,80
93,384,96254,1,0,0:0:0:0:
241,373,96420,1,0,0:0:0:0:
92,283,96587,1,0,0:0:0:0:
71,249,96670,1,0,0:0:0:0:
64,209,96753,1,0,0:0:0:0:
73,171,96836,1,0,0:0:0:0:
97,138,96920,6,0,P|119:99|118:47,1,80
25,73,97254,1,0,0:0:0:0:
170,204,97420,1,0,0:0:0:0:
118,25,97587,2,0,B|189:50|248:22|248:22|229:64,1,160
170,204,98087,1,0,0:0:0:0:
315,77,98254,6,0,P|350:51|391:47,1,80
512,289,98587,6,0,P|477:315|436:319,1,80
378,128,98920,1,0,0:0:0:0:
449,238,99087,1,0,0:0:0:0:
318,244,99254,1,0,0:0:0:0:
288,270,99337,1,0,0:0:0:0:
273,306,99420,1,0,0:0:0:0:
275,346,99503,1,0,0:0:0:0:
295,380,99587,6,0,B|236:343|187:375|187:375|180:351|150:332,1,160
13,308,100087,1,0,0:0:0:0:
155,247,100254,2,0,P|222:206|233:120,1,160
140,151,100754,1,0,0:0:0:0:
211,42,100920,6,0,L|311:26,1,80
78,23,101254,2,0,L|-22:39,1,80
140,151,101587,1,0,0:0:0:0:
289,29,101754,1,0,0:0:0:0:
314,186,101920,1,0,0:0:0:0:
320,225,102004,1,0,0:0:0:0:
326,264,102087,1,0,0:0:0:0:
332,304,102170,1,0,0:0:0:0:
339,343,102254,6,0,L|439:327,1,80
199,262,102587,2,0,L|99:278,1,80
308,147,102920,2,0,B|375:171|432:129|432:129|438:172,1,160
462,270,103420,1,0,0:0:0:0:
357,43,103587,5,0,0:0:0:0:
512,140,103754,1,0,0:0:0:0:
308,147,103920,1,0,0:0:0:0:
435,92,104087,1,0,0:0:0:0:
230,98,104254,1,0,0:0:0:0:
386,196,104420,1,0,0:0:0:0:
223,282,104587,1,0,0:0:0:0:
188,301,104670,1,0,0:0:0:0:
149,309,104753,1,0,0:0:0:0:
109,304,104836,1,0,0:0:0:0:
73,287,104920,6,0,L|88:387,1,80
12,175,105254,2,0,L|-3:75,1,80
95,21,105587,2,0,B|143:45|191:21|191:21|223:29|250:22,1,160
186,169,106087,1,0,0:0:0:0:
317,93,106254,6,0,P|343:55|347:7,1,80
198,148,106587,1,0,0:0:0:0:
372,212,106754,1,0,0:0:0:0:
317,93,106920,1,0,0:0:0:0:
253,267,107087,1,0,0:0:0:0:
442,278,107254,1,0,0:0:0:0:
463,244,107338,1,0,0:0:0:0:
468,205,107421,1,0,0:0:0:0:
458,166,107504,1,0,0:0:0:0:
433,136,107587,6,0,P|418:53|481:-14,1,160
512,79,108087,1,0,0:0:0:0:
317,93,108254,2,0,B|251:100|201:62|201:62|209:97,1,160
246,274,108754,1,0,0:0:0:0:
140,165,108920,6,0,P|116:124|117:72,1,80
315,207,109254,2,0,P|336:240|341:279,1,80
127,178,109587,1,0,0:0:0:0:
302,220,109754,1,0,0:0:0:0:
178,350,109920,1,0,0:0:0:0:
140,363,110003,1,0,0:0:0:0:
100,367,110086,1,0,0:0:0:0:
61,363,110169,1,0,0:0:0:0:
23,350,110254,6,0,P|39:273|22:196,1,160
129,267,110754,1,0,0:0:0:0:
62,109,110920,2,0,P|82:37|155:-1,1,160
158,97,111420,1,0,0:0:0:0:
351,26,111587,6,0,L|251:12,1,80
430,171,111920,2,0,L|530:185,1,80
469,42,112254,1,0,0:0:0:0:
312,155,112420,1,0,0:0:0:0:
509,182,112587,1,0,0:0:0:0:
512,221,112670,1,0,0:0:0:0:
503,258,112753,1,0,0:0:0:0:
476,287,112836,1,0,0:0:0:0:
438,300,112920,6,0,B|380:329|315:300|315:300|326:319|328:338,1,160
199,384,113420,1,0,0:0:0:0:
240,226,113587,2,0,P|233:146|168:96,1,160
147,192,114087,1,0,0:0:0:0:
11,38,114254,6,0,P|72:44|107:38,1,80
348,10,114587,2,0,P|287:4|252:10,1,80
240,226,114920,1,0,0:0:0:0:
90,41,115087,1,0,0:0:0:0:
337,217,115254,1,0,0:0:0:0:
332,256,115337,1,0,0:0:0:0:
312,290,115420,1,0,0:0:0:0:
281,314,115503,1,0,0:0:0:0:
242,323,115587,6,0,P|165:280|82:321,1,176.000005371094
1,384,116087,1,0,0:0:0:0:
160,378,116254,1,0,0:0:0:0:
6,176,116420,1,0,0:0:0:0:
165,170,116587,1,0,0:0:0:0:
90,310,116754,1,0,0:0:0:0:
83,120,116920,6,0,P|116:86|181:73,1,88.000002685547
333,98,117254,2,0,P|300:132|235:145,1,88.000002685547
331,0,117587,1,0,0:0:0:0:
418,144,117754,1,0,0:0:0:0:
225,131,117920,2,0,L|278:219,1,88.000002685547
416,62,118254,6,0,P|495:117|481:196,1,176.000005371094
401,293,118754,1,0,0:0:0:0:
418,144,118920,1,0,0:0:0:0:
498,301,119087,1,0,0:0:0:0:
304,285,119254,1,0,0:0:0:0:
407,159,119420,1,0,0:0:0:0:
343,374,119587,6,0,P|296:383|243:361,1,88.000002685547
263,210,119920,2,0,P|294:246|301:303,1,88.000002685547
160,361,120254,2,0,P|175:315|221:280,1,88.000002685547
343,374,120587,1,0,0:0:0:0:
263,210,120754,1,0,0:0:0:0:
160,361,120920,6,0,B|84:370|37:322|37:322|46:348|50:370,1,176.000005371094
128,233,121420,1,0,0:0:0:0:
160,361,121587,1,0,0:0:0:0:
33,250,121754,1,0,0:0:0:0:
203,288,121920,1,0,0:0:0:0:
65,160,122087,1,0,0:0:0:0:
244,104,122254,6,0,P|292:90|345:101,1,88.000002685547
487,237,122587,2,0,P|439:251|386:240,1,88.000002685547
297,188,122920,1,0,0:0:0:0:
434,153,123087,1,0,0:0:0:0:
301,272,123254,2,0,P|296:315|310:357,1,88.000002685547
434,153,123587,6,0,B|437:81|425:22|425:22|422:54|397:83,1,176.000005371094
244,104,124087,1,0,0:0:0:0:
328,11,124254,1,0,0:0:0:0:
297,188,124420,1,0,0:0:0:0:
191,20,124587,1,0,0:0:0:0:
351,107,124754,1,0,0:0:0:0:
195,202,124920,6,0,L|80:212,1,88.000002685547
15,34,125254,2,0,L|130:24,1,88.000002685547
244,104,125587,1,0,0:0:0:0:
18,126,125754,1,0,0:0:0:0:
195,202,125920,2,0,P|210:249|201:314,1,88.000002685547
6,356,126254,6,0,B|83:390|140:336|140:336|144:381,1,176.000005371094
61,255,126754,1,0,0:0:0:0:
208,286,126920,2,0,L|296:294,1,88.000002685547
496,383,127254,2,0,L|408:375,1,88.000002685547
503,256,127587,6,0,P|512:212|496:154,1,88.000002685547
341,167,127920,2,0,P|373:196|415:211,1,88.000002685547
498,71,128254,1,0,0:0:0:0:
503,256,128420,1,0,0:0:0:0:
423,113,128587,2,0,P|390:83|349:69,1,88.000002685547
234,13,128920,6,0,P|215:94|121:94,1,176.000005371094
21,11,129420,1,0,0:0:0:0:
95,180,129587,2,0,P|103:228|95:276,1,88.000002685547
2,384,129920,2,0,P|-6:336|2:288,1,88.000002685547
16,203,130254,5,0,0:0:0:0:
81,361,130420,1,0,0:0:0:0:
179,236,130587,2,0,P|227:228|275:236,1,88.000002685547
432,336,130920,1,0,0:0:0:0:
226,341,131087,1,0,0:0:0:0:
452,246,131254,2,0,P|457:202|449:159,1,88.000002685547
512,37,131587,6,0,P|464:44|417:38,1,95.9999970703126
256,2,131920,1,0,0:0:0:0:
321,160,132087,1,0,0:0:0:0:
159,123,132254,2,0,P|112:117|65:125,1,95.9999970703126
0,359,132587,2,0,P|47:364|94:357,1,95.9999970703126
159,123,132920,5,0,0:0:0:0:
177,353,133087,1,0,0:0:0:0:
33,242,133254,1,0,0:0:0:0:
263,224,133420,1,0,0:0:0:0:
65,125,133587,2,0,L|55:23,1,95.9999970703126
240,210,133920,1,0,0:0:0:0:
10,228,134086,1,0,0:0:0:0:
184,94,134254,6,0,P|224:102|272:94,1,80
356,154,134587,2,0,P|348:194|356:242,1,80
296,326,134920,2,0,P|256:318|208:326,1,80
124,266,135254,2,0,P|132:226|124:178,1,80
240,210,135587,1,0,0:0:0:0:
453,56,136420,1,0,0:0:0:0:
454,212,136587,1,0,0:0:0:0:
352,16,136754,6,0,B|280:40|208:16|208:16|226:40|231:65,1,191.999994140625
454,134,137254,1,0,0:0:0:0:
274,291,137420,1,0,0:0:0:0:
232,47,137587,1,0,0:0:0:0:
364,213,137754,1,0,0:0:0:0:
154,244,137920,1,0,0:0:0:0:
394,338,138087,6,0,B|476:318|491:226|491:226|513:261,1,191.999994140625
364,213,138587,1,0,0:0:0:0:
510,373,138754,1,0,0:0:0:0:
483,126,138920,1,0,0:0:0:0:
394,338,139087,1,0,0:0:0:0:
334,88,139254,1,0,0:0:0:0:
245,300,139420,1,0,0:0:0:0:
245,300,139504,1,0,0:0:0:0:
245,300,139587,6,0,P|209:335|151:351,1,95.9999970703126
3,171,139920,1,0,0:0:0:0:
67,371,140087,1,0,0:0:0:0:
114,153,140254,2,0,P|98:108|65:75,1,95.9999970703126
35,271,140587,1,0,0:0:0:0:
214,152,140754,6,0,B|272:127|349:146|349:146|315:154|292:174,1,191.999994140625
245,300,141254,1,0,0:0:0:0:
197,65,141420,2,0,B|262:43|331:53|331:53|308:32|295:3,1,191.999994140625
484,8,141920,2,0,P|499:52|491:99,1,95.9999970703126
245,300,142254,6,0,B|303:325|380:306|380:306|346:298|323:278,1,191.999994140625
331,52,142754,1,0,0:0:0:0:
462,254,142920,2,0,P|477:298|469:345,1,95.9999970703126
252,201,143254,1,0,0:0:0:0:
171,373,143420,1,0,0:0:0:0:
171,373,143504,1,0,0:0:0:0:
171,373,143587,6,0,P|126:388|79:380,1,95.9999970703126
112,195,143920,2,0,L|119:291,1,95.9999970703126
61,114,144254,2,0,P|105:98|152:106,1,95.9999970703126
171,373,144587,1,0,0:0:0:0:
16,198,144754,1,0,0:0:0:0:
240,280,144920,6,0,P|286:288|331:272,1,95.9999970703126
383,128,145254,1,0,0:0:0:0:
384,353,145420,1,0,0:0:0:0:
278,191,145587,1,0,0:0:0:0:
510,235,145754,1,0,0:0:0:0:
331,272,145920,1,0,0:0:0:0:
480,118,146087,6,0,P|422:39|322:52,1,191.999994140625
331,272,146587,1,0,0:0:0:0:
383,128,146754,1,0,0:0:0:0:
172,193,146920,2,0,L|57:229,1,95.9999970703126
208,311,147254,1,0,0:0:0:0:
136,75,147420,1,0,0:0:0:0:
136,75,147504,1,0,0:0:0:0:
136,75,147587,6,0,B|66:74|9:103|9:103|42:105|72:122,1,191.999994140625
67,329,148087,1,0,0:0:0:0:
9,103,148254,1,0,0:0:0:0:
172,193,148420,1,0,0:0:0:0:
1,238,148587,1,0,0:0:0:0:
243,84,148754,6,0,B|299:76|337:107|337:107|379:76|423:82,1,191.999994140625
395,334,149254,1,0,0:0:0:0:
266,195,149420,1,0,0:0:0:0:
492,196,149587,1,0,0:0:0:0:
331,265,149754,1,0,0:0:0:0:
498,119,149920,2,0,P|504:65|465:12,1,95.9999970703126
243,84,150254,5,0,0:0:0:0:
423,82,150420,1,0,0:0:0:0:
168,47,150587,2,0,P|162:101|201:154,1,95.9999970703126
331,265,150920,2,0,L|195:253,1,95.9999970703126
139,369,151254,1,0,0:0:0:0:
90,155,151420,6,0,B|73:81|40:36|40:36|41:75|22:115,1,191.999994140625
4,289,151920,1,0,0:0:0:0:
180,136,152087,2,0,B|255:161|328:134|328:134|309:172,1,191.999994140625
227,334,152587,1,0,0:0:0:0:
480,339,152754,1,0,0:0:0:0:
480,339,152837,1,0,0:0:0:0:
480,339,152920,6,0,P|503:249|425:159,1,191.999994140625
391,268,153420,1,0,0:0:0:0:
435,56,153587,1,0,0:0:0:0:
309,170,153754,1,0,0:0:0:0:
512,105,153920,1,0,0:0:0:0:
300,61,154087,1,0,0:0:0:0:
391,268,154254,6,0,P|386:318|359:357,1,95.9999970703126
128,357,154587,1,0,0:0:0:0:
294,285,154754,1,0,0:0:0:0:
60,286,154920,2,0,P|35:326|31:374,1,95.9999970703126
191,256,155254,1,0,0:0:0:0:
4,162,155420,1,0,0:0:0:0:
4,162,155504,1,0,0:0:0:0:
4,162,155587,6,0,L|111:147,1,95.9999970703126
289,121,155920,1,0,0:0:0:0:
157,8,156087,1,0,0:0:0:0:
191,256,156254,5,0,0:0:0:0:
383,106,156420,1,0,0:0:0:0:
163,236,156587,1,0,0:0:0:0:
386,362,156754,1,0,0:0:0:0:
289,121,156920,6,0,P|294:68|326:28,1,95.9999970703126
501,195,157254,1,0,0:0:0:0:
349,295,157420,1,0,0:0:0:0:
383,106,157587,5,0,0:0:0:0:
467,384,157754,1,0,0:0:0:0:
231,206,157920,1,0,0:0:0:0:
501,195,158087,1,0,0:0:0:0:
501,195,158170,1,0,0:0:0:0:
501,195,158254,6,0,B|512:129|504:61|504:61|492:95|470:115,1,191.999994140625
231,206,158754,1,0,0:0:0:0:
383,106,158920,1,0,0:0:0:0:
220,296,159087,1,0,0:0:0:0:
136,59,159254,1,0,0:0:0:0:
231,206,159420,1,0,0:0:0:0:
42,88,159587,6,0,P|41:38|68:-12,1,95.9999970703126
135,207,159920,1,0,0:0:0:0:
243,25,160087,1,0,0:0:0:0:
25,206,160254,1,0,0:0:0:0:
291,305,160420,1,0,0:0:0:0:
291,305,160504,1,0,0:0:0:0:
291,305,160587,1,0,0:0:0:0:
134,116,160754,1,0,0:0:0:0:
450,116,160920,6,0,B|476:164|473:234|473:234|459:208|430:182,1,176.000005371094
308,128,161420,1,0,0:0:0:0:
371,251,161587,2,0,P|389:299|379:348,1,88.000002685547
187,382,161920,1,0,0:0:0:0:
291,305,162087,1,0,0:0:0:0:
98,338,162254,6,0,P|61:308|62:168,1,176.000005371094
148,237,162754,1,0,0:0:0:0:
52,110,162920,2,0,P|37:54|146:47,1,176.000005371094
203,107,163420,1,0,0:0:0:0:
284,29,163587,6,0,L|379:37,1,88.000002685547
512,168,163920,2,0,L|416:159,1,88.000002685547
292,148,164254,2,0,B|275:205|292:271|292:271|301:239|319:219,1,176.000005371094
424,160,164754,1,0,0:0:0:0:
375,321,164920,6,0,P|305:367|224:341,1,176.000005371094
293,271,165420,1,0,0:0:0:0:
197,247,165587,2,0,P|135:304|140:389,1,176.000005371094
224,341,166087,1,0,0:0:0:0:
171,154,166254,6,0,L|144:58,1,88.000002685547
0,181,166587,2,0,L|27:277,1,88.000002685547
171,154,166920,2,0,B|242:159|294:117|294:117|290:143|294:161,1,176.000005371094
375,321,167420,1,0,0:0:0:0:
461,175,167587,6,0,P|474:134|468:91,1,88.000002685547
292,271,167920,2,0,P|278:312|284:355,1,88.000002685547
502,271,168254,2,0,L|406:244,1,88.000002685547
247,199,168587,1,0,0:0:0:0:
375,321,168754,1,0,0:0:0:0:
377,124,168920,6,0,P|315:64|230:49,1,176.000005371094
247,199,169420,1,0,0:0:0:0:
139,84,169587,2,0,P|133:41|147:0,1,88.000002685547
247,199,169920,2,0,P|253:242|239:283,1,88.000002685547
0,213,170254,6,0,B|62:224|62:224|87:220|87:220|157:233,1,160
342,66,170920,2,0,B|356:126|342:178|342:178|336:153|321:135,1,160
247,199,171420,1,0,0:0:0:0:
347,265,171587,6,0,P|424:280|501:259,1,160
512,26,172254,2,0,B|453:20|388:25|388:25|412:15|431:-7,1,160
442,151,172920,1,0,0:0:0:0:
256,192,173004,12,0,174254,0:0:0:0:
362,114,185587,5,0,0:0:0:0:
294,216,185754,1,0,0:0:0:0:
239,106,185920,1,0,0:0:0:0:
417,224,186087,1,0,0:0:0:0:
224,318,186254,6,0,P|146:335|78:296,1,160
162,223,186754,1,0,0:0:0:0:
57,189,186920,2,0,B|46:134|59:75|59:75|69:99|80:114,1,160
162,223,187420,1,0,0:0:0:0:
154,44,187587,6,0,B|219:65|282:44|282:44|273:72,1,160
338,218,188254,2,0,P|375:229|414:223,1,80
498,148,188587,1,0,0:0:0:0:
497,298,188754,1,0,0:0:0:0:
380,131,188920,6,0,P|303:128|249:184,1,160
338,218,189420,1,0,0:0:0:0:
229,283,189587,2,0,B|168:299|107:281|107:281|140:313,1,160
231,384,190087,1,0,0:0:0:0:
36,367,190254,6,0,P|-2:300|11:223,1,160
208,145,190920,2,0,L|105:106,1,80
0,4,191254,2,0,L|103:43,1,80
295,102,191587,6,0,P|299:179|244:234,1,160
208,145,192087,1,0,0:0:0:0:
383,60,192254,2,0,P|421:52|461:59,1,80
512,246,192587,1,0,0:0:0:0:
423,149,192754,1,0,0:0:0:0:
425,358,192920,6,0,P|386:365|346:358,1,80
244,234,193254,1,0,0:0:0:0:
385,269,193420,1,0,0:0:0:0:
155,274,193587,2,0,P|147:235|154:195,1,80
279,93,193920,1,0,0:0:0:0:
244,234,194086,1,0,0:0:0:0:
49,73,194254,5,0,0:0:0:0:
68,324,194420,1,0,0:0:0:0:
154,65,194587,5,0,0:0:0:0:
150,341,194753,1,0,0:0:0:0:
260,52,194920,5,0,0:3:0:0:
229,353,195086,1,0,0:3:0:0:
59,199,195254,1,0,0:0:0:0:
361,230,195420,1,0,0:3:0:0:
361,230,195504,1,0,0:3:0:0:
361,230,195587,6,0,P|408:229|451:208,1,95.9999970703126
154,65,195920,2,0,P|106:65|63:86,1,95.9999970703126
229,353,196254,1,0,0:0:0:0:
260,52,196420,1,0,0:0:0:0:
68,324,196587,1,0,0:0:0:0:
383,117,196754,6,0,P|437:95|496:105,1,120.000004577637
512,384,197254,1,0,0:0:0:0:
451,208,197420,1,0,0:0:0:0:
255,376,197587,1,0,0:0:0:0:
482,296,197753,1,0,0:0:0:0:
300,140,197920,1,8,0:0:0:0:
255,376,198087,6,0,B|190:395|125:366|125:366|161:363|186:338,1,200
376,174,198587,1,0,0:0:0:0:
124,265,198754,1,0,0:0:0:0:
171,1,198920,1,0,0:0:0:0:
250,220,199087,1,0,0:0:0:0:
44,46,199254,2,0,P|25:91|30:140,1,100
376,174,199587,5,0,0:0:0:0:
120,105,199754,1,0,0:0:0:0:
452,233,199920,2,0,P|471:187|466:138,1,100
261,28,200254,1,0,0:0:0:0:
376,174,200420,1,0,0:0:0:0:
445,2,200587,1,0,0:0:0:0:
250,220,200754,6,0,B|174:246|101:213|101:213|112:234|117:256,1,200
17,371,201254,1,0,0:0:0:0:
322,287,201420,2,0,P|345:195|279:125,1,200
101,384,201920,1,0,0:0:0:0:
250,220,202087,1,0,0:0:0:0:
6,233,202254,6,0,B|29:167|-10:105|-10:105|19:120|53:117,1,200
278,124,202754,1,0,0:0:0:0:
40,4,202920,1,0,0:0:0:0:
250,220,203087,1,0,0:0:0:0:
159,64,203254,1,0,0:0:0:0:
222,316,203420,1,0,0:0:0:0:
306,27,203587,6,0,P|354:20|402:35,1,100
452,287,203920,1,0,0:0:0:0:
349,118,204087,1,0,0:0:0:0:
512,195,204254,1,0,0:0:0:0:
250,220,204420,1,0,0:0:0:0:
463,98,204587,1,0,0:0:0:0:
392,379,204754,1,0,0:0:0:0:
254,121,204920,6,0,P|206:132|170:165,1,100
392,379,205254,1,0,0:0:0:0:
250,220,205420,1,0,0:0:0:0:
278,350,205587,1,0,0:0:0:0:
349,118,205754,1,0,0:0:0:0:
151,322,205920,1,0,0:0:0:0:
80,90,206087,1,0,0:0:0:0:
354,285,206254,6,0,P|402:300|450:289,1,100
490,25,206587,1,0,0:0:0:0:
407,203,206754,1,0,0:0:0:0:
294,42,206920,1,0,0:0:0:0:
490,135,207087,1,0,0:0:0:0:
250,220,207254,1,0,0:0:0:0:
446,313,207420,1,0,0:0:0:0:
225,124,207587,6,0,P|157:190|176:284,1,200
407,203,208087,1,0,0:0:0:0:
250,220,208254,1,0,0:0:0:0:
344,348,208420,1,0,0:0:0:0:
318,112,208587,1,0,0:0:0:0:
247,330,208754,6,0,B|177:349|125:339|125:339|162:320|176:283,1,200
31,74,209254,1,0,0:0:0:0:
84,250,209420,1,0,0:0:0:0:
210,117,209587,1,0,0:0:0:0:
7,177,209754,1,0,0:0:0:0:
233,13,209920,2,0,P|278:36|307:76,1,100
176,284,210254,5,0,0:0:0:0:
210,117,210420,1,0,0:0:0:0:
316,279,210587,2,0,P|365:273|406:246,1,100
455,94,210920,1,0,0:0:0:0:
475,301,211087,1,0,0:0:0:0:
326,166,211254,1,0,0:0:0:0:
345,373,211420,6,0,P|252:353|221:262,1,200
475,301,211920,1,0,0:0:0:0:
381,57,212087,2,0,B|311:44|250:64|250:64|287:71|313:85,1,200
316,279,212587,1,0,0:0:0:0:
142,102,212754,1,0,0:0:0:0:
142,102,212837,1,0,0:0:0:0:
142,102,212920,6,0,B|72:115|8:88|8:88|37:113|43:139,1,200
73,369,213420,1,0,0:0:0:0:
0,194,213587,1,0,0:0:0:0:
188,218,213754,1,0,0:0:0:0:
0,298,213920,1,0,0:0:0:0:
142,102,214087,1,0,0:0:0:0:
233,333,214254,6,0,P|281:348|329:338,1,100
450,173,214587,1,0,0:0:0:0:
428,374,214754,1,0,0:0:0:0:
503,90,214920,2,0,P|455:75|407:85,1,100
439,274,215254,1,0,0:0:0:0:
222,132,215420,1,0,0:0:0:0:
222,132,215504,1,0,0:0:0:0:
222,132,215587,6,0,P|211:83|226:36,1,100
503,90,215920,1,0,0:0:0:0:
307,89,216087,1,0,0:0:0:0:
512,0,216254,1,0,0:0:0:0:
439,274,216420,1,0,0:0:0:0:
366,0,216587,1,0,0:0:0:0:
450,173,216754,1,0,0:0:0:0:
221,131,216920,6,0,P|173:116|125:126,1,100
169,384,217254,1,0,0:0:0:0:
168,213,217420,1,0,0:0:0:0:
24,351,217587,1,0,0:0:0:0:
313,246,217754,1,0,0:0:0:0:
23,180,217920,1,0,0:0:0:0:
241,315,218087,1,0,0:0:0:0:
241,315,218170,1,0,0:0:0:0:
241,315,218254,6,0,B|315:372|384:314|384:314|389:356,1,200
512,162,218754,1,0,0:0:0:0:
486,377,218920,1,0,0:0:0:0:
313,246,219087,1,0,0:0:0:0:
499,270,219254,1,0,0:0:0:0:
241,315,219420,1,0,0:0:0:0:
330,68,219587,6,0,P|291:38|242:31,1,100
4,156,219920,1,0,0:0:0:0:
253,128,220087,1,0,0:0:0:0:
6,5,220254,1,0,0:0:0:0:
242,31,220421,1,0,0:0:0:0:
101,222,220587,1,0,0:0:0:0:
124,18,220754,1,0,0:0:0:0:
168,291,220920,6,0,P|85:318|14:264,1,184.000003509522
198,203,221420,2,0,B|261:235|327:194|327:194|313:240,1,184.000003509522
278,373,221920,1,0,0:0:0:0:
458,326,222087,1,0,0:0:0:0:
326,194,222254,6,0,P|316:136|327:92,1,92.0000017547608
427,145,222587,1,0,0:0:0:0:
330,14,222754,2,0,B|267:46|201:5|201:5|212:27|214:51,1,184.000003509522
198,203,223254,1,0,0:0:0:0:
322,104,223420,1,0,0:0:0:0:
29,38,223587,5,0,0:0:0:0:
86,314,223754,1,0,0:0:0:0:
143,23,223920,5,0,0:0:0:0:
178,329,224087,1,0,0:0:0:0:
291,6,224254,5,0,0:0:0:0:
270,344,224421,1,0,0:0:0:0:
41,157,224587,1,0,0:0:0:0:
413,181,224754,1,0,0:0:0:0:
0,353,224920,1,0,0:0:0:0:
