osu file format v14

[General]
AudioFilename: audio.mp3
AudioLeadIn: 0
PreviewTime:174551
Countdown: 0
SampleSet: Soft
StackLeniency: 0.7
Mode: 0
LetterboxInBreaks: 0
WidescreenStoryboard: 1

[Editor]
DistanceSpacing: 1
BeatDivisor: 4
GridSize: 32
TimelineZoom: 1.4

[Metadata]
Title:Dakara, Hitori Janai
TitleUnicode:だから、ひとりじゃない
Artist:Little Glee Monster
ArtistUnicode:Little Glee Monster
Creator:Azu
Version:Normal
Source:僕のヒーローアカデミア
Tags:Boku no Hero My Academia 第2期 2nd season ed ending japanese anime jpop j-pop full size length version SkyFlame Mayu Sakuma Xexyz Azunyan- Ayana
BeatmapID:3035727
BeatmapSetID:1474832

[Difficulty]
HPDrainRate:3
CircleSize:3
OverallDifficulty:5
ApproachRate:5
SliderMultiplier:1
SliderTickRate:1

[Events]
//Background and Video events
Video,0,"dakara__mv.mp4"
0,0,"k-onisbetter.jpg",0,0
//Break Periods
2,175468,184935
//Storyboard Layer 0 (Background)
//Storyboard Layer 1 (Fail)
//Storyboard Layer 2 (Pass)
//Storyboard Layer 3 (Foreground)
//Storyboard Layer 4 (Overlay)
//Storyboard Sound Samples

[TimingPoints]
802,333.333333333333,4,2,1,50,1,0
802,-111.111111111111,4,2,1,50,0,0
11468,-100,4,2,1,60,0,0
59468,-100,4,2,1,65,0,0
64801,-100,4,2,1,80,0,1
88801,-100,4,2,1,55,0,0
136635,-100,4,2,1,80,0,1
160801,-100,4,2,1,55,0,0
174135,-100,4,2,1,5,0,0
186135,-111.111111111111,4,2,1,55,0,0
194135,-100,4,2,1,55,0,0
197135,-100,4,2,1,80,0,1
220801,-100,4,2,1,80,0,0
223468,-100,4,2,1,85,0,1
224801,-100,4,2,1,80,0,0

[Colours]
Combo1 : 250,180,240
Combo2 : 120,200,230
Combo3 : 255,230,130
Combo4 : 160,230,150

[HitObjects]
122,112,802,6,0,P|43:223|204:309,1,359.999989013672,2|2,2:0|2:0,2:0:0:0:
289,313,2468,1,2,2:0:0:0:
369,353,2801,1,2,2:0:0:0:
497,226,3468,6,0,B|461:131|523:61|523:61|447:118|339:72,1,359.999989013672,2|2,2:0|2:0,2:0:0:0:
272,26,5135,1,2,2:0:0:0:
191,66,5468,1,2,2:0:0:0:
127,234,6135,6,0,B|302:313|281:150|473:229,1,359.999989013672,2|2,2:0|2:0,2:0:0:0:
489,316,7801,1,2,2:0:0:0:
430,384,8135,1,2,2:0:0:0:
255,324,8801,5,2,2:0:0:0:
256,192,9135,12,0,10801,2:0:0:0:
148,140,11468,6,0,L|257:109,1,100,4|8,2:0|2:0,2:0:0:0:
285,140,11968,1,8,2:1:0:0:
378,102,12301,2,0,P|382:56|394:1,2,100,8|4|0,2:1|2:3|2:0,2:0:0:0:
420,138,13134,1,8,2:0:0:0:
420,138,13301,2,0,L|440:246,1,100,8|8,2:1|2:1,2:0:0:0:
415,337,13968,1,8,2:1:0:0:
415,337,14135,6,0,P|363:307|320:300,1,100,4|8,2:3|2:0,2:0:0:0:
283,329,14635,1,8,2:1:0:0:
194,375,14968,2,0,P|112:363|79:355,1,100,8|8,2:1|2:1,2:0:0:0:
57,326,15468,5,2,2:0:0:0:
0,246,15801,1,10,2:0:0:0:
56,162,16135,1,2,2:0:0:0:
151,193,16468,1,10,2:0:0:0:
207,109,16801,6,0,B|271:117|271:117|303:146,1,100,4|8,2:0|2:0,2:0:0:0:
329,178,17301,1,8,2:1:0:0:
428,188,17635,2,0,P|445:148|459:88,1,100,8|8,2:1|2:1,2:0:0:0:
444,44,18135,1,2,2:0:0:0:
348,44,18468,1,8,2:0:0:0:
348,44,18635,2,0,L|239:17,1,100,8|8,2:1|2:1,2:0:0:0:
202,8,19135,1,8,2:0:0:0:
112,51,19468,6,0,L|134:160,1,100,12|8,2:0|2:0,2:0:0:0:
76,232,20135,2,0,L|54:341,1,100,8|8,2:0|2:0,2:0:0:0:
152,356,20801,2,0,P|169:344|200:329,1,50,4|8,2:0|2:1,2:0:0:0:
249,329,21135,1,8,2:1:0:0:
249,329,21301,2,0,L|350:354,1,100,10|8,2:0|2:1,2:0:0:0:
393,368,21801,1,8,2:0:0:0:
487,334,22135,6,0,P|500:282|500:236,1,100,4|8,2:0|2:0,2:0:0:0:
473,201,22635,1,10,2:1:0:0:
473,201,22801,1,2,0:0:0:0:
387,149,23135,1,8,0:0:0:0:
302,202,23468,2,0,L|192:225,1,100,10|8,2:1|2:0,2:0:0:0:
158,229,23968,1,10,2:1:0:0:
158,229,24135,2,0,P|125:176|109:118,1,100,2|8,2:0|2:0,2:0:0:0:
143,45,24801,6,0,L|258:75,1,100,8|8,2:1|2:0,2:0:0:0:
284,37,25301,1,10,2:1:0:0:
284,37,25468,2,0,L|399:7,1,100,2|8,2:0|2:0,2:0:0:0:
447,87,26135,2,0,P|434:163|433:198,1,100,10|8,2:1|2:0,2:0:0:0:
469,227,26635,1,10,2:1:0:0:
469,227,26801,1,2,0:0:0:0:
483,326,27135,1,8,0:0:0:0:
399,380,27468,6,0,P|315:348|284:342,1,100,10|8,2:1|2:0,2:0:0:0:
269,319,27968,1,10,2:1:0:0:
269,319,28135,2,0,P|185:351|154:357,1,100,2|8,2:0|2:0,2:0:0:0:
133,337,28635,1,2,2:0:0:0:
133,337,28801,1,10,2:1:0:0:
63,264,29135,1,10,2:0:0:0:
89,166,29468,1,2,2:0:0:0:
186,141,29802,1,8,2:0:0:0:
258,213,30135,6,0,L|367:196,1,100,8|8,2:1|2:0,2:0:0:0:
388,243,30635,1,8,2:1:0:0:
388,243,30801,2,0,L|497:260,1,100,0|8,2:0|2:0,2:0:0:0:
507,160,31468,2,0,P|519:99|508:51,1,100,10|10,2:1|2:0,2:0:0:0:
476,36,31968,1,10,2:1:0:0:
476,36,32135,1,10,2:1:0:0:
381,68,32468,1,10,2:0:0:0:
288,31,32801,6,0,L|184:17,1,100,4|8,2:3|2:0,2:0:0:0:
144,34,33301,1,10,2:1:0:0:
144,34,33468,2,0,P|121:82|117:136,1,100,2|8,2:0|2:0,2:0:0:0:
148,223,34135,2,0,L|248:194,1,100,8|8,2:1|2:0,2:0:0:0:
281,161,34635,1,2,2:0:0:0:
281,161,34801,1,2,2:0:0:0:
366,109,35135,1,8,0:0:0:0:
442,173,35468,6,0,P|456:223|465:271,1,100,4|8,3:0|2:0,2:0:0:0:
447,319,35968,1,0,2:0:0:0:
447,319,36135,2,0,L|348:292,1,100,2|8,2:0|2:0,2:0:0:0:
264,343,36801,2,0,P|197:347|153:358,1,100,8|8,2:1|2:0,2:0:0:0:
122,341,37301,1,2,2:0:0:0:
122,341,37468,1,2,0:0:0:0:
79,250,37801,1,8,0:0:0:0:
119,158,38135,6,0,L|235:174,1,100,4|8,2:3|2:0,2:0:0:0:
266,199,38635,1,2,2:0:0:0:
266,199,38801,2,0,L|365:185,1,100,2|8,2:0|2:0,2:0:0:0:
410,160,39301,1,2,2:0:0:0:
410,160,39468,1,2,0:0:0:0:
434,63,39801,1,8,0:0:0:0:
336,38,40135,2,0,L|237:13,1,100,2|10,2:0|2:0,2:0:0:0:
139,4,40801,5,8,2:3:0:0:
59,65,41135,1,8,2:3:0:0:
31,161,41468,1,2,2:0:0:0:
48,259,41801,1,8,2:3:0:0:
110,336,42135,2,0,L|221:301,1,100,8|8,2:1|2:1,2:0:0:0:
253,334,42635,1,8,2:1:0:0:
253,334,42801,2,0,L|364:369,1,100,8|8,2:1|2:0,2:0:0:0:
457,344,43468,6,0,B|490:277|490:277|451:136,1,200,4|8,2:0|2:0,2:0:0:0:
445,112,44301,1,2,2:0:0:0:
445,112,44468,1,2,2:0:0:0:
361,166,44801,2,0,L|257:144,1,100,2|0,2:0|2:0,2:0:0:0:
183,206,45468,2,0,L|79:184,1,100,8|8,2:0|2:0,2:0:0:0:
35,98,46135,6,0,P|74:38|210:35,1,200,8|8,2:1|2:0,2:0:0:0:
270,90,47135,1,0,2:0:0:0:
270,90,47301,2,0,L|373:71,1,100,8|8,2:1|2:1,2:0:0:0:
466,111,47968,1,0,2:0:0:0:
466,111,48135,2,0,P|453:170|444:225,1,100,8|2,2:0|2:0,2:0:0:0:
432,307,48801,6,0,B|326:332|340:253|227:292,1,200,4|8,2:3|2:0,2:0:0:0:
208,329,49635,1,2,2:0:0:0:
208,329,49801,1,2,2:0:0:0:
110,353,50135,2,0,P|55:328|24:303,1,100,2|2,2:0|2:0,2:0:0:0:
52,207,50801,2,0,L|74:90,1,100,10|2,2:0|2:0,2:0:0:0:
133,30,51468,6,0,B|193:1|193:1|342:27,1,200,4|8,2:3|2:0,2:0:0:0:
410,74,52468,1,2,2:0:0:0:
410,74,52635,2,0,L|432:184,1,100,10|8,2:1|2:1,2:0:0:0:
441,220,53135,1,2,2:0:0:0:
389,305,53468,2,0,P|326:299|281:288,1,100,8|8,2:0|2:0,2:0:0:0:
223,215,54135,6,0,P|149:210|80:322,1,200,4|8,2:0|2:0,2:0:0:0:
88,352,54968,1,2,2:0:0:0:
88,352,55135,1,2,2:0:0:0:
185,373,55468,2,0,L|303:368,1,100,2|2,2:0|2:0,2:0:0:0:
379,334,56135,2,0,P|399:297|414:230,1,100,10|2,2:0|2:0,2:0:0:0:
377,147,56801,6,0,B|262:108|302:187|163:146,1,200,4|8,2:3|2:0,2:0:0:0:
86,162,57801,1,2,2:0:0:0:
86,162,57968,2,0,P|72:114|63:51,1,100,10|8,2:1|2:1,2:0:0:0:
156,22,58635,1,8,2:1:0:0:
156,22,58801,2,0,L|261:-2,1,100,8|8,2:0|2:0,2:0:0:0:
302,25,59301,1,8,2:0:0:0:
302,25,59468,6,0,L|408:3,1,100,10|10,2:1|2:0,2:0:0:0:
442,31,59968,1,10,2:1:0:0:
392,117,60301,1,10,2:1:0:0:
462,196,60635,1,2,2:0:0:0:
462,196,60801,2,0,L|443:312,1,100,10|8,2:1|2:0,2:0:0:0:
363,350,61468,2,0,P|309:326|265:313,1,100,2|10,2:0|2:0,2:0:0:0:
169,315,62135,5,8,2:0:0:0:
78,357,62468,1,8,2:0:0:0:
7,285,62801,2,0,L|-3:226,1,50,8|8,2:0|2:1,2:0:0:0:
27,194,63135,2,0,L|35:144,1,50,8|8,2:0|2:1,2:0:0:0:
59,102,63468,1,12,2:0:0:0:
59,102,63635,2,0,L|36:-11,2,100,8|8|8,2:3|2:3|2:3,2:0:0:0:
153,136,64635,1,8,2:0:0:0:
153,136,64801,6,0,P|243:111|254:102,1,100,6|10,2:0|2:0,2:0:0:0:
310,31,65468,1,2,2:0:0:0:
310,31,65635,1,10,2:1:0:0:
403,66,65968,2,0,L|388:185,1,100,10|8,2:1|2:1,2:0:0:0:
369,210,66468,1,10,2:0:0:0:
414,298,66801,1,2,2:0:0:0:
414,298,66968,1,10,2:1:0:0:
335,359,67301,6,0,B|250:331|274:382|169:351,1,150,8|10,2:1|2:0,2:0:0:0:
147,326,67968,1,10,2:1:0:0:
147,326,68135,2,0,L|112:227,1,100,2|10,2:0|2:0,2:0:0:0:
131,184,68635,2,0,P|180:160|239:146,1,100,10|10,2:1|2:1,2:0:0:0:
294,218,69301,2,0,L|282:269,2,50,10|2|10,2:1|2:0|2:1,2:0:0:0:
341,201,69801,1,10,2:0:0:0:
433,240,70135,6,0,P|464:178|477:136,1,100,4|8,2:0|2:0,2:0:0:0:
450,104,70635,2,0,L|341:67,1,100,8|8,2:0|2:1,2:0:0:0:
264,43,71301,1,8,2:1:0:0:
264,43,71468,2,0,L|154:68,1,100,4|8,2:3|2:0,2:0:0:0:
118,36,71968,1,10,2:1:0:0:
122,40,72135,2,0,P|83:108|87:149,1,100,2|8,2:0|2:0,2:0:0:0:
99,174,72635,1,10,2:1:0:0:
74,271,72968,5,10,2:1:0:0:
74,271,73135,2,0,P|74:331|93:370,1,100,10|8,2:0|2:1,2:0:0:0:
141,374,73635,1,10,2:1:0:0:
212,304,73968,1,2,2:0:0:0:
306,337,74301,1,10,2:1:0:0:
306,337,74468,2,0,L|416:353,1,100,10|2,2:0|2:0,2:0:0:0:
448,325,74968,2,0,P|467:296|478:261,1,50,10|10,2:1|2:0,2:0:0:0:
451,236,75301,1,8,2:1:0:0:
451,236,75468,6,0,P|437:161|440:127,1,100,4|8,2:3|2:0,2:0:0:0:
437,41,76135,1,2,2:0:0:0:
437,41,76301,1,10,2:1:0:0:
336,42,76635,2,0,L|216:19,1,100,6|8,2:3|2:1,2:0:0:0:
195,50,77135,2,0,L|75:73,1,100,10|0,2:0|2:0,2:0:0:0:
47,58,77635,1,10,2:1:0:0:
10,151,77968,6,0,B|-1:208|-1:208|42:299,1,150,8|10,2:1|2:0,2:0:0:0:
125,339,78801,1,2,2:0:0:0:
178,255,79135,1,10,2:0:0:0:
178,255,79301,2,0,L|196:145,1,100,10|10,2:1|2:1,2:0:0:0:
247,71,79968,1,10,2:1:0:0:
344,49,80301,1,10,2:1:0:0:
436,99,80635,1,8,2:1:0:0:
436,99,80801,6,0,L|419:197,1,100,4|8,2:3|2:0,2:0:0:0:
385,234,81301,2,0,L|402:332,1,100,8|8,2:1|2:1,2:0:0:0:
386,380,81801,1,10,2:0:0:0:
294,338,82135,2,0,P|249:331|194:334,1,100,8|8,2:1|2:0,2:0:0:0:
96,350,82801,2,0,P|70:282|65:238,1,100,2|8,2:0|2:0,2:0:0:0:
107,164,83468,5,8,2:1:0:0:
185,227,83801,1,8,2:0:0:0:
272,177,84135,2,0,P|335:165|384:167,1,100,10|10,2:1|2:0,2:0:0:0:
455,218,84801,1,10,2:1:0:0:
499,127,85135,2,0,L|504:64,1,50,8|8,2:0|2:0,2:0:0:0:
469,40,85468,2,0,L|367:12,1,100,2|8,2:0|2:0,2:0:0:0:
294,76,86135,5,8,2:1:0:0:
219,18,86468,1,8,2:0:0:0:
219,18,86635,1,8,2:0:0:0:
129,62,86968,1,8,2:1:0:0:
133,66,87135,2,0,P|114:118|104:169,1,100,8|8,2:0|2:1,2:0:0:0:
123,259,87801,1,10,2:0:0:0:
218,227,88135,2,0,L|240:162,2,50,2|8|10,2:0|2:1|2:0,2:0:0:0:
282,303,88801,5,6,2:1:0:0:
256,192,88968,12,0,92801,2:0:0:0:
421,229,94135,5,4,2:0:0:0:
421,229,94301,2,0,L|435:164,2,50,2|0|10,2:0|2:0|2:1,2:0:0:0:
387,266,94801,1,10,2:0:0:0:
387,266,94968,2,0,P|309:241|280:241,1,100,2|8,2:0|2:1,2:0:0:0:
246,262,95468,5,10,2:1:0:0:
156,300,95801,1,2,2:0:0:0:
68,251,96135,2,0,L|48:136,1,100,10|2,2:0|2:0,2:0:0:0:
106,70,96801,1,4,2:3:0:0:
106,70,96968,2,0,L|120:1,2,50,2|0|8,2:0|2:0|2:1,2:0:0:0:
145,100,97468,2,0,P|202:116|250:120,1,100,10|2,2:0|2:0,2:0:0:0:
319,55,98135,2,0,P|366:40|416:35,1,100,2|2,2:0|2:0,2:0:0:0:
462,123,98801,1,10,2:0:0:0:
505,213,99135,1,2,2:0:0:0:
441,290,99468,6,0,L|430:353,2,50,6|0|2,2:3|2:0|2:0,2:0:0:0:
407,260,99968,1,8,2:1:0:0:
407,260,100135,2,0,P|312:238|311:238,1,100,10|2,2:0|2:0,2:0:0:0:
231,299,100801,1,2,2:0:0:0:
136,266,101135,1,2,2:0:0:0:
43,304,101468,2,0,P|4:247|-1:196,1,100,10|2,2:0|2:0,2:0:0:0:
44,128,102135,6,0,L|53:64,2,50,4|2|0,2:3|2:0|2:0,2:0:0:0:
87,162,102635,1,0,2:0:0:0:
87,162,102801,2,0,L|195:147,1,100,8|0,2:0|2:0,2:0:0:0:
265,209,103468,2,0,L|373:224,1,100,2|2,2:0|2:0,2:0:0:0:
452,176,104135,1,10,2:0:0:0:
466,77,104468,1,2,2:0:0:0:
390,11,104801,6,0,P|337:0|281:-1,1,100,4|0,2:0|2:0,2:0:0:0:
262,39,105301,1,8,2:1:0:0:
262,39,105468,2,0,P|209:50|153:51,1,100,8|0,2:0|2:0,2:0:0:0:
65,29,106135,1,2,2:0:0:0:
7,110,106468,1,2,2:0:0:0:
63,192,106801,2,0,L|90:306,1,100,10|2,2:0|2:0,2:0:0:0:
121,332,107301,1,2,2:0:0:0:
121,332,107468,6,0,P|194:303|223:297,1,100,4|0,2:3|2:0,2:0:0:0:
306,338,108135,1,8,2:0:0:0:
383,275,108468,1,0,2:0:0:0:
481,294,108801,2,0,P|490:244|493:182,1,100,2|2,2:0|2:0,2:0:0:0:
440,109,109468,1,10,2:0:0:0:
351,154,109801,1,2,2:0:0:0:
266,204,110135,1,8,2:1:0:0:
266,204,110301,6,0,B|222:219|222:219|157:198,1,100,2|8,2:0|2:1,2:0:0:0:
128,189,110801,1,8,2:0:0:0:
56,118,111135,1,0,2:0:0:0:
95,26,111468,6,0,L|199:45,1,100,2|2,2:0|2:0,2:0:0:0:
285,82,112135,2,0,L|391:64,1,100,10|2,2:0|2:0,2:0:0:0:
429,97,112635,1,2,2:0:0:0:
429,97,112801,2,0,P|405:167|405:203,1,100,4|0,2:3|2:0,2:0:0:0:
407,292,113468,2,0,L|292:264,1,100,10|2,2:0|2:0,2:0:0:0:
219,312,114135,6,0,L|226:383,2,50,2|10|2,2:0|2:1|2:0,2:0:0:0:
181,278,114635,2,0,L|171:170,1,100,8|8,2:1|2:1,2:0:0:0:
192,132,115135,1,10,2:0:0:0:
223,37,115468,6,0,B|325:8|306:71|431:43,1,200,4|8,2:0|2:1,2:0:0:0:
463,19,116301,1,2,2:1:0:0:
463,19,116468,1,10,2:0:0:0:
499,111,116801,2,0,L|477:215,1,100,0|10,2:0|2:0,2:0:0:0:
409,281,117468,2,0,L|311:260,1,100,10|10,2:1|2:0,2:0:0:0:
267,170,118135,6,0,B|208:150|208:150|62:200,1,200,8|8,2:1|2:1,2:0:0:0:
12,271,119135,1,10,2:0:0:0:
12,271,119301,2,0,L|31:374,1,100,10|8,2:1|2:1,2:0:0:0:
134,377,119968,1,0,2:0:0:0:
134,377,120135,2,0,P|193:364|248:355,1,100,8|10,2:1|2:0,2:0:0:0:
278,269,120801,6,0,B|384:244|370:323|483:284,1,200,4|8,2:0|2:1,2:0:0:0:
505,251,121635,1,10,2:1:0:0:
505,251,121801,1,10,2:0:0:0:
506,150,122135,2,0,L|490:43,1,100,2|10,2:0|2:0,2:0:0:0:
392,63,122801,2,0,L|297:25,1,100,10|10,2:1|2:0,2:0:0:0:
211,74,123468,6,0,B|151:45|151:45|2:71,1,200,6|8,2:3|2:1,2:0:0:0:
9,171,124468,1,10,2:0:0:0:
9,171,124635,2,0,L|31:281,1,100,10|10,2:1|2:1,2:0:0:0:
59,308,125135,1,10,2:0:0:0:
147,260,125468,2,0,P|210:266|255:277,1,100,8|8,2:1|2:0,2:0:0:0:
314,347,126135,6,0,P|388:352|457:240,1,200,4|8,2:0|2:1,2:0:0:0:
459,213,126968,1,2,2:0:0:0:
410,125,127301,1,2,2:0:0:0:
410,125,127468,2,0,L|293:154,1,100,8|8,2:1|2:0,2:0:0:0:
213,160,128135,2,0,L|112:145,1,100,8|10,2:1|2:0,2:0:0:0:
31,88,128801,6,0,B|74:31|74:31|213:51,1,200,10|8,2:1|2:1,2:0:0:0:
283,116,129801,1,10,2:0:0:0:
283,116,129968,2,0,L|401:92,1,100,2|8,2:0|2:1,2:0:0:0:
473,146,130635,1,0,2:0:0:0:
473,146,130801,2,0,L|455:268,1,100,8|10,2:1|2:0,2:0:0:0:
446,296,131301,1,10,2:0:0:0:
446,296,131468,6,0,L|342:281,1,100,4|0,2:3|2:0,2:0:0:0:
297,273,131968,1,10,2:1:0:0:
213,327,132301,1,10,2:1:0:0:
135,273,132635,1,10,2:1:0:0:
135,273,132801,2,0,L|116:157,1,100,8|8,2:0|2:0,2:0:0:0:
145,77,133468,2,0,P|198:60|244:56,1,100,8|8,2:0|2:0,2:0:0:0:
328,106,134135,5,8,2:1:0:0:
409,48,134468,1,8,2:1:0:0:
471,125,134801,2,0,L|467:239,1,100,8|8,2:1|2:1,2:0:0:0:
422,314,135468,2,1,P|326:340|234:284,1,200,4|0,2:0|2:0,2:0:0:0:
196,212,136468,1,0,2:0:0:0:
196,212,136635,6,0,P|149:237|95:246,1,100,4|8,2:0|2:1,2:0:0:0:
55,232,137135,1,10,2:0:0:0:
64,136,137468,1,2,2:0:0:0:
64,136,137635,1,10,2:1:0:0:
154,94,137968,2,0,L|254:118,1,100,10|8,2:1|2:1,2:0:0:0:
299,129,138468,1,10,2:0:0:0:
398,152,138801,1,2,2:0:0:0:
398,152,138968,1,10,2:1:0:0:
486,197,139301,6,0,B|514:112|463:136|494:31,1,150,2|10,2:0|2:0,2:0:0:0:
447,33,139968,1,10,2:1:0:0:
447,33,140135,2,0,L|348:-2,1,100,2|10,2:0|2:0,2:0:0:0:
311,28,140635,2,0,L|201:50,1,100,10|10,2:1|2:1,2:0:0:0:
113,48,141301,2,0,L|87:-7,2,50,10|0|10,2:1|2:0|2:1,2:0:0:0:
83,88,141801,1,10,2:0:0:0:
115,182,142135,6,0,P|84:244|71:286,1,100,4|8,2:0|2:0,2:0:0:0:
79,322,142635,2,0,L|183:292,1,100,8|8,2:0|2:1,2:0:0:0:
262,353,143301,1,8,2:1:0:0:
262,353,143468,2,0,L|372:378,1,100,8|8,2:1|2:0,2:0:0:0:
408,357,143968,1,10,2:1:0:0:
408,357,144135,2,0,P|447:289|443:248,1,100,2|8,2:0|2:0,2:0:0:0:
417,229,144635,1,10,2:1:0:0:
438,134,144968,5,10,2:1:0:0:
438,134,145135,2,0,L|419:35,1,100,10|8,2:0|2:1,2:0:0:0:
370,25,145635,1,10,2:1:0:0:
295,90,145968,1,2,2:0:0:0:
206,47,146301,1,10,2:1:0:0:
206,47,146468,2,0,L|96:31,1,100,10|2,2:0|2:0,2:0:0:0:
64,59,146968,2,0,P|45:88|34:123,1,50,10|10,2:1|2:0,2:0:0:0:
61,148,147301,1,8,2:1:0:0:
61,148,147468,6,0,P|75:223|72:257,1,100,4|8,2:3|2:0,2:0:0:0:
96,348,148135,1,2,2:0:0:0:
96,348,148301,1,10,2:1:0:0:
190,315,148635,2,0,L|301:285,1,100,6|8,2:3|2:1,2:0:0:0:
317,334,149135,2,0,L|430:358,1,100,10|2,2:0|2:0,2:0:0:0:
446,316,149635,1,10,2:1:0:0:
493,228,149968,6,0,P|495:158|473:78,1,150,8|10,2:1|2:0,2:0:0:0:
382,41,150801,1,2,2:0:0:0:
340,134,151135,1,10,2:0:0:0:
340,134,151301,2,0,L|322:244,1,100,10|10,2:1|2:1,2:0:0:0:
278,322,151968,1,10,2:1:0:0:
180,342,152301,1,10,2:1:0:0:
97,296,152635,1,8,2:1:0:0:
97,296,152801,6,0,L|114:198,1,100,4|8,2:3|2:0,2:0:0:0:
127,150,153301,2,0,L|110:52,1,100,8|8,2:1|2:1,2:0:0:0:
126,4,153801,1,10,2:0:0:0:
218,46,154135,2,0,P|263:53|318:50,1,100,8|8,2:1|2:0,2:0:0:0:
416,40,154801,2,0,B|447:71|447:71|439:136,1,100,2|8,2:0|2:0,2:0:0:0:
412,223,155468,5,8,2:1:0:0:
319,167,155801,1,8,2:0:0:0:
246,235,156135,2,0,P|183:247|134:245,1,100,10|10,2:1|2:0,2:0:0:0:
72,179,156801,1,10,2:1:0:0:
14,261,157135,2,0,L|9:324,1,50,8|8,2:0|2:0,2:0:0:0:
45,346,157468,2,0,P|98:367|147:374,1,100,2|8,2:0|2:0,2:0:0:0:
221,315,158135,5,8,2:1:0:0:
311,369,158468,1,8,2:0:0:0:
311,369,158635,1,8,2:0:0:0:
394,313,158968,1,8,2:1:0:0:
394,313,159135,2,0,P|413:261|423:210,1,100,8|8,2:0|2:1,2:0:0:0:
382,125,159801,1,10,2:0:0:0:
292,170,160135,2,0,L|308:217,2,50,2|8|10,2:0|2:1|2:0,2:0:0:0:
207,116,160801,6,1,L|223:6,2,100,6|2|2,2:0|2:0|2:0,2:0:0:0:
143,193,161801,2,0,L|81:178,1,50,8|8,2:0|2:1,2:0:0:0:
50,205,162135,2,0,P|38:258|49:309,1,100,4|0,2:0|2:0,2:0:0:0:
72,344,162635,1,2,2:1:0:0:
72,344,162801,1,10,2:0:0:0:
149,295,163135,1,0,2:0:0:0:
221,363,163468,6,0,B|335:401|298:316|430:355,1,200,10|8,2:1|2:0,2:0:0:0:
489,285,164468,2,0,L|506:226,1,50,0|8,2:0|2:1,2:0:0:0:
482,191,164801,2,0,L|455:72,1,100,8|0,2:1|2:0,2:0:0:0:
440,47,165301,1,10,2:1:0:0:
440,47,165468,1,10,2:0:0:0:
348,88,165801,1,2,2:0:0:0:
269,26,166135,6,0,P|180:12|91:96,1,200,8|10,2:1|2:0,2:0:0:0:
73,173,167135,2,0,L|88:234,1,50,8|8,2:0|2:1,2:0:0:0:
128,246,167468,2,0,L|231:213,1,100,4|8,2:3|2:0,2:0:0:0:
305,157,168135,2,0,L|400:187,1,100,8|8,2:1|2:0,2:0:0:0:
481,245,168801,6,0,P|482:325|365:342,1,200,8|8,2:1|2:1,2:0:0:0:
345,317,169635,1,2,2:0:0:0:
345,317,169801,1,10,2:0:0:0:
250,349,170135,2,0,B|206:308|206:308|234:147,1,200,4|8,2:3|2:0,2:0:0:0:
242,124,170968,1,2,2:0:0:0:
242,124,171135,1,2,2:0:0:0:
321,62,171468,6,0,P|371:52|486:138,2,200,8|8|4,2:1|2:0|2:0,2:0:0:0:
256,192,172968,12,0,174135,2:0:0:0:
437,238,186135,6,0,P|407:132|347:128,1,179.999994506836,4|8,2:0|2:0,2:0:0:0:
258,223,187301,1,0,2:0:0:0:
258,223,187468,2,0,L|272:329,2,89.9999972534181,8|8|8,2:1|2:1|2:0,2:0:0:0:
232,136,188468,2,0,P|202:124|170:122,1,44.999998626709,0|8,2:0|2:1,2:0:0:0:
162,158,188801,6,0,P|116:170|68:174,1,89.9999972534181,8|0,2:1|2:0,2:0:0:0:
13,104,189468,2,0,P|31:58|59:6,1,89.9999972534181,8|2,2:0|2:0,2:0:0:0:
92,33,189968,2,0,L|195:15,1,89.9999972534181,8|2,2:1|2:0,2:0:0:0:
257,64,190635,2,0,L|357:41,1,89.9999972534181,2|2,2:0|2:0,2:0:0:0:
427,90,191301,1,2,2:0:0:0:
427,90,191468,6,0,P|436:128|440:284,1,179.999994506836,8|8,2:1|2:0,2:0:0:0:
383,337,192468,1,2,2:0:0:0:
306,289,192801,2,0,B|201:278|238:340|120:321,1,179.999994506836,8|8,2:1|2:0,2:0:0:0:
57,275,193801,1,8,2:1:0:0:
83,189,194135,6,0,L|102:82,1,100,8|8,2:0|2:0,2:0:0:0:
139,59,194635,1,8,2:0:0:0:
139,59,194801,2,0,P|205:40|256:35,1,100,8|8,2:0|2:0,2:0:0:0:
277,63,195301,1,8,2:0:0:0:
277,63,195468,1,8,2:0:0:0:
365,15,195801,1,8,2:0:0:0:
449,69,196135,2,0,L|508:52,2,50,8|8|0,2:0|2:0|2:0,2:0:0:0:
434,116,196635,2,0,P|421:178|412:218,1,100,2|0,2:0|2:0,2:0:0:0:
422,263,197135,5,4,2:0:0:0:
359,341,197468,1,2,2:0:0:0:
359,341,197635,1,10,2:1:0:0:
273,289,197968,2,0,P|208:269|166:257,1,100,10|8,2:1|2:1,2:0:0:0:
126,286,198468,1,10,2:0:0:0:
51,229,198801,1,2,2:0:0:0:
51,229,198968,1,10,2:1:0:0:
75,132,199301,6,0,B|114:107|114:107|226:142,1,150,2|10,2:0|2:0,2:0:0:0:
264,160,199968,1,10,2:1:0:0:
264,160,200135,2,0,L|382:193,1,100,2|10,2:0|2:0,2:0:0:0:
409,198,200635,2,0,P|452:184|479:134,1,100,10|10,2:1|2:1,2:0:0:0:
424,54,201301,2,0,L|450:-1,2,50,10|0|10,2:1|2:0|2:1,2:0:0:0:
383,83,201801,1,10,2:0:0:0:
284,98,202135,6,0,P|222:67|180:54,1,100,4|8,2:0|2:0,2:0:0:0:
147,77,202635,2,0,L|117:181,1,100,8|8,2:0|2:1,2:0:0:0:
103,275,203301,1,8,2:1:0:0:
103,275,203468,2,0,L|213:300,1,100,8|8,2:1|2:0,2:0:0:0:
247,327,203968,1,10,2:1:0:0:
247,327,204135,2,0,P|300:329|360:350,1,100,2|8,2:0|2:0,2:0:0:0:
388,366,204635,1,10,2:1:0:0:
443,284,204968,5,10,2:1:0:0:
443,284,205135,2,0,L|462:185,1,100,10|8,2:0|2:1,2:0:0:0:
431,145,205635,1,10,2:1:0:0:
358,214,205968,1,2,2:0:0:0:
267,187,206301,1,10,2:1:0:0:
267,187,206468,2,0,L|157:203,1,100,10|2,2:0|2:0,2:0:0:0:
118,208,206968,2,0,P|100:196|84:162,1,50,10|10,2:1|2:0,2:0:0:0:
97,126,207301,1,8,2:1:0:0:
97,126,207468,6,0,L|118:23,1,100,4|8,2:3|2:0,2:0:0:0:
220,42,208135,1,2,2:0:0:0:
220,42,208301,1,10,2:1:0:0:
319,55,208635,2,0,L|422:68,1,100,6|8,2:3|2:1,2:0:0:0:
450,105,209135,2,0,P|463:148|459:220,1,100,10|2,2:0|2:0,2:0:0:0:
444,249,209635,1,10,2:1:0:0:
391,333,209968,6,0,P|316:323|240:326,1,150,8|10,2:1|2:0,2:0:0:0:
154,375,210801,1,2,2:0:0:0:
81,314,211135,1,10,2:0:0:0:
81,314,211301,2,0,L|63:204,1,100,10|10,2:1|2:1,2:0:0:0:
118,130,211968,1,10,2:1:0:0:
187,201,212301,1,10,2:1:0:0:
267,140,212635,1,8,2:1:0:0:
267,140,212801,6,0,L|365:157,1,100,4|8,2:3|2:0,2:0:0:0:
415,149,213301,2,0,P|430:103|432:51,1,100,8|8,2:1|2:1,2:0:0:0:
399,13,213801,1,10,2:0:0:0:
300,31,214135,2,0,L|202:14,1,100,8|8,2:1|2:0,2:0:0:0:
104,39,214801,2,0,P|87:88|86:158,1,100,2|8,2:0|2:0,2:0:0:0:
137,221,215468,5,8,2:1:0:0:
217,161,215801,1,8,2:0:0:0:
284,234,216135,2,0,L|396:244,1,100,10|10,2:1|2:0,2:0:0:0:
458,176,216801,1,10,2:1:0:0:
505,264,217135,2,0,L|510:327,1,50,8|8,2:0|2:0,2:0:0:0:
485,358,217468,2,0,P|426:356|372:356,1,100,2|10,2:0|2:0,2:0:0:0:
291,320,218135,5,8,2:1:0:0:
211,378,218468,1,8,2:0:0:0:
211,378,218635,1,8,2:0:0:0:
131,327,218968,1,8,2:1:0:0:
131,327,219135,2,0,P|112:275|102:224,1,100,8|8,2:0|2:1,2:0:0:0:
126,134,219801,1,10,2:0:0:0:
216,177,220135,2,0,L|200:224,2,50,2|8|10,2:0|2:1|2:0,2:0:0:0:
269,92,220801,6,1,P|327:68|364:59,1,100,6|8,2:0|2:0,2:0:0:0:
396,96,221301,1,10,2:1:0:0:
463,169,221635,2,0,L|444:270,1,100,10|8,2:1|2:1,2:0:0:0:
416,308,222135,2,0,P|370:287|301:273,1,100,4|10,2:3|2:0,2:1:0:0:
277,297,222635,1,10,2:1:0:0:
186,339,222968,2,0,L|79:317,1,100,10|8,2:1|2:1,2:0:0:0:
58,278,223468,5,12,2:0:0:0:
69,178,223801,1,8,2:0:0:0:
161,137,224135,2,0,L|227:153,1,50,10|8,2:0|2:1,2:0:0:0:
249,179,224468,2,0,L|315:163,1,50,10|8,2:0|2:1,2:0:0:0:
338,138,224801,5,4,2:0:0:0:
