osu file format v14

[General]
AudioFilename: audio.mp3
AudioLeadIn: 0
PreviewTime:174551
Countdown: 0
SampleSet: Soft
StackLeniency: 0.7
Mode: 0
LetterboxInBreaks: 0
WidescreenStoryboard: 1

[Editor]
Bookmarks: 64801,136635,197135
DistanceSpacing: 1.9
BeatDivisor: 4
GridSize: 16
TimelineZoom: 1.8

[Metadata]
Title:Dakara, Hitori Janai
TitleUnicode:だから、ひとりじゃない
Artist:Little Glee Monster
ArtistUnicode:Little Glee Monster
Creator:Azu
Version:Insane
Source:僕のヒーローアカデミア
Tags:Boku no Hero My Academia 第2期 2nd season ed ending japanese anime jpop j-pop full size length version SkyFlame Mayu Sakuma Xexyz Azunyan- Ayana
BeatmapID:3039415
BeatmapSetID:1474832

[Difficulty]
HPDrainRate:5
CircleSize:3.8
OverallDifficulty:8
ApproachRate:9
SliderMultiplier:1.6
SliderTickRate:1

[Events]
//Background and Video events
Video,0,"dakara__mv.mp4"
0,0,"k-onisbetter.jpg",0,0
//Break Periods
2,175468,185535
//Storyboard Layer 0 (Background)
//Storyboard Layer 1 (Fail)
//Storyboard Layer 2 (Pass)
//Storyboard Layer 3 (Foreground)
//Storyboard Layer 4 (Overlay)
//Storyboard Sound Samples

[TimingPoints]
802,333.333333333333,4,2,1,50,1,0
802,-200,4,2,1,50,0,0
10301,-133.333333333333,4,2,1,50,0,0
11468,-100,4,2,1,60,0,0
22135,-125,4,2,1,60,0,0
43468,-142.857142857143,4,2,1,60,0,0
59468,-100,4,2,1,65,0,0
63635,-166.666666666667,4,2,1,65,0,0
64635,-100,4,2,1,65,0,0
64801,-83.3333333333333,4,2,1,80,0,1
74718,-83.3333333333333,4,2,1,5,0,1
74801,-83.3333333333333,4,2,1,80,0,1
74885,-83.3333333333333,4,2,1,5,0,1
74968,-83.3333333333333,4,2,1,80,0,1
75051,-83.3333333333333,4,2,1,5,0,1
75135,-83.3333333333333,4,2,1,80,0,1
75218,-83.3333333333333,4,2,1,5,0,1
75301,-83.3333333333333,4,2,1,80,0,1
78385,-83.3333333333333,4,2,1,5,0,1
78468,-83.3333333333333,4,2,1,80,0,1
83051,-83.3333333333333,4,2,1,5,0,1
83135,-83.3333333333333,4,2,1,80,0,1
85718,-83.3333333333333,4,2,1,5,0,1
85801,-83.3333333333333,4,2,1,80,0,1
88218,-83.3333333333333,4,2,1,5,0,1
88301,-83.3333333333333,4,2,1,80,0,1
88385,-83.3333333333333,4,2,1,5,0,1
88468,-83.3333333333333,4,2,1,80,0,1
88718,-83.3333333333333,4,2,1,5,0,1
88801,-142.857142857143,4,2,1,55,0,0
94301,-111.111111111111,4,2,1,55,0,0
115468,-133.333333333333,4,2,1,55,0,0
125385,-133.333333333333,4,2,1,5,0,0
125468,-133.333333333333,4,2,1,55,0,0
131468,-100,4,2,1,65,0,0
135468,-166.666666666667,4,2,1,65,0,0
136635,-83.3333333333333,4,2,1,80,0,1
142051,-83.3333333333333,4,2,1,5,0,1
142135,-83.3333333333333,4,2,1,80,0,1
146718,-83.3333333333333,4,2,1,5,0,1
146801,-83.3333333333333,4,2,1,80,0,1
146885,-83.3333333333333,4,2,1,5,0,1
146968,-83.3333333333333,4,2,1,80,0,1
147051,-83.3333333333333,4,2,1,5,0,1
147135,-83.3333333333333,4,2,1,80,0,1
147218,-83.3333333333333,4,2,1,5,0,1
147301,-83.3333333333333,4,2,1,80,0,1
150385,-83.3333333333333,4,2,1,5,0,1
150468,-83.3333333333333,4,2,1,80,0,1
155051,-83.3333333333333,4,2,1,5,0,1
155135,-83.3333333333333,4,2,1,80,0,1
160218,-83.3333333333333,4,2,1,5,0,1
160301,-83.3333333333333,4,2,1,80,0,1
160385,-83.3333333333333,4,2,1,5,0,1
160468,-83.3333333333333,4,2,1,80,0,1
160718,-83.3333333333333,4,2,1,5,0,1
160801,-100,4,2,1,55,0,0
162135,-125,4,2,1,55,0,0
174135,-125,4,2,1,5,0,0
175468,-125,4,2,1,50,0,0
186135,-166.666666666667,4,2,1,55,0,0
194135,-100,4,2,1,55,0,0
196635,-142.857142857143,4,2,1,55,0,0
197051,-142.857142857143,4,2,1,5,0,0
197135,-83.3333333333333,4,2,1,80,0,1
202051,-83.3333333333333,4,2,1,5,0,1
202135,-83.3333333333333,4,2,1,80,0,1
220301,-83.3333333333333,4,2,1,80,0,1
220385,-83.3333333333333,4,2,1,5,0,1
220468,-83.3333333333333,4,2,1,80,0,1
220801,-83.3333333333333,4,2,1,80,0,0
223468,-83.3333333333333,4,2,1,85,0,1
224801,-134.831460674161,4,2,1,80,0,0

[Colours]
Combo1 : 250,180,240
Combo2 : 120,200,230
Combo3 : 255,230,130
Combo4 : 160,230,150

[HitObjects]
21,49,802,6,0,P|59:42|111:38,1,80,2|0,0:0|0:0,0:0:0:0:
20,64,1301,2,0,P|58:57|110:53,1,80,2|0,0:0|0:0,0:0:0:0:
19,79,1801,2,0,P|40:75|68:72,1,40,2|0,0:0|0:0,0:0:0:0:
153,126,2135,6,0,P|150:145|147:165,1,40,2|0,0:0|0:0,0:0:0:0:
234,74,2468,2,0,P|217:62|202:49,1,40,2|0,0:0|0:0,0:0:0:0:
238,170,2801,2,0,P|256:161|317:141,1,80,2|0,0:0|0:0,0:0:0:0:
447,213,3468,6,0,L|430:302,1,80,2|0,0:0|0:0,0:0:0:0:
460,205,3968,2,0,L|443:294,1,80,2|0,0:0|0:0,0:0:0:0:
403,367,4468,1,2,0:0:0:0:
403,367,4635,1,2,0:0:0:0:
302,285,4801,6,0,P|336:293|352:296,1,40,2|0,0:0|0:0,0:0:0:0:
239,227,5135,2,0,P|228:193|223:178,1,40,2|0,0:0|0:0,0:0:0:0:
221,311,5468,2,0,P|181:353|163:373,1,80,2|0,0:0|0:0,0:0:0:0:
177,384,6135,6,0,P|136:367|91:356,1,80,2|0,0:0|0:0,0:0:0:0:
36,296,6635,2,0,P|77:279|122:268,1,80,2|0,0:0|0:0,0:0:0:0:
162,202,7135,2,0,P|141:193|119:188,1,40,2|0,0:0|0:0,0:0:0:0:
141,107,7468,5,2,0:0:0:0:
141,107,7635,1,2,0:0:0:0:
222,128,7801,2,0,L|230:77,1,40,2|0,0:0|0:0,0:0:0:0:
305,154,8135,2,0,L|319:62,1,80,2|0,0:0|0:0,0:0:0:0:
307,59,8801,6,0,P|326:52|385:33,1,80,2|0,0:0|0:0,0:0:0:0:
382,33,9468,2,0,L|431:45,1,40,2|0,0:0|0:0,0:0:0:0:
504,63,9801,1,2,0:0:0:0:
504,63,9968,1,2,0:0:0:0:
410,137,10135,5,8,0:0:0:0:
444,238,10301,2,0,P|485:221|509:213,1,60.0000022888184,8|0,0:3|0:0,0:0:0:0:
363,302,10635,2,0,P|322:319|298:327,1,60.0000022888184,8|0,0:3|0:0,0:0:0:0:
281,119,10968,1,8,0:0:0:0:
283,141,11051,1,8,0:0:0:0:
286,163,11134,1,8,0:0:0:0:
289,185,11218,1,8,0:0:0:0:
292,208,11301,2,8,L|297:257,1,30.0000011444092,0|0,0:0|0:0,0:0:0:0:
185,348,11468,6,0,L|171:234,1,80,4|0,0:0|0:0,0:0:0:0:
114,125,11801,1,8,0:0:0:0:
17,256,11968,2,0,P|90:230|118:226,1,80,8|0,0:1|0:0,0:0:0:0:
133,105,12301,2,0,P|94:94|57:78,1,80,8|8,0:1|0:0,0:0:0:0:
252,6,12635,6,0,L|287:169,1,160,4|0,0:3|0:0,0:0:0:0:
345,277,13135,1,8,0:0:0:0:
512,187,13301,2,0,P|468:162|430:147,1,80,8|0,0:1|0:0,0:0:0:0:
355,301,13635,2,0,P|404:288|441:272,1,80,8|8,0:1|0:0,0:0:0:0:
269,139,13968,1,8,0:1:0:0:
269,139,14051,1,8,0:1:0:0:
269,139,14135,6,0,L|237:325,1,160,4|8,0:3|0:0,0:0:0:0:
122,384,14635,2,0,L|97:276,1,80,8|0,0:1|0:0,0:0:0:0:
258,318,14968,2,0,L|233:210,1,80,8|8,0:1|0:0,0:0:0:0:
184,136,15301,1,8,0:1:0:0:
103,306,15468,5,2,0:0:0:0:
28,207,15635,1,8,0:1:0:0:
157,247,15801,5,10,0:0:0:0:
110,115,15968,1,8,0:1:0:0:
239,240,16135,5,2,0:0:0:0:
255,56,16301,1,8,0:1:0:0:
344,267,16468,5,10,0:0:0:0:
455,144,16635,1,8,0:0:0:0:
455,144,16718,1,8,0:0:0:0:
455,144,16801,6,0,B|405:165|405:165|301:127,1,160,4|8,0:0|0:0,0:0:0:0:
242,13,17301,2,0,L|349:46,1,80,8|0,0:1|0:0,0:0:0:0:
259,210,17635,2,0,L|182:186,1,80,8|0,0:1|0:0,0:0:0:0:
43,55,17968,1,8,0:1:0:0:
43,55,18135,6,0,P|57:130|64:223,1,160,2|8,0:0|0:0,0:0:0:0:
25,378,18635,2,0,L|4:282,1,80,8|0,0:1|0:0,0:0:0:0:
165,202,18968,2,0,L|182:280,1,80,8|8,0:1|0:0,0:0:0:0:
324,365,19301,1,8,0:1:0:0:
324,365,19385,1,8,0:1:0:0:
324,365,19468,5,12,0:0:0:0:
283,242,19635,1,8,0:1:0:0:
457,167,19801,1,8,0:0:0:0:
413,275,19968,1,8,0:1:0:0:
376,92,20135,2,0,P|453:60|466:59,1,80,8|8,0:0|0:1,0:0:0:0:
304,214,20468,2,0,P|265:203|231:182,1,80,8|8,0:0|0:1,0:0:0:0:
100,22,20801,5,4,0:0:0:0:
118,161,20968,1,8,0:1:0:0:
121,7,21135,1,8,0:1:0:0:
218,157,21301,5,10,0:0:0:0:
253,16,21468,1,8,0:1:0:0:
231,182,21635,1,8,0:1:0:0:
64,88,21801,2,0,L|23:78,3,40,8|8|8|8,0:0|0:0|0:0|0:0,0:0:0:0:
118,161,22135,6,0,P|108:219|88:298,1,128,4|8,0:0|0:0,0:0:0:0:
112,382,22635,1,10,0:1:0:0:
216,327,22801,2,0,P|275:307|351:293,1,128,2|8,0:0|0:0,0:0:0:0:
405,331,23301,1,2,0:0:0:0:
502,241,23468,6,0,L|470:386,1,128,10|8,0:1|0:0,0:0:0:0:
512,259,23968,1,10,0:1:0:0:
467,167,24135,2,0,P|402:166|340:185,1,128,2|8,0:0|0:0,0:0:0:0:
272,261,24635,1,8,0:1:0:0:
272,261,24718,1,8,0:1:0:0:
272,261,24801,6,0,L|209:242,1,64,8|8,0:1|0:1,0:0:0:0:
145,178,25135,1,8,0:0:0:0:
237,148,25301,1,10,0:1:0:0:
145,178,25468,2,0,P|78:163|-2:151,1,128,2|8,0:0|0:0,0:0:0:0:
19,153,25968,1,2,0:0:0:0:
37,50,26135,6,0,P|100:60|162:74,1,128,10|8,0:1|0:0,0:0:0:0:
236,111,26635,1,10,0:1:0:0:
320,29,26801,2,0,P|314:81|320:179,1,128,2|8,0:0|0:0,0:0:0:0:
375,240,27301,1,2,0:0:0:0:
435,165,27468,6,0,B|393:139|393:139|289:162,1,128,10|8,0:1|0:0,0:0:0:0:
224,192,27968,1,10,0:1:0:0:
299,251,28135,2,0,L|268:396,1,128,2|8,0:0|0:0,0:0:0:0:
272,376,28635,1,2,0:0:0:0:
183,322,28801,6,0,L|172:258,1,64,10|8,0:1|0:1,0:0:0:0:
87,249,29135,2,0,L|97:312,1,64,10|8,0:0|0:1,0:0:0:0:
11,302,29468,2,0,L|0:238,1,64,2|8,0:0|0:1,0:0:0:0:
22,142,29801,1,8,0:0:0:0:
120,162,29968,1,8,0:1:0:0:
120,162,30051,1,8,0:1:0:0:
120,162,30135,6,0,P|161:156|269:149,1,128,8|8,0:1|0:0,0:0:0:0:
294,64,30635,2,0,L|229:43,1,64,8|0,0:1|0:0,0:0:0:0:
348,152,30968,1,8,0:1:0:0:
348,152,31135,2,0,L|412:131,1,64,8|0,0:0|0:0,0:0:0:0:
504,269,31468,5,10,0:1:0:0:
422,233,31635,1,10,0:1:0:0:
512,256,31801,1,10,0:0:0:0:
430,220,31968,1,10,0:1:0:0:
329,339,32135,2,0,L|423:312,1,64,10|10,0:1|0:1,0:0:0:0:
271,262,32468,2,0,L|177:235,1,64,10|10,0:0|0:1,0:0:0:0:
115,318,32801,6,0,P|93:246|94:167,1,128,4|8,0:3|0:0,0:0:0:0:
124,86,33301,1,10,0:1:0:0:
209,149,33468,2,0,L|270:166,1,64,2|8,0:0|0:1,0:0:0:0:
344,98,33801,1,8,0:0:0:0:
344,98,33968,1,0,0:0:0:0:
428,177,34135,6,0,L|451:100,1,64,8|8,0:1|0:1,0:0:0:0:
406,31,34468,1,8,0:0:0:0:
344,98,34635,1,2,0:0:0:0:
272,41,34801,2,0,L|130:23,1,128,2|8,0:0|0:0,0:0:0:0:
0,146,35301,1,8,0:1:0:0:
0,146,35385,1,8,0:1:0:0:
0,146,35468,6,0,P|52:126|136:115,1,128,4|8,3:0|0:0,0:0:0:0:
188,178,35968,1,0,0:0:0:0:
262,122,36135,2,0,B|280:168|280:168|262:257,1,128,2|8,0:0|0:0,0:0:0:0:
240,331,36635,1,0,0:0:0:0:
335,380,36801,6,0,L|475:354,1,128,8|8,0:1|0:0,0:0:0:0:
460,356,37301,1,2,0:0:0:0:
427,282,37468,2,0,B|411:228|411:228|437:150,1,128,2|8,0:0|0:0,0:0:0:0:
467,64,37968,1,8,0:1:0:0:
467,64,38051,1,8,0:1:0:0:
467,64,38135,6,0,P|415:80|391:76,1,64,4|0,0:3|0:0,0:0:0:0:
280,58,38468,1,8,0:0:0:0:
354,8,38635,1,2,0:0:0:0:
253,48,38801,2,0,L|278:203,1,128,2|8,0:0|0:0,0:0:0:0:
293,267,39301,1,2,0:0:0:0:
176,220,39468,6,0,L|105:206,1,64,8|8,0:1|0:1,0:0:0:0:
139,319,39801,2,0,L|76:306,1,64,8|8,0:0|0:1,0:0:0:0:
0,161,40135,2,0,P|0:193|9:224,1,64,2|8,0:0|0:1,0:0:0:0:
113,206,40468,2,0,P|111:174|103:144,1,64,10|0,0:0|0:0,0:0:0:0:
141,35,40801,5,8,0:3:0:0:
103,144,40968,1,8,0:3:0:0:
231,24,41135,1,8,0:3:0:0:
193,133,41302,1,8,0:3:0:0:
324,18,41468,2,0,P|359:26|400:44,1,64,2|8,0:0|0:3,0:0:0:0:
254,151,41801,2,0,P|219:143|178:125,1,64,8|0,0:3|0:0,0:0:0:0:
419,105,42135,5,8,0:1:0:0:
333,193,42301,1,8,0:1:0:0:
420,192,42468,1,8,0:1:0:0:
332,106,42634,1,8,0:1:0:0:
318,207,42801,2,0,L|302:277,1,64,8|8,0:1|0:1,0:0:0:0:
402,345,43135,2,0,L|416:282,1,64,8|8,0:0|0:0,0:0:0:0:
263,384,43468,6,0,P|208:365|137:358,1,111.999996582031,4|0,0:0|0:0,0:0:0:0:
77,328,43968,2,0,P|94:301|104:278,1,55.9999982910157,8|8,0:1|0:0,0:0:0:0:
0,190,44301,2,0,P|14:218|29:238,2,55.9999982910157,2|2|10,0:0|0:0|0:1,0:0:0:0:
67,130,44801,6,0,L|89:20,1,111.999996582031,2|0,0:0|0:0,0:0:0:0:
89,20,45301,1,10,0:1:0:0:
179,40,45468,2,0,L|164:111,1,55.9999982910157,8|0,0:0|0:0,0:0:0:0:
224,171,45801,2,0,L|215:214,3,27.9999991455078,8|8|8|8,0:0|0:0|0:0|0:0,0:0:0:0:
255,137,46135,6,0,P|324:120|427:111,1,167.999994873047,8|8,0:1|0:1,0:0:0:0:
491,174,46801,2,0,B|508:206|508:206|489:284,1,111.999996582031,8|0,0:0|0:0,0:0:0:0:
472,364,47301,2,0,P|443:347|410:333,1,55.9999982910157,8|0,0:1|0:0,0:0:0:0:
353,291,47635,2,0,P|327:302|303:317,1,55.9999982910157,8|0,0:1|0:0,0:0:0:0:
241,376,47968,1,0,0:0:0:0:
97,324,48135,2,0,L|69:193,1,111.999996582031,8|2,0:0|0:0,0:0:0:0:
113,129,48635,1,8,0:1:0:0:
113,129,48718,1,8,0:1:0:0:
113,129,48801,6,0,B|151:110|151:110|240:129,1,111.999996582031,4|0,0:3|0:0,0:0:0:0:
304,183,49301,2,0,L|378:197,1,55.9999982910157,8|8,0:1|0:0,0:0:0:0:
424,109,49635,2,0,L|479:119,2,55.9999982910157,2|2|10,0:0|0:0|0:1,0:0:0:0:
324,0,50135,6,0,L|335:68,1,55.9999982910157,2|8,0:0|0:1,0:0:0:0:
235,55,50468,2,0,L|246:123,1,55.9999982910157,2|8,0:0|0:1,0:0:0:0:
120,13,50801,2,0,L|109:81,1,55.9999982910157,10|0,0:0|0:0,0:0:0:0:
18,37,51134,2,0,L|7:105,1,55.9999982910157,2|0,0:0|0:0,0:0:0:0:
0,205,51468,6,0,P|51:191|128:175,1,111.999996582031,4|0,0:3|0:0,0:0:0:0:
108,178,51968,1,8,0:1:0:0:
223,132,52135,2,0,P|199:205|185:257,1,111.999996582031,8|2,0:0|0:0,0:0:0:0:
271,304,52635,2,0,L|350:281,1,55.9999982910157,10|0,0:1|0:0,0:0:0:0:
188,369,52968,1,8,0:1:0:0:
188,369,53135,2,0,L|109:392,1,55.9999982910157,2|0,0:0|0:0,0:0:0:0:
34,340,53468,2,0,L|1:329,4,27.9999991455078,8|8|8|8|8,0:0|0:0|0:0|0:0|0:0,0:0:0:0:
110,267,53968,1,8,0:1:0:0:
16,205,54135,6,0,B|-10:150|-10:150|22:27,1,167.999994873047,4|8,0:0|0:1,0:0:0:0:
109,0,54801,1,8,0:0:0:0:
152,111,54968,2,0,L|95:95,2,55.9999982910157,2|2|10,0:0|0:0|0:1,0:0:0:0:
229,42,55468,6,0,P|281:22|353:17,1,111.999996582031,2|2,0:0|0:0,0:0:0:0:
336,16,55968,1,8,0:1:0:0:
414,74,56135,2,0,L|398:197,1,111.999996582031,10|2,0:0|0:0,0:0:0:0:
399,185,56635,1,0,0:0:0:0:
436,312,56801,6,0,B|303:322|358:246|205:271,1,223.999993164063,4|8,0:3|0:0,0:0:0:0:
235,283,57801,1,2,0:0:0:0:
200,369,57968,6,0,L|129:379,1,55.9999982910157,10|0,0:1|0:0,0:0:0:0:
37,312,58301,2,0,P|5:347|-7:363,1,55.9999982910157,8|0,0:1|0:0,0:0:0:0:
137,247,58635,1,8,0:1:0:0:
137,247,58801,2,0,P|122:201|114:183,1,55.9999982910157,8|0,0:0|0:0,0:0:0:0:
157,68,59135,1,8,0:0:0:0:
157,68,59218,1,8,0:0:0:0:
157,68,59301,2,0,L|144:114,1,27.9999991455078,8|8,0:0|0:0,0:0:0:0:
0,153,59468,6,0,P|59:131|92:122,1,80,10|0,0:1|0:0,0:0:0:0:
203,188,59801,1,10,0:0:0:0:
198,8,59968,2,0,L|176:100,1,80,10|0,0:1|0:0,0:0:0:0:
281,219,60301,2,0,L|299:141,1,80,10|8,0:1|0:0,0:0:0:0:
370,36,60635,1,2,0:0:0:0:
506,185,60801,6,0,P|452:168|425:165,1,80,10|8,0:1|0:1,0:0:0:0:
265,308,61135,2,0,P|305:302|343:290,1,80,8|8,0:0|0:1,0:0:0:0:
95,220,61468,1,2,0:0:0:0:
174,266,61635,1,8,0:1:0:0:
40,356,61801,2,0,L|14:274,1,80,10|0,0:0|0:0,0:0:0:0:
19,116,62135,5,8,0:0:0:0:
95,220,62301,1,8,0:1:0:0:
86,55,62468,5,8,0:0:0:0:
99,238,62635,1,8,0:1:0:0:
165,64,62801,5,8,0:0:0:0:
101,254,62968,1,8,0:1:0:0:
311,186,63135,5,8,0:0:0:0:
139,144,63301,1,8,0:1:0:0:
300,68,63468,5,12,0:0:0:0:
238,261,63635,2,0,L|228:160,2,95.9999970703126,8|8|8,0:3|0:3|0:3,0:0:0:0:
267,370,64468,1,8,0:0:0:0:
267,370,64551,1,8,0:0:0:0:
267,370,64635,2,0,P|292:362|319:358,1,40,8|8,0:0|0:0,0:0:0:0:
401,384,64801,6,0,B|433:322|433:322|405:179,1,191.999994140625,6|10,0:0|0:0,0:0:0:0:
389,67,65301,2,0,L|255:26,1,95.9999970703126,10|0,0:1|0:0,0:0:0:0:
206,95,65635,1,10,0:1:0:0:
297,38,65801,1,10,0:0:0:0:
128,21,65968,6,0,B|93:78|93:78|131:213,1,191.999994140625,10|8,0:1|0:1,0:0:0:0:
168,319,66468,1,10,0:0:0:0:
0,312,66635,2,0,L|104:273,1,95.9999970703126,10|0,0:0|0:0,0:0:0:0:
279,383,66968,2,0,L|189:349,1,95.9999970703126,10|10,0:1|0:0,0:0:0:0:
244,154,67301,5,8,0:1:0:0:
244,154,67385,1,8,0:1:0:0:
244,154,67468,2,0,L|261:263,1,95.9999970703126,4|0,0:3|0:0,0:0:0:0:
279,383,67801,1,10,0:0:0:0:
351,226,67968,1,10,0:1:0:0:
485,355,68135,2,0,P|414:337|368:330,1,95.9999970703126,2|8,0:0|0:1,0:0:0:0:
258,248,68468,1,10,0:0:0:0:
258,248,68635,6,0,P|305:238|351:226,1,95.9999970703126,10|0,0:1|0:0,0:0:0:0:
479,127,68968,2,0,P|408:109|362:102,1,95.9999970703126,10|8,0:1|0:0,0:0:0:0:
276,17,69301,1,10,0:1:0:0:
385,105,69468,1,2,0:0:0:0:
276,17,69635,1,10,0:1:0:0:
180,126,69801,2,0,P|119:132|51:124,1,95.9999970703126,10|8,0:0|0:1,0:0:0:0:
48,106,70051,5,8,0:1:0:0:
48,106,70135,2,0,P|20:172|5:300,1,191.999994140625,4|8,0:0|0:0,0:0:0:0:
77,384,70635,2,0,L|180:350,1,95.9999970703126,8|0,0:0|0:0,0:0:0:0:
245,246,70968,2,0,L|153:215,1,95.9999970703126,8|8,0:1|0:0,0:0:0:0:
345,310,71301,1,8,0:1:0:0:
484,186,71468,6,0,P|448:294|436:413,1,191.999994140625,4|8,0:3|0:0,0:0:0:0:
346,290,71968,1,10,0:1:0:0:
261,378,72135,2,0,P|185:358|134:346,1,95.9999970703126,2|0,0:0|0:0,0:0:0:0:
60,261,72468,1,8,0:0:0:0:
179,194,72635,1,10,0:1:0:0:
179,194,72718,1,8,0:1:0:0:
179,194,72801,5,4,0:3:0:0:
60,261,72968,1,10,0:1:0:0:
15,106,73135,2,0,L|206:57,1,191.999994140625,10|8,0:0|0:1,0:0:0:0:
339,0,73635,2,0,P|309:62|296:102,1,95.9999970703126,10|8,0:1|0:0,0:0:0:0:
461,170,73968,2,0,P|422:113|394:81,1,95.9999970703126,2|8,0:0|0:1,0:0:0:0:
300,87,74301,5,10,0:1:0:0:
300,87,74468,1,10,0:0:0:0:
214,222,74635,5,10,0:1:0:0:
347,179,74801,1,2,0:0:0:0:
182,140,74968,1,10,0:1:0:0:
246,338,75135,1,10,0:0:0:0:
416,272,75301,5,8,0:1:0:0:
416,272,75385,1,8,0:1:0:0:
416,272,75468,2,0,B|441:208|441:208|402:86,1,191.999994140625,4|8,0:3|0:0,0:0:0:0:
266,22,75968,2,0,L|151:-3,1,95.9999970703126,10|0,0:1|0:0,0:0:0:0:
182,140,76301,2,0,L|275:160,1,95.9999970703126,10|8,0:1|0:0,0:0:0:0:
37,37,76635,6,0,P|60:127|75:251,1,191.999994140625,6|8,0:3|0:1,0:0:0:0:
83,361,77135,1,10,0:0:0:0:
0,287,77301,2,0,P|58:256|97:246,1,95.9999970703126,10|0,0:1|0:0,0:0:0:0:
265,342,77634,2,0,P|207:311|168:301,1,95.9999970703126,10|8,0:1|0:0,0:0:0:0:
100,133,77968,5,8,0:1:0:0:
100,133,78051,1,8,0:1:0:0:
100,133,78135,2,0,P|183:98|276:80,1,143.999995605469,4|0,0:3|0:0,0:0:0:0:
235,85,78468,2,0,L|351:105,1,95.9999970703126,10|8,0:0|0:1,0:0:0:0:
404,246,78801,2,0,L|309:229,1,95.9999970703126,2|8,0:0|0:1,0:0:0:0:
221,210,79135,1,10,0:0:0:0:
413,40,79301,6,0,P|427:100|425:150,1,95.9999970703126,10|0,0:1|0:0,0:0:0:0:
235,304,79635,2,0,P|221:244|223:194,1,95.9999970703126,10|8,0:1|0:0,0:0:0:0:
319,60,79968,2,0,L|443:33,1,95.9999970703126,10|0,0:1|0:0,0:0:0:0:
221,209,80301,2,0,L|127:188,1,95.9999970703126,10|8,0:1|0:0,0:0:0:0:
0,92,80635,1,8,0:1:0:0:
27,283,80801,6,0,L|-4:66,1,191.999994140625,4|8,0:3|0:0,0:0:0:0:
101,23,81301,2,0,L|197:-1,1,95.9999970703126,8|0,0:1|0:0,0:0:0:0:
321,124,81635,1,8,0:1:0:0:
230,184,81801,2,0,L|136:160,1,95.9999970703126,10|0,0:0|0:0,0:0:0:0:
349,16,82135,6,0,P|417:80|409:213,1,191.999994140625,8|8,0:1|0:0,0:0:0:0:
397,278,82635,1,8,0:1:0:0:
227,214,82801,2,0,L|352:194,1,95.9999970703126,2|0,0:0|0:0,0:0:0:0:
382,369,83135,2,0,L|287:384,1,95.9999970703126,8|0,0:0|0:0,0:0:0:0:
135,192,83468,6,0,L|158:285,1,95.9999970703126,8|8,0:1|0:1,0:0:0:0:
28,380,83801,2,0,L|4:286,1,95.9999970703126,8|8,0:0|0:0,0:0:0:0:
135,192,84135,5,10,0:1:0:0:
37,135,84302,1,8,0:1:0:0:
192,94,84468,1,10,0:0:0:0:
94,37,84635,1,8,0:1:0:0:
215,106,84801,6,0,P|281:81|320:69,1,95.9999970703126,10|8,0:1|0:1,0:0:0:0:
512,227,85135,2,0,P|467:209|421:194,1,95.9999970703126,8|8,0:0|0:0,0:0:0:0:
258,201,85468,1,2,0:0:0:0:
368,132,85635,1,0,0:0:0:0:
237,209,85801,1,8,0:0:0:0:
432,215,85968,1,0,0:0:0:0:
205,301,86135,6,0,P|167:252|131:189,1,95.9999970703126,8|8,0:1|0:1,0:0:0:0:
297,384,86468,1,8,0:0:0:0:
382,288,86635,2,0,L|506:314,1,95.9999970703126,8|0,0:0|0:0,0:0:0:0:
432,56,86968,1,8,0:1:0:0:
347,152,87135,2,0,L|223:126,1,95.9999970703126,8|8,0:0|0:1,0:0:0:0:
79,87,87468,5,8,0:1:0:0:
187,19,87635,1,8,0:1:0:0:
79,87,87801,2,0,P|82:139|95:212,1,95.9999970703126,10|0,0:0|0:0,0:0:0:0:
38,321,88135,2,0,P|67:309|92:303,1,47.9999985351563,2|0,0:0|0:0,0:0:0:0:
179,255,88301,2,0,P|208:267|233:273,1,47.9999985351563,8|0,0:1|0:0,0:0:0:0:
320,321,88468,2,0,P|349:309|466:280,1,143.999995605469,10|0,0:0|0:0,0:0:0:0:
457,281,88801,6,1,P|490:187|285:204,1,391.99998803711,6|0,0:1|0:0,0:0:0:0:
289,189,90135,6,0,B|160:229|204:133|56:191,2,223.999993164063,2|2|2,0:0|0:0|0:0,0:0:0:0:
267,13,91801,2,0,P|240:77|237:136,2,111.999996582031,2|2|2,0:0|0:0|0:0,0:0:0:0:
256,192,92801,12,0,93968,0:0:0:0:
194,62,94135,5,4,0:0:0:0:
194,62,94301,2,0,L|124:82,1,71.9999978027344,2|0,0:0|0:0,0:0:0:0:
130,185,94635,2,0,L|199:164,1,71.9999978027344,10|10,0:1|0:0,0:0:0:0:
42,140,94968,2,0,B|20:185|20:185|56:300,1,143.999995605469,2|8,0:0|0:1,0:0:0:0:
154,307,95468,5,10,0:1:0:0:
228,274,95635,1,10,0:1:0:0:
306,289,95802,1,2,0:0:0:0:
360,348,95968,1,10,0:1:0:0:
459,292,96135,2,0,L|486:199,1,71.9999978027344,10|10,0:0|0:1,0:0:0:0:
414,82,96468,1,2,0:0:0:0:
414,82,96551,1,2,0:0:0:0:
414,82,96635,2,0,L|419:117,1,35.9999989013672,2|2,0:0|0:0,0:0:0:0:
340,180,96801,5,4,0:3:0:0:
286,94,96968,2,0,L|269:-4,2,71.9999978027344,2|0|8,0:0|0:0|0:1,0:0:0:0:
239,264,97468,2,0,L|145:235,1,71.9999978027344,10|2,0:0|0:0,0:0:0:0:
105,118,97801,2,0,L|173:96,1,71.9999978027344,2|10,0:0|0:1,0:0:0:0:
280,169,98135,5,2,0:0:0:0:
337,242,98301,1,10,0:1:0:0:
314,331,98468,1,2,0:0:0:0:
228,364,98635,1,10,0:1:0:0:
156,222,98801,2,0,L|134:310,1,71.9999978027344,10|2,0:0|0:0,0:0:0:0:
52,365,99135,1,2,0:0:0:0:
52,365,99218,1,2,0:0:0:0:
52,365,99301,2,0,L|34:305,1,35.9999989013672,2|2,0:0|0:0,0:0:0:0:
24,240,99468,5,6,0:3:0:0:
137,201,99635,2,0,P|188:202|210:204,2,71.9999978027344,0|2|8,0:0|0:0|0:1,0:0:0:0:
248,55,100135,2,0,P|221:98|208:116,1,71.9999978027344,10|2,0:0|0:0,0:0:0:0:
318,224,100468,2,0,P|293:179|284:159,1,71.9999978027344,2|10,0:0|0:1,0:0:0:0:
248,55,100801,5,2,0:0:0:0:
344,82,100968,1,8,0:1:0:0:
236,38,101135,1,2,0:0:0:0:
332,65,101302,1,8,0:1:0:0:
448,8,101468,2,0,P|433:61|432:105,1,71.9999978027344,10|2,0:0|0:0,0:0:0:0:
422,169,101801,1,2,0:0:0:0:
422,169,101885,1,2,0:0:0:0:
422,169,101968,2,0,L|434:228,1,35.9999989013672,2|2,0:0|0:0,0:0:0:0:
460,310,102135,5,4,0:3:0:0:
357,276,102301,2,0,P|331:264|274:247,2,71.9999978027344,2|0|0,0:0|0:0|0:0,0:0:0:0:
221,337,102801,2,0,P|165:316|136:218,1,143.999995605469,8|0,0:0|0:0,0:0:0:0:
163,155,103301,1,10,0:1:0:0:
28,99,103468,5,2,0:0:0:0:
52,180,103635,1,10,0:1:0:0:
40,85,103801,1,2,0:0:0:0:
64,166,103968,1,10,0:1:0:0:
143,74,104135,2,0,P|210:82|227:90,1,71.9999978027344,10|2,0:0|0:0,0:0:0:0:
342,11,104468,1,2,0:0:0:0:
342,11,104551,1,2,0:0:0:0:
342,11,104635,2,0,L|326:63,1,35.9999989013672,2|2,0:0|0:0,0:0:0:0:
300,139,104801,5,4,0:0:0:0:
399,69,104968,2,0,L|323:42,2,71.9999978027344,2|0|8,0:0|0:0|0:1,0:0:0:0:
503,142,105468,2,0,P|441:174|360:227,1,143.999995605469,8|0,0:0|0:0,0:0:0:0:
344,307,105968,1,10,0:1:0:0:
250,220,106135,5,2,0:0:0:0:
197,284,106302,1,8,0:1:0:0:
119,311,106468,1,2,0:0:0:0:
38,293,106635,1,10,0:1:0:0:
28,173,106801,2,0,L|8:103,1,71.9999978027344,10|10,0:0|0:1,0:0:0:0:
110,4,107135,1,2,0:0:0:0:
110,4,107218,1,2,0:0:0:0:
110,4,107301,2,0,L|89:58,1,35.9999989013672,2|2,0:0|0:0,0:0:0:0:
146,120,107468,6,0,P|203:100|309:80,1,143.999995605469,4|0,0:3|0:0,0:0:0:0:
353,142,107968,1,10,0:1:0:0:
467,97,108135,2,0,L|487:10,1,71.9999978027344,8|0,0:0|0:0,0:0:0:0:
371,160,108468,2,0,L|354:230,1,71.9999978027344,0|10,0:0|0:1,0:0:0:0:
415,362,108801,5,2,0:0:0:0:
347,320,108967,1,8,0:1:0:0:
267,318,109134,1,2,0:0:0:0:
198,355,109301,1,8,0:1:0:0:
100,296,109468,6,0,P|76:248|65:204,1,71.9999978027344,10|10,0:0|0:1,0:0:0:0:
104,131,109801,1,2,0:0:0:0:
104,131,109885,1,2,0:0:0:0:
104,131,109968,2,0,P|125:123|162:115,1,35.9999989013672,2|2,0:0|0:0,0:0:0:0:
220,198,110135,5,8,0:1:0:0:
274,90,110301,2,0,L|236:239,1,143.999995605469,2|8,0:0|0:1,0:0:0:0:
357,254,110801,2,0,L|392:114,1,143.999995605469,8|0,0:0|0:0,0:0:0:0:
471,25,111301,1,8,0:1:0:0:
391,114,111468,5,2,0:0:0:0:
339,47,111634,1,10,0:1:0:0:
261,16,111801,1,2,0:0:0:0:
179,31,111968,1,10,0:1:0:0:
77,108,112135,2,0,L|47:13,1,71.9999978027344,10|2,0:0|0:0,0:0:0:0:
236,109,112468,1,2,0:0:0:0:
236,109,112551,1,2,0:0:0:0:
236,109,112635,2,0,L|219:177,1,35.9999989013672,2|2,0:0|0:0,0:0:0:0:
120,245,112801,6,0,L|73:98,1,143.999995605469,4|0,0:3|0:0,0:0:0:0:
76,107,113301,1,10,0:1:0:0:
21,216,113468,2,0,L|3:310,1,71.9999978027344,10|0,0:0|0:0,0:0:0:0:
117,342,113801,2,0,L|131:272,1,71.9999978027344,2|8,0:0|0:1,0:0:0:0:
192,162,114135,5,2,0:0:0:0:
296,204,114301,1,10,0:1:0:0:
192,162,114468,1,2,0:0:0:0:
344,290,114635,2,0,P|385:232|381:148,1,143.999995605469,8|8,0:1|0:1,0:0:0:0:
344,74,115135,1,10,0:0:0:0:
344,74,115218,1,10,0:0:0:0:
344,74,115301,2,0,L|286:92,1,35.9999989013672,10|10,0:0|0:0,0:0:0:0:
214,147,115468,6,0,P|224:57|225:16,2,120.000004577637,4|8|8,0:0|0:0|0:1,0:0:0:0:
156,221,116301,1,2,0:1:0:0:
85,152,116468,1,10,0:0:0:0:
156,221,116635,1,10,0:1:0:0:
61,269,116801,6,0,P|120:258|179:251,2,120.000004577637,0|10|10,0:0|0:0|0:1,0:0:0:0:
215,340,117635,1,8,0:1:0:0:
215,340,117801,2,0,L|298:348,1,60.0000022888184,10|0,0:0|0:0,0:0:0:0:
376,239,118135,6,0,B|393:286|393:286|361:363,2,120.000004577637,8|8|8,0:1|0:0|0:1,0:0:0:0:
310,161,118968,2,0,L|326:104,1,60.0000022888184,8|10,0:1|0:0,0:0:0:0:
390,24,119301,6,0,P|431:45|459:51,1,60.0000022888184,10|0,0:1|0:0,0:0:0:0:
326,103,119635,1,8,0:1:0:0:
326,103,119801,2,0,P|285:82|257:76,1,60.0000022888184,8|0,0:0|0:0,0:0:0:0:
159,8,120135,2,0,L|170:66,1,60.0000022888184,8|8,0:1|0:1,0:0:0:0:
67,45,120468,2,0,L|78:103,1,60.0000022888184,10|0,0:0|0:0,0:0:0:0:
130,207,120801,6,0,P|25:199|-2:222,2,120.000004577637,4|8|8,0:0|0:0|0:1,0:0:0:0:
214,280,121635,1,10,0:1:0:0:
130,207,121801,1,10,0:0:0:0:
214,280,121968,1,10,0:1:0:0:
286,206,122135,6,0,L|304:128,1,60.0000022888184,2|8,0:0|0:1,0:0:0:0:
396,198,122468,2,0,L|382:256,1,60.0000022888184,10|0,0:0|0:0,0:0:0:0:
423,346,122801,1,10,0:1:0:0:
423,346,122968,1,8,0:1:0:0:
339,374,123135,2,0,P|286:356|265:349,1,60.0000022888184,10|0,0:0|0:0,0:0:0:0:
180,256,123468,6,0,P|191:312|190:387,2,120.000004577637,6|8|8,0:3|0:0|0:1,0:0:0:0:
141,147,124301,1,8,0:1:0:0:
141,147,124468,1,10,0:0:0:0:
20,239,124635,6,0,L|93:216,1,60.0000022888184,10|0,0:1|0:0,0:0:0:0:
85,72,124968,1,10,0:1:0:0:
85,72,125135,2,0,L|27:90,1,60.0000022888184,10|0,0:0|0:0,0:0:0:0:
179,131,125468,2,0,P|182:50|175:-13,1,120.000004577637,8|8,0:1|0:0,0:0:0:0:
178,11,125968,1,0,0:0:0:0:
279,146,126135,6,0,P|282:86|279:27,2,120.000004577637,4|8|8,0:0|0:0|0:1,0:0:0:0:
304,238,126968,2,0,L|286:317,1,60.0000022888184,2|8,0:0|0:0,0:0:0:0:
389,281,127301,1,2,0:0:0:0:
389,281,127468,6,0,L|403:223,1,60.0000022888184,8|0,0:1|0:0,0:0:0:0:
304,355,127801,2,0,L|290:296,1,60.0000022888184,8|0,0:0|0:0,0:0:0:0:
209,217,128135,2,0,L|195:275,1,60.0000022888184,8|10,0:1|0:1,0:0:0:0:
95,289,128468,2,0,L|109:348,1,60.0000022888184,10|0,0:0|0:0,0:0:0:0:
0,238,128801,6,0,P|26:208|121:172,2,120.000004577637,10|8|8,0:1|0:0|0:1,0:0:0:0:
99,29,129801,1,10,0:0:0:0:
158,93,129968,6,0,P|213:95|288:95,1,120.000004577637,2|8,0:0|0:1,0:0:0:0:
375,69,130468,2,0,P|383:36|389:2,2,60.0000022888184,8|0|8,0:0|0:0|0:1,0:0:0:0:
351,162,130968,1,8,0:0:0:0:
351,162,131135,1,10,0:0:0:0:
277,95,131301,1,10,0:0:0:0:
430,214,131468,6,0,L|516:190,1,80,4|0,0:3|0:0,0:0:0:0:
391,317,131801,1,2,0:0:0:0:
304,248,131968,2,0,P|260:229|214:215,1,80,10|8,0:1|0:0,0:0:0:0:
68,320,132301,2,0,P|106:291|141:258,1,80,10|8,0:1|0:0,0:0:0:0:
148,167,132635,1,10,0:1:0:0:
42,200,132801,5,8,0:0:0:0:
50,96,132968,1,8,0:1:0:0:
132,149,133135,1,8,0:0:0:0:
140,45,133302,1,8,0:1:0:0:
255,87,133468,2,0,L|340:98,1,80,8|8,0:0|0:1,0:0:0:0:
442,275,133801,2,0,L|362:264,1,80,8|8,0:0|0:1,0:0:0:0:
236,322,134135,5,8,0:1:0:0:
236,322,134301,1,0,0:0:0:0:
362,264,134468,2,0,P|367:203|365:173,1,80,8|0,0:1|0:0,0:0:0:0:
351,29,134801,1,8,0:1:0:0:
351,29,134968,1,0,0:0:0:0:
238,108,135135,2,0,L|148:82,1,80,8|0,0:1|0:0,0:0:0:0:
47,12,135468,6,1,B|-11:116|85:134|32:243,1,239.999992675781,4|8,0:0|0:3,0:0:0:0:
33,243,136468,1,0,0:0:0:0:
60,364,136635,6,0,P|120:349|273:324,1,191.999994140625,4|8,0:0|0:1,0:0:0:0:
386,363,137135,2,0,P|347:316|329:272,1,95.9999970703126,10|8,0:0|0:1,0:0:0:0:
491,160,137468,1,2,0:0:0:0:
436,277,137635,1,10,0:1:0:0:
491,160,137801,1,10,0:0:0:0:
363,166,137968,6,0,P|272:149|168:138,1,191.999994140625,10|8,0:1|0:1,0:0:0:0:
15,187,138468,1,10,0:0:0:0:
71,57,138635,1,10,0:1:0:0:
154,165,138801,2,0,L|174:281,1,95.9999970703126,2|10,0:0|0:1,0:0:0:0:
187,384,139135,1,10,0:0:0:0:
11,321,139301,5,10,0:1:0:0:
11,321,139385,1,8,0:1:0:0:
11,321,139468,2,0,P|112:292|203:283,1,191.999994140625,4|10,0:3|0:0,0:0:0:0:
297,376,139968,1,10,0:1:0:0:
391,295,140135,2,0,L|413:176,1,95.9999970703126,2|8,0:0|0:1,0:0:0:0:
349,104,140468,1,10,0:0:0:0:
314,214,140635,6,0,P|375:201|426:202,1,95.9999970703126,10|0,0:1|0:0,0:0:0:0:
272,20,140968,2,0,P|252:79|226:122,1,95.9999970703126,10|8,0:1|0:0,0:0:0:0:
461,80,141301,2,0,P|419:33|394:-10,1,95.9999970703126,10|0,0:1|0:0,0:0:0:0:
349,104,141635,1,10,0:1:0:0:
236,108,141801,2,0,L|68:67,1,143.999995605469,10|0,0:0|0:0,0:0:0:0:
19,0,142135,6,0,P|47:55|58:216,1,191.999994140625,4|8,0:0|0:0,0:0:0:0:
0,243,142635,2,0,P|64:211|119:197,1,95.9999970703126,8|0,0:0|0:0,0:0:0:0:
280,283,142968,2,0,P|220:243|180:202,1,95.9999970703126,8|8,0:1|0:0,0:0:0:0:
241,94,143301,1,8,0:1:0:0:
337,199,143468,6,0,L|288:389,1,191.999994140625,4|8,0:3|0:0,0:0:0:0:
352,224,143968,1,10,0:1:0:0:
487,339,144135,2,0,L|390:311,1,95.9999970703126,2|8,0:0|0:1,0:0:0:0:
309,124,144468,1,8,0:0:0:0:
416,151,144635,6,0,L|508:177,1,95.9999970703126,10|4,0:1|0:3,0:0:0:0:
348,20,144968,1,10,0:1:0:0:
279,141,145135,2,0,P|220:142|173:142,1,95.9999970703126,10|8,0:0|0:0,0:0:0:0:
114,47,145468,1,8,0:1:0:0:
37,226,145635,2,0,P|27:173|27:108,1,95.9999970703126,10|8,0:1|0:0,0:0:0:0:
163,327,145968,2,0,P|122:362|65:394,1,95.9999970703126,2|8,0:0|0:1,0:0:0:0:
197,176,146301,5,10,0:1:0:0:
197,176,146468,1,10,0:0:0:0:
337,306,146635,1,10,0:1:0:0:
215,195,146801,2,0,L|120:232,1,95.9999970703126,2|0,0:0|0:0,0:0:0:0:
125,229,147135,1,10,0:0:0:0:
311,37,147301,5,8,0:1:0:0:
311,37,147385,1,8,0:1:0:0:
311,37,147468,2,0,B|331:110|331:110|306:151|306:151|323:219,1,191.999994140625,4|8,0:3|0:0,0:0:0:0:
225,92,147968,2,0,L|191:-33,1,95.9999970703126,10|2,0:1|0:0,0:0:0:0:
127,137,148301,1,10,0:1:0:0:
239,74,148468,1,10,0:0:0:0:
42,28,148635,6,0,P|20:109|27:249,1,191.999994140625,6|8,0:3|0:1,0:0:0:0:
81,355,149135,1,10,0:0:0:0:
21,217,149301,1,10,0:1:0:0:
150,293,149468,1,2,0:0:0:0:
0,307,149635,1,10,0:1:0:0:
113,207,149802,1,8,0:0:0:0:
193,378,149968,5,8,0:1:0:0:
193,378,150051,1,8,0:1:0:0:
193,378,150135,2,0,P|277:351|341:338,1,143.999995605469,4|0,0:3|0:0,0:0:0:0:
331,339,150468,2,0,L|457:371,1,95.9999970703126,10|8,0:0|0:1,0:0:0:0:
511,241,150801,2,0,L|417:217,1,95.9999970703126,2|8,0:0|0:1,0:0:0:0:
277,183,151135,1,10,0:0:0:0:
355,24,151301,6,0,P|369:80|371:124,1,95.9999970703126,10|0,0:1|0:0,0:0:0:0:
163,129,151635,2,0,P|204:88|241:65,1,95.9999970703126,10|8,0:1|0:0,0:0:0:0:
350,243,151968,2,0,P|294:227|255:206,1,95.9999970703126,10|0,0:1|0:0,0:0:0:0:
163,129,152301,2,0,L|139:28,1,95.9999970703126,10|8,0:1|0:0,0:0:0:0:
51,192,152635,5,8,0:1:0:0:
51,192,152718,1,8,0:1:0:0:
51,192,152801,2,0,P|42:264|41:393,1,191.999994140625,4|8,0:3|0:0,0:0:0:0:
223,331,153301,2,0,P|179:314|132:302,1,95.9999970703126,8|0,0:1|0:0,0:0:0:0:
330,286,153635,1,8,0:1:0:0:
330,286,153801,2,0,P|374:303|421:315,1,95.9999970703126,10|0,0:0|0:0,0:0:0:0:
472,132,154135,6,0,P|440:201|422:340,1,191.999994140625,8|8,0:1|0:0,0:0:0:0:
483,159,154635,1,8,0:0:0:0:
410,69,154801,2,0,P|366:45|298:25,1,95.9999970703126,2|0,0:0|0:0,0:0:0:0:
245,258,155135,2,0,P|287:231|339:183,1,95.9999970703126,8|0,0:0|0:0,0:0:0:0:
165,11,155468,6,0,L|181:123,1,95.9999970703126,8|8,0:1|0:1,0:0:0:0:
34,234,155801,2,0,L|20:138,1,95.9999970703126,8|8,0:0|0:0,0:0:0:0:
68,29,156135,1,10,0:1:0:0:
115,169,156301,1,8,0:1:0:0:
174,26,156468,1,10,0:0:0:0:
221,166,156634,1,8,0:1:0:0:
279,23,156801,6,0,P|350:10|400:10,1,95.9999970703126,10|8,0:1|0:1,0:0:0:0:
483,167,157135,2,0,P|435:163|388:153,1,95.9999970703126,8|8,0:0|0:0,0:0:0:0:
221,166,157468,1,2,0:0:0:0:
366,131,157635,1,0,0:0:0:0:
268,244,157801,1,8,0:0:0:0:
281,94,157968,1,0,0:0:0:0:
358,222,158135,6,0,L|339:341,1,95.9999970703126,8|8,0:1|0:1,0:0:0:0:
199,377,158468,1,8,0:0:0:0:
199,377,158635,2,0,L|183:282,1,95.9999970703126,8|0,0:0|0:0,0:0:0:0:
1,224,158968,1,8,0:1:0:0:
92,253,159135,1,8,0:0:0:0:
1,224,159301,1,8,0:1:0:0:
183,282,159468,6,0,P|220:192|225:169,1,95.9999970703126,8|8,0:1|0:1,0:0:0:0:
89,0,159801,2,0,P|104:45|125:88,1,95.9999970703126,10|0,0:0|0:0,0:0:0:0:
219,193,160135,2,0,P|246:192|290:174,1,47.9999985351563,2|0,0:0|0:0,0:0:0:0:
329,104,160301,2,0,P|356:105|400:123,1,47.9999985351563,8|0,0:1|0:0,0:0:0:0:
477,165,160468,2,0,P|489:224|475:306,1,143.999995605469,10|0,0:0|0:0,0:0:0:0:
475,305,160801,6,1,L|319:343,2,160,6|2|2,0:0|0:0|0:0,0:0:0:0:
295,266,161801,1,8,0:0:0:0:
295,266,161968,1,8,0:1:0:0:
238,329,162135,6,0,P|191:311|157:306,1,64,4|0,0:0|0:0,0:0:0:0:
119,221,162468,2,0,P|166:203|200:198,1,64,0|2,0:0|0:1,0:0:0:0:
67,312,162801,1,10,0:0:0:0:
67,312,162968,1,2,0:0:0:0:
20,214,163135,2,0,L|5:124,1,64,0|8,0:0|0:0,0:0:0:0:
52,53,163468,5,10,0:1:0:0:
52,53,163635,2,0,P|148:73|183:74,1,128,10|0,0:0|0:0,0:0:0:0:
284,0,164135,2,0,B|266:37|266:37|284:127,1,128,8|0,0:0|0:0,0:0:0:0:
283,122,164635,1,8,0:1:0:0:
432,118,164801,6,0,P|399:104|356:93,1,64,8|0,0:1|0:0,0:0:0:0:
306,237,165135,2,0,P|334:215|365:183,1,64,0|10,0:0|0:1,0:0:0:0:
432,118,165468,1,10,0:0:0:0:
432,118,165635,1,2,0:0:0:0:
472,214,165801,2,0,L|481:285,1,64,2|8,0:0|0:1,0:0:0:0:
416,369,166135,6,0,P|344:342|277:330,1,128,8|8,0:1|0:1,0:0:0:0:
294,331,166635,1,2,0:0:0:0:
177,370,166801,2,0,P|205:298|218:231,1,128,10|8,0:0|0:0,0:0:0:0:
216,248,167301,1,8,0:1:0:0:
167,151,167468,6,0,L|184:81,1,64,4|0,0:3|0:0,0:0:0:0:
81,222,167801,2,0,L|65:284,1,64,8|0,0:0|0:0,0:0:0:0:
6,120,168135,2,0,P|55:103|77:100,1,64,8|8,0:1|0:1,0:0:0:0:
227,169,168468,2,0,P|178:152|156:149,1,64,8|0,0:0|0:0,0:0:0:0:
347,47,168801,6,0,L|327:173,2,128,8|8|8,0:1|0:0|0:1,0:0:0:0:
446,8,169635,2,0,L|454:79,2,64,2|10|2,0:0|0:0|0:0,0:0:0:0:
348,156,170135,6,0,L|367:295,2,128,4|0|8,0:3|0:0|0:0,0:0:0:0:
259,68,170968,2,0,L|249:-3,2,64,2|2|10,0:0|0:0|0:1,0:0:0:0:
204,171,171468,6,0,B|136:181|136:181|100:143|100:143|17:156,1,192,8|0,0:1|0:0,0:0:0:0:
0,263,172135,1,8,0:0:0:0:
0,263,172301,2,0,L|81:248,2,64,8|0|0,0:1|0:0|0:0,0:0:0:0:
96,343,172801,5,4,0:0:0:0:
256,192,172885,12,0,174135,0:0:0:0:
77,265,186135,6,0,L|48:140,1,95.9999970703126,4|0,0:0|0:0,0:0:0:0:
156,132,186635,1,8,0:1:0:0:
156,132,186801,2,0,L|184:256,1,95.9999970703126,8|0,0:0|0:0,0:0:0:0:
229,303,187301,1,0,0:0:0:0:
270,218,187468,6,0,P|223:213|177:226,2,95.9999970703126,8|8|8,0:1|0:1|0:0,0:0:0:0:
350,301,188301,2,0,P|379:281|413:265,1,47.9999985351563,2|0,0:0|0:0,0:0:0:0:
481,224,188635,1,8,0:1:0:0:
481,224,188801,6,0,L|445:86,1,95.9999970703126,8|0,0:1|0:0,0:0:0:0:
383,7,189468,2,0,L|350:130,1,95.9999970703126,8|2,0:0|0:0,0:0:0:0:
299,175,189968,6,0,P|242:153|165:140,1,95.9999970703126,8|2,0:1|0:0,0:0:0:0:
124,39,190635,2,0,P|181:17|258:4,2,95.9999970703126,2|2|2,0:0|0:0|0:0,0:0:0:0:
33,108,191468,6,0,P|53:191|67:331,1,191.999994140625,8|8,0:1|0:0,0:0:0:0:
65,296,192468,1,2,0:0:0:0:
192,217,192801,2,0,L|204:138,2,47.9999985351563,8|0|8,0:1|0:0|0:3,0:0:0:0:
276,361,193468,2,0,L|336:349,1,47.9999985351563,8|0,0:0|0:0,0:0:0:0:
448,329,193801,1,8,0:1:0:0:
367,257,193968,1,8,0:1:0:0:
494,157,194135,6,0,L|472:251,1,80,8|8,0:0|0:0,0:0:0:0:
352,279,194468,2,0,L|333:201,1,80,8|8,0:0|0:0,0:0:0:0:
217,48,194801,1,8,0:0:0:0:
256,168,194968,1,8,0:0:0:0:
227,24,195135,1,8,0:0:0:0:
168,204,195301,1,8,0:0:0:0:
46,76,195468,6,0,P|116:46|155:40,1,80,8|0,0:0|0:0,0:0:0:0:
87,229,195801,2,0,P|14:206|-19:186,1,80,8|0,0:0|0:0,0:0:0:0:
185,174,196135,1,8,0:0:0:0:
243,349,196301,2,0,L|260:266,1,80,8|0,0:0|0:0,0:0:0:0:
361,158,196635,6,0,B|374:216|374:216|386:229|386:229|400:305,1,139.999995727539,2|0,0:0|0:0,0:0:0:0:
409,318,197135,6,0,L|426:213,1,95.9999970703126,4|0,0:0|0:0,0:0:0:0:
392,39,197468,1,2,0:0:0:0:
270,190,197635,2,0,P|329:167|366:156,1,95.9999970703126,10|10,0:1|0:0,0:0:0:0:
158,338,197968,6,0,P|81:272|29:161,1,191.999994140625,10|8,0:1|0:1,0:0:0:0:
23,81,198468,1,10,0:0:0:0:
149,179,198635,1,10,0:1:0:0:
37,193,198801,1,2,0:0:0:0:
135,67,198968,2,0,L|251:34,1,95.9999970703126,10|10,0:1|0:0,0:0:0:0:
428,215,199301,6,0,L|212:158,1,191.999994140625,2|8,0:0|0:1,0:0:0:0:
135,67,199801,1,10,0:0:0:0:
245,18,199968,1,10,0:1:0:0:
263,153,200135,2,0,L|278:263,1,95.9999970703126,2|8,0:0|0:1,0:0:0:0:
291,344,200468,1,10,0:0:0:0:
400,212,200635,6,0,L|493:235,1,95.9999970703126,10|0,0:1|0:0,0:0:0:0:
493,370,200968,2,0,L|399:346,1,95.9999970703126,10|8,0:1|0:0,0:0:0:0:
291,344,201301,2,0,P|186:323|64:322,1,191.999994140625,10|10,0:1|0:1,0:0:0:0:
0,210,201801,2,0,P|55:200|105:183,1,95.9999970703126,10|0,0:0|0:0,0:0:0:0:
185,33,202135,6,0,L|207:245,1,191.999994140625,4|8,0:0|0:0,0:0:0:0:
291,344,202635,2,0,L|321:246,1,95.9999970703126,8|0,0:0|0:0,0:0:0:0:
381,115,202968,1,8,0:1:0:0:
512,241,203135,2,0,P|455:217|400:206,1,95.9999970703126,8|8,0:0|0:1,0:0:0:0:
272,123,203468,6,0,P|339:108|364:-10,1,191.999994140625,8|8,0:1|0:0,0:0:0:0:
368,0,203968,1,10,0:1:0:0:
262,102,204135,2,0,L|278:225,1,95.9999970703126,2|8,0:0|0:1,0:0:0:0:
223,0,204468,1,8,0:0:0:0:
142,59,204635,6,0,P|89:46|40:38,1,95.9999970703126,10|4,0:1|0:3,0:0:0:0:
0,126,204968,1,10,0:1:0:0:
85,228,205135,2,0,P|138:215|292:196,1,191.999994140625,10|8,0:0|0:1,0:0:0:0:
407,227,205635,2,0,L|513:263,1,95.9999970703126,10|8,0:1|0:0,0:0:0:0:
408,384,205968,2,0,L|317:353,1,95.9999970703126,2|8,0:0|0:1,0:0:0:0:
189,242,206301,5,10,0:1:0:0:
189,242,206468,1,10,0:0:0:0:
83,373,206635,1,10,0:1:0:0:
307,329,206801,2,0,L|398:360,1,95.9999970703126,2|0,0:0|0:0,0:0:0:0:
135,306,207135,1,10,0:0:0:0:
222,147,207301,5,8,0:1:0:0:
222,147,207385,1,8,0:1:0:0:
222,147,207468,2,0,B|328:125|293:202|435:173,1,191.999994140625,4|8,0:3|0:0,0:0:0:0:
416,58,207968,1,10,0:1:0:0:
512,130,208135,1,2,0:0:0:0:
416,58,208301,2,0,P|349:49|294:47,1,95.9999970703126,10|10,0:1|0:0,0:0:0:0:
134,16,208635,6,0,B|104:67|104:67|147:220,1,191.999994140625,6|8,0:3|0:1,0:0:0:0:
201,347,209135,1,10,0:0:0:0:
140,194,209301,1,10,0:1:0:0:
94,301,209468,1,2,0:0:0:0:
247,240,209635,2,0,L|354:226,1,95.9999970703126,10|8,0:1|0:0,0:0:0:0:
460,325,209968,5,8,0:1:0:0:
460,325,210051,1,8,0:1:0:0:
460,325,210135,2,0,P|436:225|455:125,1,191.999994140625,4|10,0:3|0:0,0:0:0:0:
475,20,210635,1,8,0:1:0:0:
475,20,210801,2,0,P|417:42|373:46,1,95.9999970703126,2|8,0:0|0:1,0:0:0:0:
290,16,211135,1,10,0:0:0:0:
218,172,211301,6,0,L|338:144,1,95.9999970703126,10|0,0:1|0:0,0:0:0:0:
266,0,211635,2,0,L|172:21,1,95.9999970703126,10|8,0:1|0:0,0:0:0:0:
32,126,211968,2,0,P|3:54|-5:4,1,95.9999970703126,10|0,0:1|0:0,0:0:0:0:
209,148,212301,2,0,P|196:194|176:237,1,95.9999970703126,10|8,0:1|0:0,0:0:0:0:
12,328,212635,5,8,0:1:0:0:
12,328,212718,1,8,0:1:0:0:
12,328,212801,2,0,P|66:313|207:364,1,191.999994140625,4|8,0:3|0:0,0:0:0:0:
288,280,213301,2,0,P|239:252|181:229,1,95.9999970703126,8|0,0:1|0:0,0:0:0:0:
366,373,213635,1,8,0:1:0:0:
366,373,213801,2,0,P|415:345|464:306,1,95.9999970703126,10|0,0:0|0:0,0:0:0:0:
496,142,214135,6,0,B|393:124|414:186|298:157,1,191.999994140625,8|8,0:1|0:0,0:0:0:0:
214,108,214635,1,8,0:0:0:0:
138,193,214801,2,0,L|44:211,1,95.9999970703126,2|0,0:0|0:0,0:0:0:0:
0,43,215135,2,0,L|94:25,1,95.9999970703126,8|0,0:0|0:0,0:0:0:0:
244,17,215468,6,0,P|218:90|210:122,1,95.9999970703126,8|8,0:1|0:1,0:0:0:0:
246,238,215801,2,0,L|271:348,1,95.9999970703126,8|8,0:0|0:0,0:0:0:0:
442,372,216135,1,10,0:1:0:0:
481,255,216301,1,8,0:1:0:0:
365,323,216468,1,10,0:0:0:0:
402,204,216634,1,8,0:1:0:0:
267,331,216801,6,0,L|167:353,1,95.9999970703126,10|8,0:1|0:1,0:0:0:0:
17,263,217135,2,0,L|111:242,1,95.9999970703126,8|8,0:0|0:0,0:0:0:0:
262,148,217468,1,2,0:0:0:0:
149,89,217635,1,8,0:1:0:0:
289,136,217801,1,10,0:0:0:0:
128,164,217968,1,8,0:1:0:0:
270,33,218135,6,0,P|312:42|390:66,1,95.9999970703126,8|8,0:1|0:1,0:0:0:0:
493,166,218468,1,8,0:0:0:0:
493,166,218635,2,0,P|447:179|400:190,1,95.9999970703126,8|0,0:0|0:0,0:0:0:0:
270,299,218968,2,0,P|343:332|381:351,2,95.9999970703126,8|8|8,0:1|0:0|0:1,0:0:0:0:
155,355,219468,6,0,L|48:327,1,95.9999970703126,8|8,0:1|0:1,0:0:0:0:
0,163,219801,2,0,L|131:190,1,95.9999970703126,10|0,0:0|0:0,0:0:0:0:
185,130,220135,2,0,P|205:126|261:135,1,47.9999985351563,2|0,0:0|0:0,0:0:0:0:
287,225,220301,2,0,P|301:235|359:245,1,47.9999985351563,8|0,0:1|0:0,0:0:0:0:
438,215,220468,2,0,P|458:163|463:106,1,95.9999970703126,10|0,0:0|0:0,0:0:0:0:
365,20,220801,6,1,B|312:-7|312:-7|168:18,1,191.999994140625,6|8,0:0|0:0,0:0:0:0:
0,163,221301,2,0,L|111:138,1,95.9999970703126,10|0,0:1|0:0,0:0:0:0:
126,300,221635,2,0,L|32:321,1,95.9999970703126,10|8,0:1|0:0,0:0:0:0:
32,321,221968,1,8,0:1:0:0:
207,180,222135,6,0,P|234:251|263:379,1,191.999994140625,4|10,0:3|0:0,0:1:0:0:
354,298,222635,2,0,P|367:228|385:178,1,95.9999970703126,10|0,0:1|0:0,0:0:0:0:
248,69,222968,2,0,P|235:115|228:163,1,95.9999970703126,10|8,0:1|0:0,0:0:0:0:
103,265,223301,5,8,0:1:0:0:
103,265,223385,1,8,0:1:0:0:
103,265,223468,1,12,0:0:0:0:
210,134,223635,1,8,0:1:0:0:
235,379,223801,1,8,0:0:0:0:
160,206,223968,1,8,0:1:0:0:
398,222,224135,5,10,0:0:0:0:
203,283,224301,1,8,0:1:0:0:
472,332,224468,1,10,0:0:0:0:
286,258,224635,1,8,0:1:0:0:
477,161,224801,38,1,B|434:144|434:144|409:110|409:110|363:96|363:96|334:57|334:57|267:56|236:87|217:134|229:173,1,355.999999999989,4|0,0:0|0:0,0:0:0:0:
