osu file format v14

[General]
AudioFilename: audio.mp3
AudioLeadIn: 0
PreviewTime: -1
Countdown: 1
SampleSet: Soft
StackLeniency: 0.7
Mode: 1
LetterboxInBreaks: 0
WidescreenStoryboard: 0

[Editor]
DistanceSpacing: 0.8
BeatDivisor: 2
GridSize: 4
TimelineZoom: 1.5

[Metadata]
Title:Little Black Backpack
TitleUnicode:Little Black Backpack
Artist:Little Black Backpack
ArtistUnicode:Little Black Backpack
Creator:andrechan8
Version:OwO
Source:
Tags:
BeatmapID:1258776
BeatmapSetID:595243

[Difficulty]
HPDrainRate:4
CircleSize:5
OverallDifficulty:0
ApproachRate:5
SliderMultiplier:1.2
SliderTickRate:1

[Events]
//Background and Video events
//Break Periods
//Storyboard Layer 0 (Background)
//Storyboard Layer 1 (Fail)
//Storyboard Layer 2 (Pass)
//Storyboard Layer 3 (Foreground)
//Storyboard Sound Samples

[TimingPoints]
0,285.714285714286,4,2,0,100,1,0

[HitObjects]
224,208,0,5,0,0:0:0:0:
156,28,571,1,2,0:0:0:0:
220,128,857,1,0,0:0:0:0:
36,184,1285,1,2,0:0:0:0:
288,116,2000,1,0,0:0:0:0:
436,144,2428,1,2,0:0:0:0:
148,212,3285,1,0,0:0:0:0:
256,156,3714,1,2,0:0:0:0:
256,128,4714,1,0,0:0:0:0:
256,128,5428,1,0,0:0:0:0:
288,116,5714,1,2,0:0:0:0:
288,116,6142,1,2,0:0:0:0:
244,128,6571,5,0,0:0:0:0:
296,252,7142,5,0,0:0:0:0:
272,212,7285,1,6,0:0:0:0:
300,188,7428,1,0,0:0:0:0:
260,160,7571,1,2,0:0:0:0:
264,140,7714,1,0,0:0:0:0:
224,112,7857,1,4,0:0:0:0:
348,140,8000,1,0,0:0:0:0:
260,100,8571,1,0,0:0:0:0:
260,100,10285,1,0,0:0:0:0:
288,208,10571,1,2,0:0:0:0:
168,156,11714,1,0,0:0:0:0:
264,148,12142,1,0,0:0:0:0:
236,60,12428,1,2,0:0:0:0:
292,140,13142,1,0,0:0:0:0:
316,36,13428,1,4,0:0:0:0:
164,308,14285,1,2,0:0:0:0:
264,40,15714,1,0,0:0:0:0:
224,120,16285,1,0,0:0:0:0:
208,148,16428,1,2,0:0:0:0:
352,136,17000,1,0,0:0:0:0:
256,132,17285,1,2,0:0:0:0:
360,136,17714,1,2,0:0:0:0:
220,160,18285,1,2,0:0:0:0:
332,140,18857,1,0,0:0:0:0:
408,104,19285,1,2,0:0:0:0:
204,116,19428,1,0,0:0:0:0:
192,248,20000,1,0,0:0:0:0:
196,224,20285,1,2,0:0:0:0:
180,64,20714,1,0,0:0:0:0:
60,104,20857,1,0,0:0:0:0:
100,80,21000,1,0,0:0:0:0:
388,148,21857,1,0,0:0:0:0:
240,128,22285,1,0,0:0:0:0:
424,184,22857,1,0,0:0:0:0:
164,8,23142,1,2,0:0:0:0:
296,80,23571,1,0,0:0:0:0:
212,168,23714,1,0,0:0:0:0:
288,120,24000,1,0,0:0:0:0:
392,140,24285,1,2,0:0:0:0:
340,152,24857,1,0,0:0:0:0:
484,344,25571,1,0,0:0:0:0:
28,172,26000,1,2,0:0:0:0:
160,156,26142,1,0,0:0:0:0:
256,144,26285,1,0,0:0:0:0:
240,56,26428,1,0,0:0:0:0:
312,144,26571,1,2,0:0:0:0:
28,172,26857,1,0,0:0:0:0:
116,212,27142,1,0,0:0:0:0:
204,252,27428,1,0,0:0:0:0:
316,32,27714,1,2,0:0:0:0:
320,68,27857,1,2,0:0:0:0:
164,140,28571,1,0,0:0:0:0:
272,184,29000,5,0,0:0:0:0:
264,124,29285,1,2,0:0:0:0:
176,296,29857,1,2,0:0:0:0:
64,72,30142,1,2,0:0:0:0:
64,72,30285,1,0,0:0:0:0:
96,108,30428,1,2,0:0:0:0:
284,120,31000,1,0,0:0:0:0:
212,104,31285,1,2,0:0:0:0:
108,84,31571,1,0,0:0:0:0:
172,96,31857,1,2,0:0:0:0:
92,80,32142,1,2,0:0:0:0:
132,88,32285,1,0,0:0:0:0:
312,168,32571,1,0,0:0:0:0:
276,136,32714,1,0,0:0:0:0:
280,148,32857,1,0,0:0:0:0:
280,148,33142,1,0,0:0:0:0:
368,108,34000,1,0,0:0:0:0:
288,104,34428,1,0,0:0:0:0:
152,92,34857,1,2,0:0:0:0:
152,92,35142,1,0,0:0:0:0:
152,92,35428,1,0,0:0:0:0:
240,160,35571,1,2,0:0:0:0:
192,160,35714,1,0,0:0:0:0:
300,128,36000,1,0,0:0:0:0:
276,180,36142,1,2,0:0:0:0:
228,176,36285,1,0,0:0:0:0:
384,196,36571,1,0,0:0:0:0:
304,244,36714,1,0,0:0:0:0:
348,216,37000,1,0,0:0:0:0:
284,112,37571,1,4,0:0:0:0:
284,112,38142,1,0,0:0:0:0:
208,104,38558,1,0,0:0:0:0:
288,108,39000,1,4,0:0:0:0:
180,120,39285,1,6,0:0:0:0:
260,140,39714,1,0,0:0:0:0:
284,204,40000,1,2,0:0:0:0:
256,120,40285,1,0,0:0:0:0:
136,40,40714,1,2,0:0:0:0:
388,160,40857,1,0,0:0:0:0:
296,136,41142,1,2,0:0:0:0:
264,128,41571,1,2,0:0:0:0:
224,180,41857,1,0,0:0:0:0:
200,220,42000,1,0,0:0:0:0:
200,220,42142,1,0,0:0:0:0:
176,140,42428,1,2,0:0:0:0:
104,136,42714,1,0,0:0:0:0:
136,136,42857,1,0,0:0:0:0:
200,112,43285,1,2,0:0:0:0:
220,148,43428,1,0,0:0:0:0:
296,172,43857,1,0,0:0:0:0:
272,144,44285,1,2,0:0:0:0:
232,116,44428,1,0,0:0:0:0:
96,44,45000,5,0,0:0:0:0:
236,124,45571,1,0,0:0:0:0:
188,132,45714,1,2,0:0:0:0:
140,144,45857,1,0,0:0:0:0:
148,144,46000,1,2,0:0:0:0:
120,52,46285,1,0,0:0:0:0:
220,16,46428,1,2,0:0:0:0:
188,72,46714,1,0,0:0:0:0:
168,124,46857,1,2,0:0:0:0:
208,64,47142,1,0,0:0:0:0:
168,128,47428,1,2,0:0:0:0:
124,148,47720,1,0,0:0:0:0:
156,124,47857,1,2,0:0:0:0:
124,148,48000,1,0,0:0:0:0:
156,124,48142,1,2,0:0:0:0:
124,148,48571,1,0,0:0:0:0:
124,148,48714,1,0,0:0:0:0:
208,148,49000,1,2,0:0:0:0:
252,104,49438,1,2,0:0:0:0:
192,176,49857,1,0,0:0:0:0:
224,140,50000,1,0,0:0:0:0:
320,152,50428,1,0,0:0:0:0:
320,152,50571,1,0,0:0:0:0:
244,120,51000,1,0,0:0:0:0:
220,108,51142,1,2,0:0:0:0:
164,132,51285,1,0,0:0:0:0:
116,128,51428,1,2,0:0:0:0:
228,248,51714,1,0,0:0:0:0:
292,180,51857,1,0,0:0:0:0:
160,120,52285,1,0,0:0:0:0:
176,84,52428,1,0,0:0:0:0:
108,168,52714,5,2,0:0:0:0:
64,16,53142,1,2,0:0:0:0:
256,180,53428,1,0,0:0:0:0:
244,168,53571,1,0,0:0:0:0:
120,80,54000,1,2,0:0:0:0:
92,96,54571,1,2,0:0:0:0:
212,84,55000,1,0,0:0:0:0:
180,88,55142,1,0,0:0:0:0:
80,88,55428,1,0,0:0:0:0:
80,88,55571,1,2,0:0:0:0:
80,88,55714,1,0,0:0:0:0:
264,212,56000,1,0,0:0:0:0:
244,172,56142,1,0,0:0:0:0:
288,264,56571,1,0,0:0:0:0:
176,172,57000,1,0,0:0:0:0:
232,144,57142,1,0,0:0:0:0:
248,184,57285,1,0,0:0:0:0:
248,184,57571,1,0,0:0:0:0:
248,184,58000,1,0,0:0:0:0:
116,76,58571,1,0,0:0:0:0:
248,184,58714,1,0,0:0:0:0:
248,184,59000,1,2,0:0:0:0:
248,184,59571,1,0,0:0:0:0:
248,184,59714,1,0,0:0:0:0:
248,184,60142,1,0,0:0:0:0:
248,184,60428,1,2,0:0:0:0:
120,72,60857,1,0,0:0:0:0:
248,184,61000,1,2,0:0:0:0:
248,184,61142,1,0,0:0:0:0:
248,184,61571,1,0,0:0:0:0:
220,144,61714,1,0,0:0:0:0:
248,184,62000,1,0,0:0:0:0:
248,184,62142,1,0,0:0:0:0:
216,164,62285,1,0,0:0:0:0:
248,184,62428,1,0,0:0:0:0:
248,184,62571,1,0,0:0:0:0:
156,152,62857,1,2,0:0:0:0:
248,120,63142,1,0,0:0:0:0:
248,184,63285,1,0,0:0:0:0:
248,184,63428,1,0,0:0:0:0:
248,184,63714,1,0,0:0:0:0:
248,184,64285,1,0,0:0:0:0:
248,184,64428,1,0,0:0:0:0:
200,172,64571,1,0,0:0:0:0:
248,184,64714,1,0,0:0:0:0:
84,68,65142,1,2,0:0:0:0:
248,184,65285,1,0,0:0:0:0:
60,116,65857,1,0,0:0:0:0:
32,92,66000,1,2,0:0:0:0:
116,88,66285,1,0,0:0:0:0:
248,184,66427,1,0,0:0:0:0:
248,184,66857,1,0,0:0:0:0:
56,144,67571,1,0,0:0:0:0:
56,144,67714,1,2,0:0:0:0:
248,184,68142,1,0,0:0:0:0:
56,144,68428,1,2,0:0:0:0:
56,144,68857,1,0,0:0:0:0:
56,144,69142,1,2,0:0:0:0:
56,144,69571,1,0,0:0:0:0:
212,104,69714,1,0,0:0:0:0:
56,144,69857,1,0,0:0:0:0:
212,104,70285,1,2,0:0:0:0:
212,104,70428,1,2,0:0:0:0:
108,132,70857,1,0,0:0:0:0:
64,144,71142,1,0,0:0:0:0:
212,104,71285,1,0,0:0:0:0:
64,144,71571,1,2,0:0:0:0:
212,104,72000,1,2,0:0:0:0:
64,144,72428,1,0,0:0:0:0:
64,144,72857,1,0,0:0:0:0:
212,104,73000,1,0,0:0:0:0:
64,144,73285,1,0,0:0:0:0:
64,144,73714,1,0,0:0:0:0:
64,144,74000,1,0,0:0:0:0:
212,104,74142,1,0,0:0:0:0:
64,144,74428,1,0,0:0:0:0:
64,144,74571,1,2,0:0:0:0:
324,124,74857,1,0,0:0:0:0:
224,132,75142,1,0,0:0:0:0:
84,144,75857,1,0,0:0:0:0:
84,144,76142,1,2,0:0:0:0:
216,144,76571,1,0,0:0:0:0:
508,152,77428,1,0,0:0:0:0:
408,160,77714,1,0,0:0:0:0:
212,120,78000,1,0,0:0:0:0:
180,108,78142,1,0,0:0:0:0:
128,124,78857,1,0,0:0:0:0:
256,216,79428,1,0,0:0:0:0:
220,204,79571,1,0,0:0:0:0:
252,140,79714,1,0,0:0:0:0:
188,116,80142,1,0,0:0:0:0:
192,136,80285,1,0,0:0:0:0:
296,148,80571,1,0,0:0:0:0:
244,132,80714,1,0,0:0:0:0:
132,64,81285,1,0,0:0:0:0:
140,92,81571,1,0,0:0:0:0:
204,104,81714,1,2,0:0:0:0:
204,104,81857,1,0,0:0:0:0:
248,124,82000,1,2,0:0:0:0:
92,48,82428,1,0,0:0:0:0:
176,92,82857,1,0,0:0:0:0:
268,232,83428,1,0,0:0:0:0:
148,184,83714,1,0,0:0:0:0:
276,116,83857,1,0,0:0:0:0:
132,108,84142,1,0,0:0:0:0:
172,108,84285,1,0,0:0:0:0:
276,132,84714,1,0,0:0:0:0:
276,132,84857,1,0,0:0:0:0:
188,72,85428,1,0,0:0:0:0:
224,116,85571,1,0,0:0:0:0:
104,212,86000,1,0,0:0:0:0:
192,148,86285,1,0,0:0:0:0:
80,112,87000,1,0,0:0:0:0:
160,104,87428,1,0,0:0:0:0:
216,64,87857,1,0,0:0:0:0:
252,132,88142,1,2,0:0:0:0:
252,132,88428,1,2,0:0:0:0:
168,192,88714,1,2,0:0:0:0:
296,124,89142,1,0,0:0:0:0:
344,168,89428,1,0,0:0:0:0:
160,148,90000,5,0,0:0:0:0:
36,104,90428,1,0,0:0:0:0:
160,148,90571,1,0,0:0:0:0:
328,116,90714,1,0,0:0:0:0:
292,120,90857,1,0,0:0:0:0:
16,48,91714,1,0,0:0:0:0:
188,128,92142,1,0,0:0:0:0:
328,116,92285,1,0,0:0:0:0:
288,120,92714,1,0,0:0:0:0:
248,148,92857,1,2,0:0:0:0:
288,120,93000,1,0,0:0:0:0:
52,136,93571,1,2,0:0:0:0:
432,104,93857,1,0,0:0:0:0:
52,136,94000,1,0,0:0:0:0:
388,108,94142,1,0,0:0:0:0:
196,112,94857,1,2,0:0:0:0:
56,124,95285,1,0,0:0:0:0:
124,108,95428,1,0,0:0:0:0:
224,100,95571,1,0,0:0:0:0:
64,140,96000,1,0,0:0:0:0:
64,140,96142,1,2,0:0:0:0:
112,108,96571,1,2,0:0:0:0:
60,116,96714,1,0,0:0:0:0:
200,100,97000,1,2,0:0:0:0:
244,96,97142,1,0,0:0:0:0:
328,124,97571,1,0,0:0:0:0:
292,112,97714,1,0,0:0:0:0:
168,128,98000,1,2,0:0:0:0:
24,148,98571,1,0,0:0:0:0:
108,136,98857,1,2,0:0:0:0:
24,68,99142,1,0,0:0:0:0:
84,100,99428,1,2,0:0:0:0:
132,112,99571,1,2,0:0:0:0:
232,120,100000,1,0,0:0:0:0:
212,264,100571,1,2,0:0:0:0:
176,236,100714,1,2,0:0:0:0:
232,196,101000,1,0,0:0:0:0:
240,148,101142,1,0,0:0:0:0:
240,148,101285,1,0,0:0:0:0:
156,32,101714,1,2,0:0:0:0:
240,148,101857,1,2,0:0:0:0:
240,148,102000,1,2,0:0:0:0:
240,148,102285,1,2,0:0:0:0:
40,144,102714,1,0,0:0:0:0:
260,120,103285,1,2,0:0:0:0:
260,120,103428,1,2,0:0:0:0:
260,120,103857,1,0,0:0:0:0:
260,120,104285,1,2,0:0:0:0:
260,120,104571,1,2,0:0:0:0:
196,128,104857,1,0,0:0:0:0:
260,120,105000,1,0,0:0:0:0:
260,120,105142,1,0,0:0:0:0:
120,144,105571,1,0,0:0:0:0:
260,120,105714,1,2,0:0:0:0:
260,120,106285,1,0,0:0:0:0:
260,120,106714,1,2,0:0:0:0:
260,120,107142,1,2,0:0:0:0:
260,120,107428,1,0,0:0:0:0:
260,120,107571,1,0,0:0:0:0:
260,120,108000,1,0,0:0:0:0:
260,120,108142,1,0,0:0:0:0:
292,84,108285,1,0,0:0:0:0:
260,120,108571,1,0,0:0:0:0:
260,120,109142,1,0,0:0:0:0:
260,120,109571,1,0,0:0:0:0:
260,120,110000,1,2,0:0:0:0:
164,128,110285,1,2,0:0:0:0:
260,120,110857,1,0,0:0:0:0:
260,120,111000,1,0,0:0:0:0:
216,100,111142,1,0,0:0:0:0:
236,132,111428,5,0,0:0:0:0:
260,120,111571,1,0,0:0:0:0:
148,116,111714,1,0,0:0:0:0:
132,52,112000,1,2,0:0:0:0:
92,216,112285,1,0,0:0:0:0:
116,200,112428,1,0,0:0:0:0:
248,112,112571,1,0,0:0:0:0:
340,140,112714,1,0,0:0:0:0:
132,176,113000,1,2,0:0:0:0:
120,180,113002,1,0,0:0:0:0:
192,160,113285,1,2,0:0:0:0:
192,160,113571,1,2,0:0:0:0:
192,160,113857,1,0,0:0:0:0:
240,20,114142,1,0,0:0:0:0:
204,48,114285,1,0,0:0:0:0:
180,108,114571,1,6,0:0:0:0:
12,40,115142,1,2,0:0:0:0:
304,100,115285,1,0,0:0:0:0:
236,120,115571,1,0,0:0:0:0:
188,128,115714,1,0,0:0:0:0:
176,92,115857,1,0,0:0:0:0:
72,124,116142,1,0,0:0:0:0:
20,144,116285,1,0,0:0:0:0:
20,144,116714,1,6,0:0:0:0:
152,188,117142,1,2,0:0:0:0:
236,120,117285,1,2,0:0:0:0:
152,188,117571,1,0,0:0:0:0:
224,160,117857,1,0,0:0:0:0:
196,120,118000,1,0,0:0:0:0:
320,156,118142,1,0,0:0:0:0:
188,112,118571,1,0,0:0:0:0:
88,180,119000,1,0,0:0:0:0:
116,164,119142,1,0,0:0:0:0:
180,112,119428,1,0,0:0:0:0:
152,136,119571,1,2,0:0:0:0:
236,120,119714,1,0,0:0:0:0:
152,136,119857,1,2,0:0:0:0:
152,136,120000,1,0,0:0:0:0:
236,120,120142,1,2,0:0:0:0:
152,136,120428,1,0,0:0:0:0:
152,136,120571,1,0,0:0:0:0:
280,216,121000,1,0,0:0:0:0:
204,112,121428,1,2,0:0:0:0:
288,120,121714,1,2,0:0:0:0:
236,120,122142,1,2,0:0:0:0:
220,120,122285,5,2,0:0:0:0:
220,120,122571,5,2,0:0:0:0:
220,120,122857,1,2,0:0:0:0:
236,120,123142,1,2,0:0:0:0:
292,132,123285,1,0,0:0:0:0:
236,120,123714,1,0,0:0:0:0:
236,120,124000,1,0,0:0:0:0:
248,120,124142,1,0,0:0:0:0:
128,80,124571,5,0,0:0:0:0:
236,120,124714,1,0,0:0:0:0:
200,108,124857,1,0,0:0:0:0:
236,112,125000,1,0,0:0:0:0:
236,120,125142,1,0,0:0:0:0:
284,284,125571,1,0,0:0:0:0:
236,120,125714,1,0,0:0:0:0:
236,120,126142,1,0,0:0:0:0:
372,200,126285,1,0,0:0:0:0:
236,120,126428,1,0,0:0:0:0:
280,120,126571,1,0,0:0:0:0:
236,120,126714,1,0,0:0:0:0:
236,120,126857,1,0,0:0:0:0:
236,120,127000,1,0,0:0:0:0:
260,120,127285,1,2,0:0:0:0:
236,120,127571,1,0,0:0:0:0:
236,120,127714,1,0,0:0:0:0:
236,120,127857,1,0,0:0:0:0:
168,188,128142,1,0,0:0:0:0:
236,120,128285,1,0,0:0:0:0:
236,120,128428,1,0,0:0:0:0:
140,108,128714,1,0,0:0:0:0:
236,120,128845,1,0,0:0:0:0:
236,120,129000,1,0,0:0:0:0:
236,120,129142,1,0,0:0:0:0:
188,112,129285,1,0,0:0:0:0:
236,120,129428,1,0,0:0:0:0:
236,120,129571,1,0,0:0:0:0:
236,120,129714,1,0,0:0:0:0:
236,120,129857,1,0,0:0:0:0:
236,120,130285,5,2,0:0:0:0:
352,152,130714,1,2,0:0:0:0:
236,120,130857,1,2,0:0:0:0:
236,120,131285,1,0,0:0:0:0:
236,120,131709,1,2,0:0:0:0:
336,144,132000,1,2,0:0:0:0:
236,120,132428,1,0,0:0:0:0:
312,140,132714,1,2,0:0:0:0:
312,140,133000,1,0,0:0:0:0:
444,132,133428,1,0,0:0:0:0:
236,120,133714,1,0,0:0:0:0:
236,120,134142,1,0,0:0:0:0:
204,152,134428,1,0,0:0:0:0:
156,92,134714,1,0,0:0:0:0:
236,120,134857,1,0,0:0:0:0:
236,120,135571,1,0,0:0:0:0:
236,120,135714,1,0,0:0:0:0:
128,28,136142,1,0,0:0:0:0:
236,120,136290,1,0,0:0:0:0:
236,120,136862,1,0,0:0:0:0:
92,132,137285,1,0,0:0:0:0:
236,120,137714,1,2,0:0:0:0:
236,120,137857,1,4,0:0:0:0:
236,120,138571,1,4,0:0:0:0:
308,136,138857,1,0,0:0:0:0:
236,120,139000,1,0,0:0:0:0:
236,120,139142,1,0,0:0:0:0:
236,120,139285,1,0,0:0:0:0:
236,120,139857,1,0,0:0:0:0:
308,128,140000,1,0,0:0:0:0:
236,120,140428,1,2,0:0:0:0:
236,120,140714,1,2,0:0:0:0:
252,124,140857,1,2,0:0:0:0:
212,212,141000,1,2,0:0:0:0:
236,120,141285,1,2,0:0:0:0:
236,120,141428,1,2,0:0:0:0:
252,156,141571,1,2,0:0:0:0:
236,120,141857,1,2,0:0:0:0:
236,120,142000,1,2,0:0:0:0:
244,120,142571,1,0,0:0:0:0:
340,104,143142,1,0,0:0:0:0:
236,120,143857,1,0,0:0:0:0:
268,128,144285,1,0,0:0:0:0:
236,120,144714,1,0,0:0:0:0:
264,140,144857,1,0,0:0:0:0:
236,120,145142,1,0,0:0:0:0:
200,188,145285,1,0,0:0:0:0:
236,120,145714,1,0,0:0:0:0:
276,140,145857,1,0,0:0:0:0:
236,120,146142,1,0,0:0:0:0:
236,120,146285,1,0,0:0:0:0:
188,132,146428,1,0,0:0:0:0:
236,120,146571,1,0,0:0:0:0:
236,120,146714,1,0,0:0:0:0:
140,136,147000,1,0,0:0:0:0:
92,148,147142,1,0,0:0:0:0:
236,120,147428,1,0,0:0:0:0:
236,120,147552,1,0,0:0:0:0:
236,120,147857,1,0,0:0:0:0:
236,120,148000,1,0,0:0:0:0:
144,208,148142,1,0,0:0:0:0:
280,156,148285,1,0,0:0:0:0:
236,120,148571,1,0,0:0:0:0:
236,120,148714,1,0,0:0:0:0:
236,120,149142,1,0,0:0:0:0:
236,120,149285,1,0,0:0:0:0:
236,120,149714,1,0,0:0:0:0:
236,120,150000,1,0,0:0:0:0:
236,120,150142,1,2,0:0:0:0:
236,120,150571,1,0,0:0:0:0:
236,120,150857,1,0,0:0:0:0:
188,124,151000,1,2,0:0:0:0:
152,92,151142,1,0,0:0:0:0:
236,120,151428,1,0,0:0:0:0:
236,120,151560,1,0,0:0:0:0:
236,120,152000,1,2,0:0:0:0:
236,120,152285,1,0,0:0:0:0:
236,120,152428,1,0,0:0:0:0:
236,120,152857,1,0,0:0:0:0:
236,120,153285,1,0,0:0:0:0:
236,120,153428,1,0,0:0:0:0:
208,100,153571,1,0,0:0:0:0:
236,120,153857,1,0,0:0:0:0:
300,192,154142,1,0,0:0:0:0:
236,120,154285,1,0,0:0:0:0:
236,120,154428,1,0,0:0:0:0:
236,120,154714,1,0,0:0:0:0:
236,120,155000,1,0,0:0:0:0:
236,120,155428,1,0,0:0:0:0:
236,120,156000,1,0,0:0:0:0:
300,148,156142,1,0,0:0:0:0:
236,120,156428,1,0,0:0:0:0:
140,128,156714,1,0,0:0:0:0:
236,120,156857,1,0,0:0:0:0:
236,120,157285,1,0,0:0:0:0:
236,120,157857,1,2,0:0:0:0:
236,120,158428,1,2,0:0:0:0:
236,120,158857,1,0,0:0:0:0:
192,108,159000,1,0,0:0:0:0:
236,120,159142,1,0,0:0:0:0:
236,120,159571,1,0,0:0:0:0:
236,120,159714,1,2,0:0:0:0:
208,108,159857,1,0,0:0:0:0:
164,88,160000,1,2,0:0:0:0:
236,120,160142,1,0,0:0:0:0:
236,120,160571,1,0,0:0:0:0:
236,120,160714,1,0,0:0:0:0:
192,124,160857,1,0,0:0:0:0:
236,120,161142,1,0,0:0:0:0:
236,120,161571,1,0,0:0:0:0:
236,120,161714,1,2,0:0:0:0:
236,120,161857,1,0,0:0:0:0:
236,120,162000,1,2,0:0:0:0:
236,120,162142,1,0,0:0:0:0:
236,120,162285,1,2,0:0:0:0:
236,120,162428,1,0,0:0:0:0:
260,80,162571,1,2,0:0:0:0:
236,120,163000,1,2,0:0:0:0:
236,120,163142,1,0,0:0:0:0:
236,120,163571,1,0,0:0:0:0:
236,120,163714,1,0,0:0:0:0:
236,120,163857,1,0,0:0:0:0:
288,152,164000,1,0,0:0:0:0:
236,120,164285,1,0,0:0:0:0:
252,124,164428,1,0,0:0:0:0:
236,120,164714,1,2,0:0:0:0:
236,120,165285,1,2,0:0:0:0:
236,120,165714,1,2,0:0:0:0:
236,120,166142,1,0,0:0:0:0:
236,120,166285,1,0,0:0:0:0:
76,12,166857,1,0,0:0:0:0:
236,120,167285,1,0,0:0:0:0:
96,28,167714,1,2,0:0:0:0:
236,120,168000,1,2,0:0:0:0:
144,76,168285,1,0,0:0:0:0:
100,56,168428,1,0,0:0:0:0:
236,120,168571,1,0,0:0:0:0:
236,120,169000,1,2,0:0:0:0:
196,100,169142,1,0,0:0:0:0:
236,120,169571,1,0,0:0:0:0:
236,120,170000,1,0,0:0:0:0:
236,120,170285,1,2,0:0:0:0:
156,64,170571,1,0,0:0:0:0:
236,120,171000,1,0,0:0:0:0:
276,132,171142,1,0,0:0:0:0:
236,120,171571,1,2,0:0:0:0:
236,120,172000,1,2,0:0:0:0:
236,120,172571,1,2,0:0:0:0:
236,120,173000,1,2,0:0:0:0:
236,120,173285,1,0,0:0:0:0:
236,120,173428,1,0,0:0:0:0:
188,72,173714,1,0,0:0:0:0:
236,120,173857,1,0,0:0:0:0:
236,120,174000,1,0,0:0:0:0:
236,120,174428,1,0,0:0:0:0:
236,120,174571,1,0,0:0:0:0:
236,120,174714,1,0,0:0:0:0:
236,120,174857,1,0,0:0:0:0:
164,56,175142,1,2,0:0:0:0:
236,120,175421,1,0,0:0:0:0:
236,120,175571,1,0,0:0:0:0:
236,120,175714,1,0,0:0:0:0:
236,120,175857,1,0,0:0:0:0:
236,120,176285,1,2,0:0:0:0:
236,120,176428,1,0,0:0:0:0:
236,120,176857,1,2,0:0:0:0:
236,120,177285,1,2,0:0:0:0:
236,120,177428,1,2,0:0:0:0:
140,116,177714,1,0,0:0:0:0:
236,120,177857,1,0,0:0:0:0:
140,116,178000,1,0,0:0:0:0:
236,120,178285,1,0,0:0:0:0:
236,120,178428,1,0,0:0:0:0:
236,120,178857,1,0,0:0:0:0:
236,120,179428,1,0,0:0:0:0:
236,120,179571,1,0,0:0:0:0:
236,120,179714,1,0,0:0:0:0:
236,120,179857,1,0,0:0:0:0:
268,156,180000,1,0,0:0:0:0:
236,120,180428,1,0,0:0:0:0:
236,120,180575,1,0,0:0:0:0:
236,120,180714,1,0,0:0:0:0:
140,136,181000,1,0,0:0:0:0:
236,120,181428,1,0,0:0:0:0:
236,120,181720,1,0,0:0:0:0:
236,120,181857,1,0,0:0:0:0:
236,120,182293,1,2,0:0:0:0:
236,120,182428,1,2,0:0:0:0:
236,120,182857,1,0,0:0:0:0:
236,120,183285,1,2,0:0:0:0:
236,120,183428,1,2,0:0:0:0:
236,120,183857,1,0,0:0:0:0:
236,120,184000,1,0,0:0:0:0:
236,120,184428,1,0,0:0:0:0:
236,120,184714,1,0,0:0:0:0:
236,120,185142,1,2,0:0:0:0:
236,120,185714,1,0,0:0:0:0:
236,120,186142,1,0,0:0:0:0:
236,120,186285,1,0,0:0:0:0:
236,120,186571,1,0,0:0:0:0:
236,120,186857,1,0,0:0:0:0:
236,120,187285,1,0,0:0:0:0:
236,120,187428,1,0,0:0:0:0:
236,120,187857,1,0,0:0:0:0:
236,120,188142,1,2,0:0:0:0:
236,120,188714,1,0,0:0:0:0:
236,120,189142,1,2,0:0:0:0:
236,120,189571,1,2,0:0:0:0:
236,120,190142,1,0,0:0:0:0:
236,120,190714,1,0,0:0:0:0:
236,120,190857,1,0,0:0:0:0:
236,120,191285,1,2,0:0:0:0:
236,120,191571,1,0,0:0:0:0:
124,84,192000,1,0,0:0:0:0:
236,120,192142,1,2,0:0:0:0:
236,120,192285,1,0,0:0:0:0:
140,120,192571,1,0,0:0:0:0:
140,108,192714,1,2,0:0:0:0:
236,120,192857,1,0,0:0:0:0:
236,120,193000,1,2,0:0:0:0:
236,120,193428,1,0,0:0:0:0:
236,120,193571,1,2,0:0:0:0:
200,128,193714,1,0,0:0:0:0:
236,120,194000,1,0,0:0:0:0:
236,120,194142,1,2,0:0:0:0:
236,120,194285,1,0,0:0:0:0:
236,120,194428,1,2,0:0:0:0:
140,104,194714,1,0,0:0:0:0:
236,120,194857,1,2,0:0:0:0:
176,132,195142,1,0,0:0:0:0:
236,120,195285,1,0,0:0:0:0:
236,120,195428,1,0,0:0:0:0:
140,120,195714,1,0,0:0:0:0:
236,120,195857,1,0,0:0:0:0:
236,120,196000,1,0,0:0:0:0:
236,120,196142,1,0,0:0:0:0:
236,120,196285,1,0,0:0:0:0:
140,108,196571,1,0,0:0:0:0:
92,100,196714,1,2,0:0:0:0:
236,120,196857,1,0,0:0:0:0:
236,120,197142,1,0,0:0:0:0:
236,120,197285,1,0,0:0:0:0:
236,120,197714,1,0,0:0:0:0:
236,120,197857,1,0,0:0:0:0:
236,120,198285,1,0,0:0:0:0:
236,120,198428,1,0,0:0:0:0:
236,120,198571,1,0,0:0:0:0:
236,120,199000,1,2,0:0:0:0:
220,112,199142,1,2,0:0:0:0:
236,120,199571,1,0,0:0:0:0:
236,120,199714,1,2,0:0:0:0:
236,120,199857,1,0,0:0:0:0:
236,120,200285,1,0,0:0:0:0:
340,88,200571,1,2,0:0:0:0:
236,120,200714,1,2,0:0:0:0:
236,120,201142,1,0,0:0:0:0:
332,92,201571,1,0,0:0:0:0:
236,120,201714,1,0,0:0:0:0:
116,80,202142,1,2,0:0:0:0:
236,120,202285,1,0,0:0:0:0:
332,88,202714,1,0,0:0:0:0:
236,120,202857,1,0,0:0:0:0:
236,120,203285,1,0,0:0:0:0:
392,76,203714,1,0,0:0:0:0:
236,120,203862,1,0,0:0:0:0:
400,76,204428,1,0,0:0:0:0:
236,120,204571,1,2,0:0:0:0:
236,120,204857,1,0,0:0:0:0:
236,120,205285,1,2,0:0:0:0:
236,120,205428,1,2,0:0:0:0:
236,120,206000,1,0,0:0:0:0:
236,120,206142,1,0,0:0:0:0:
236,120,206571,1,0,0:0:0:0:
236,120,206714,1,0,0:0:0:0:
236,120,207142,1,2,0:0:0:0:
316,92,207428,1,0,0:0:0:0:
236,120,207714,1,0,0:0:0:0:
236,120,208142,1,0,0:0:0:0:
236,120,208285,1,0,0:0:0:0:
128,124,208571,1,0,0:0:0:0:
236,120,208714,1,0,0:0:0:0:
236,120,208857,1,0,0:0:0:0:
236,120,209142,1,2,0:0:0:0:
236,120,209398,1,0,0:0:0:0:
132,136,209714,1,0,0:0:0:0:
236,120,209857,1,0,0:0:0:0:
236,120,210000,1,0,0:0:0:0:
372,72,210428,1,0,0:0:0:0:
236,120,210571,1,0,0:0:0:0:
236,120,210714,1,0,0:0:0:0:
236,120,211142,1,0,0:0:0:0:
236,120,211714,1,0,0:0:0:0:
236,120,211857,1,0,0:0:0:0:
236,120,212000,1,0,0:0:0:0:
188,120,212142,1,0,0:0:0:0:
236,120,212285,1,0,0:0:0:0:
236,120,212428,1,0,0:0:0:0:
236,120,212571,1,0,0:0:0:0:
236,120,212857,1,0,0:0:0:0:
236,120,213000,1,0,0:0:0:0:
236,120,213428,1,0,0:0:0:0:
236,120,213571,1,0,0:0:0:0:
504,76,214428,1,0,0:0:0:0:
236,120,214571,1,0,0:0:0:0:
500,80,215428,1,0,0:0:0:0:
236,120,215571,1,0,0:0:0:0:
380,96,216714,1,0,0:0:0:0:
380,96,216857,1,0,0:0:0:0:
160,212,217571,1,0,0:0:0:0:
