osu file format v14

[General]
AudioFilename: audio.mp3
AudioLeadIn: 0
PreviewTime: 34014
Countdown: 1
SampleSet: None
StackLeniency: 0.7
Mode: 0
LetterboxInBreaks: 0
WidescreenStoryboard: 0

[Editor]
Bookmarks: 26968,30378,32878
DistanceSpacing: 1.4
BeatDivisor: 4
GridSize: 8
TimelineZoom: 1

[Metadata]
Title:Skibidi
TitleUnicode:Skibidi
Artist:Little Big
ArtistUnicode:Little Big
Creator:smozit
Version:DICK
Source:
Tags:
BeatmapID:1898599
BeatmapSetID:909802

[Difficulty]
HPDrainRate:0
CircleSize:4.5
OverallDifficulty:8
ApproachRate:9
SliderMultiplier:3.2
SliderTickRate:1

[Events]
//Background and Video events
0,0,"fyIm8lOwgqA.jpg",0,0
//Break Periods
//Storyboard Layer 0 (Background)
//Storyboard Layer 1 (Fail)
//Storyboard Layer 2 (Pass)
//Storyboard Layer 3 (Foreground)
//Storyboard Sound Samples

[TimingPoints]
5378,454.545454545455,4,2,0,100,1,0
19468,-100,4,2,0,30,0,0
19923,-100,4,2,0,100,0,0
34468,-13,4,2,0,100,0,1
34923,-59.5238095238095,4,2,0,100,0,1
36059,-133.333333333333,4,2,0,100,0,1
36287,-13,4,2,0,100,0,1
37650,-1,4,2,0,100,0,1
38105,-13,4,2,0,100,0,1
40150,-1,4,2,0,100,0,1
43105,-13,4,2,0,100,0,1
43559,-1,4,2,0,100,0,1
44923,-13,4,2,0,100,0,1
45378,-1,4,2,0,100,0,1
47423,-13,4,2,0,100,0,1
48105,-59.5238095238095,4,2,0,100,0,1
49014,-100,4,2,0,100,0,0

[HitObjects]
104,113,5378,6,0,L|183:114,1,80
278,106,5605,1,0,0:0:0:0:
347,141,5718,1,0,0:0:0:0:
368,216,5832,6,0,L|374:296,1,80
257,185,6059,2,0,L|251:264,1,80
149,224,6287,2,0,L|154:303,1,80
58,192,6514,2,0,L|52:271,1,80
115,364,6741,5,0,0:0:0:0:
194,361,6854,1,0,0:0:0:0:
274,359,6968,1,0,0:0:0:0:
354,357,7081,1,0,0:0:0:0:
413,300,7196,6,0,P|423:259|409:220,1,80
339,160,7423,2,0,P|328:121|339:83,1,80
488,45,7650,2,0,P|455:49|408:37,1,80
295,13,7878,2,0,P|256:2|216:6,1,80
142,65,8105,5,0,0:0:0:0:
75,104,8218,1,0,0:0:0:0:
63,180,8332,1,0,0:0:0:0:
116,237,8445,1,0,0:0:0:0:
193,232,8559,6,0,P|209:265|208:311,1,80
299,309,8787,2,0,P|283:341|284:387,1,80
393,236,9014,2,0,L|313:229,1,80
286,143,9241,2,0,L|206:149,1,80
321,57,9468,5,0,0:0:0:0:
398,52,9581,1,0,0:0:0:0:
454,107,9695,1,0,0:0:0:0:
451,184,9808,1,0,0:0:0:0:
392,235,9923,6,0,P|388:276|393:315,1,80
286,143,10150,2,0,P|290:183|284:222,1,80
232,288,10378,1,0,0:0:0:0:
156,305,10491,1,0,0:0:0:0:
91,262,10605,1,0,0:0:0:0:
78,186,10718,1,0,0:0:0:0:
124,123,10832,6,0,P|119:90|87:52,1,80
177,192,11059,2,0,P|202:161|210:123,1,80
162,278,11287,2,0,P|201:274|234:253,1,80
91,328,11514,2,0,P|121:353|159:361,1,80
369,316,11741,6,0,B|381:284|381:284|366:236,1,80
291,82,11968,2,0,B|278:125|278:125|290:157,1,80
444,161,12196,6,0,B|412:146|412:146|364:157,1,80
215,233,12423,2,0,B|257:249|257:249|290:239,1,80
140,347,12878,6,0,P|142:310|142:267,1,80
45,287,13105,2,0,P|42:247|42:207,1,80
150,183,13332,2,0,P|152:143|152:103,1,80
44,85,13559,2,0,P|41:45|41:5,1,80
151,106,13787,6,0,P|189:112|230:99,1,80
317,63,14014,1,0,0:0:0:0:
393,77,14127,1,0,0:0:0:0:
435,143,14241,1,0,0:0:0:0:
417,218,14354,1,0,0:0:0:0:
350,258,14468,6,0,P|342:291|344:337,1,80
248,184,14696,2,0,P|256:217|254:263,1,80
143,299,14923,2,0,P|141:259|150:221,1,80
54,373,15151,2,0,P|56:333|48:295,1,80
49,199,15378,5,0,0:0:0:0:
54,120,15491,1,0,0:0:0:0:
106,61,15605,1,0,0:0:0:0:
183,44,15718,1,0,0:0:0:0:
254,77,15832,6,0,L|334:72,1,80
373,149,16059,2,0,L|452:154,1,80
322,234,16287,2,0,L|401:228,1,80
395,315,16514,2,0,L|474:320,1,80
254,281,16741,6,0,P|241:245|251:201,1,80
141,306,16968,2,0,P|154:342|143:385,1,80
39,223,17196,2,0,L|132:212,1,80
253,128,17423,2,0,L|173:118,1,80
56,36,17650,5,0,0:0:0:0:
135,33,17763,1,0,0:0:0:0:
215,31,17877,1,0,0:0:0:0:
295,29,17990,1,0,0:0:0:0:
376,27,18105,6,0,P|396:53|387:106,1,80
236,199,18332,2,0,P|230:160|252:127,1,80
416,241,18559,2,0,P|421:279|399:312,1,80
331,173,18787,2,0,L|464:168,1,80
276,316,19241,5,0,0:0:0:0:
276,316,19468,1,0,0:0:0:0:
187,352,19696,6,0,L|86:358,1,80
145,277,19923,6,0,P|150:237|142:197,1,80
71,79,20150,1,0,0:0:0:0:
135,124,20263,1,0,0:0:0:0:
213,119,20378,2,0,L|325:109,1,80
446,188,20605,2,0,L|334:177,1,80
214,250,20832,2,0,L|293:242,1,80
386,242,21059,5,0,0:0:0:0:
438,299,21172,1,0,0:0:0:0:
435,377,21287,2,0,P|450:333|480:302,1,80
488,234,21514,1,0,0:0:0:0:
478,154,21627,1,0,0:0:0:0:
469,75,21741,6,0,L|350:80,1,80
294,131,21968,2,0,L|214:127,1,80
140,66,22196,2,0,L|60:69,1,80
94,147,22423,2,0,L|39:205,1,80
130,227,22650,2,0,L|133:306,1,80
207,353,22878,1,0,0:0:0:0:
286,342,22991,1,0,0:0:0:0:
365,332,23105,6,0,L|363:253,1,80
465,110,23332,1,0,0:0:0:0:
466,189,23445,1,0,0:0:0:0:
468,269,23559,6,0,L|471:349,1,80
365,332,23787,2,0,L|363:253,1,80
340,149,24014,1,0,0:0:0:0:
268,115,24127,1,0,0:0:0:0:
191,130,24241,1,0,0:0:0:0:
136,187,24354,1,0,0:0:0:0:
125,265,24468,6,0,P|90:283|47:280,1,80
202,237,24696,2,0,P|237:219|280:221,1,80
314,317,24923,1,0,0:0:0:0:
255,264,25036,1,0,0:0:0:0:
237,188,25150,1,0,0:0:0:0:
268,115,25263,1,0,0:0:0:0:
335,74,25378,6,0,P|345:41|335:-5,1,80
427,133,25605,2,0,P|417:166|426:212,1,80
496,64,25832,2,0,L|416:60,1,80
237,188,26059,2,0,L|316:184,1,80
242,285,26287,5,0,0:0:0:0:
165,270,26400,1,0,0:0:0:0:
126,203,26514,1,0,0:0:0:0:
152,130,26627,1,0,0:0:0:0:
224,101,26741,6,0,P|236:65|223:21,1,80
59,172,26968,2,0,P|48:210|60:247,1,80
165,270,27196,1,0,0:0:0:0:
293,354,27423,5,0,0:0:0:0:
375,269,27650,2,0,L|372:168,1,80
277,29,27878,1,0,0:0:0:0:
278,108,27991,1,0,0:0:0:0:
280,188,28105,6,0,L|281:297,1,80
206,321,28332,1,0,0:0:0:0:
133,289,28445,1,0,0:0:0:0:
97,220,28559,1,0,0:0:0:0:
111,143,28672,1,0,0:0:0:0:
158,77,28787,1,0,0:0:0:0:
231,49,28900,1,0,0:0:0:0:
305,74,29014,6,0,L|441:73,1,80
507,190,29241,2,0,L|371:188,1,80
250,188,29468,2,0,L|385:186,1,80
451,303,29695,2,0,L|315:301,1,80
251,359,29923,6,0,P|244:319|255:281,1,80
129,221,30150,2,0,P|139:259|133:298,1,80
45,213,30378,2,0,P|34:174|40:135,1,80
107,52,30605,1,0,0:0:0:0:
183,35,30718,1,0,0:0:0:0:
254,68,30832,1,0,0:0:0:0:
290,138,30945,1,0,0:0:0:0:
275,215,31059,6,0,P|314:211|355:215,1,80
427,281,31287,1,0,0:0:0:0:
385,214,31400,1,0,0:0:0:0:
395,136,31514,2,0,P|402:101|430:64,1,80
475,132,31741,5,0,0:0:0:0:
395,136,31854,1,0,0:0:0:0:
316,138,31968,2,0,L|202:147,1,80
204,222,32196,2,0,L|124:215,1,80
0,136,32423,1,0,0:0:0:0:
79,138,32536,1,0,0:0:0:0:
159,140,32650,6,0,P|170:103|159:60,1,80
0,136,32878,2,0,P|-8:174|1:213,1,80
72,236,33105,1,0,0:0:0:0:
98,307,33218,1,0,0:0:0:0:
51,368,33332,1,0,0:0:0:0:
125,166,34468,6,0,B|165:167|174:211|144:250|99:234|83:224|85:188|85:188|82:225|29:245|-10:212|-3:128|72:133|80:180|79:161|79:161|71:109|86:53|107:30|107:30|122:66|119:109|90:172,1,624
379,168,34696,6,0,B|339:169|330:213|360:252|405:236|421:226|419:190|419:190|422:227|475:247|514:214|507:130|432:135|424:182|425:163|425:163|433:111|418:55|397:32|397:32|382:68|385:111|414:174,1,624
202,271,34923,6,0,B|149:267|133:324|167:378|228:362|250:351|251:304|251:304|251:352|317:384|372:346|372:236|274:234|258:294|262:269|262:269|278:202|265:128|240:95|240:95|217:141|216:197|246:282,1,800
269,23,35832,2,0,P|335:27|397:60,1,134.399995898438
381,164,36059,2,0,P|398:237|395:245,1,60.0000022888184
125,166,36287,6,0,B|165:167|174:211|144:250|99:234|83:224|85:188|85:188|82:225|29:245|-10:212|-3:128|72:133|80:180|79:161|79:161|71:109|86:53|107:30|107:30|122:66|119:109|90:172,1,624
381,164,36514,6,0,B|341:165|332:209|362:248|407:232|423:222|421:186|421:186|424:223|477:243|516:210|509:126|434:131|426:178|427:159|427:159|435:107|420:51|399:28|399:28|384:64|387:107|416:170,1,624
125,166,36741,6,0,B|165:167|174:211|144:250|99:234|83:224|85:188|85:188|82:225|29:245|-10:212|-3:128|72:133|80:180|79:161|79:161|71:109|86:53|107:30|107:30|122:66|119:109|90:172,1,624
381,164,36968,6,0,B|341:165|332:209|362:248|407:232|423:222|421:186|421:186|424:223|477:243|516:210|509:126|434:131|426:178|427:159|427:159|435:107|420:51|399:28|399:28|384:64|387:107|416:170,1,624
125,166,37196,6,0,B|165:167|174:211|144:250|99:234|83:224|85:188|85:188|82:225|29:245|-10:212|-3:128|72:133|80:180|79:161|79:161|71:109|86:53|107:30|107:30|122:66|119:109|90:172,1,624
186,158,37650,6,0,B|105:126|7:187|36:325|106:340|201:334|199:242|199:242|138:242|138:242|198:243|198:243|199:276|186:291|186:291|174:304|174:304|215:326|254:312|254:312|295:162|295:162|346:314|346:314|330:275|330:275|266:280|266:280|330:274|330:274|346:313|346:313|410:311|410:311|481:160|481:160|440:241|440:241|380:163|380:163,1,1616
125,166,38105,6,0,B|165:167|174:211|144:250|99:234|83:224|85:188|85:188|82:225|29:245|-10:212|-3:128|72:133|80:180|79:161|79:161|71:109|86:53|107:30|107:30|122:66|119:109|90:172,1,624
381,164,38332,6,0,B|341:165|332:209|362:248|407:232|423:222|421:186|421:186|424:223|477:243|516:210|509:126|434:131|426:178|427:159|427:159|435:107|420:51|399:28|399:28|384:64|387:107|416:170,1,624
125,166,38559,6,0,B|165:167|174:211|144:250|99:234|83:224|85:188|85:188|82:225|29:245|-10:212|-3:128|72:133|80:180|79:161|79:161|71:109|86:53|107:30|107:30|122:66|119:109|90:172,1,624
381,164,38786,6,0,B|341:165|332:209|362:248|407:232|423:222|421:186|421:186|424:223|477:243|516:210|509:126|434:131|426:178|427:159|427:159|435:107|420:51|399:28|399:28|384:64|387:107|416:170,1,624
125,166,39014,6,0,B|165:167|174:211|144:250|99:234|83:224|85:188|85:188|82:225|29:245|-10:212|-3:128|72:133|80:180|79:161|79:161|71:109|86:53|107:30|107:30|122:66|119:109|90:172,1,624
381,164,39241,6,0,B|341:165|332:209|362:248|407:232|423:222|421:186|421:186|424:223|477:243|516:210|509:126|434:131|426:178|427:159|427:159|435:107|420:51|399:28|399:28|384:64|387:107|416:170,1,624
125,166,39468,6,0,B|165:167|174:211|144:250|99:234|83:224|85:188|85:188|82:225|29:245|-10:212|-3:128|72:133|80:180|79:161|79:161|71:109|86:53|107:30|107:30|122:66|119:109|90:172,1,624
381,164,39695,6,0,B|341:165|332:209|362:248|407:232|423:222|421:186|421:186|424:223|477:243|516:210|509:126|434:131|426:178|427:159|427:159|435:107|420:51|399:28|399:28|384:64|387:107|416:170,1,624
125,166,39923,6,0,B|165:167|174:211|144:250|99:234|83:224|85:188|85:188|82:225|29:245|-10:212|-3:128|72:133|80:180|79:161|79:161|71:109|86:53|107:30|107:30|122:66|119:109|90:172,1,624
186,158,40150,6,0,B|105:126|7:187|36:325|106:340|201:334|199:242|199:242|138:242|138:242|198:243|198:243|199:276|186:291|186:291|174:304|174:304|215:326|254:312|254:312|295:162|295:162|346:314|346:314|330:275|330:275|266:280|266:280|330:274|330:274|346:313|346:313|410:311|410:311|481:160|481:160|440:241|440:241|380:163|380:163,1,1616
315,325,40605,6,0,B|307:328|226:345|163:346|136:314|136:314|167:272|253:250|328:289|273:315|273:315|203:319|166:309|153:295|146:252|165:215|182:209|272:202|308:236|311:239|280:270|268:270|210:263|180:254|176:245|156:189|225:143|284:165|288:234|242:241|207:169|247:133,1,824
355,54,40832,6,0,B|401:71|395:151|349:161|328:95|375:53|456:72|458:131|457:141|432:160|381:187|369:192|329:174|331:170|353:125|439:100|457:99|488:127|497:169|490:187|459:210|392:231|392:231|331:227|388:163|476:153|520:181|520:181|506:221|447:242|365:255|357:256,1,824
153,255,41059,6,0,B|146:255|64:242|5:221|-8:181|-8:181|35:153|123:163|180:227|119:231|119:231|52:210|21:187|14:169|23:127|54:99|72:100|158:125|180:170|182:174|142:192|130:187|79:160|54:141|53:131|55:72|136:53|183:95|162:161|116:151|110:71|156:54,1,824
258,65,41287,1,0,0:0:0:0:
259,144,41400,1,0,0:0:0:0:
260,224,41514,1,0,0:0:0:0:
8,306,41741,6,0,B|120:142|120:142|60:229|60:229|0:149|0:149|115:301|115:301|197:300|197:300|294:158|294:159|294:159|249:226|249:226|193:160|193:160|249:229|249:229|196:301|196:301|371:306|371:306|369:147|369:147|372:307|372:307|441:245|478:168|478:168|481:318|481:318,1,2008
8,306,42196,6,0,B|120:142|120:142|60:229|60:229|0:149|0:149|115:301|115:301|197:300|197:300|294:158|294:159|294:159|249:226|249:226|193:160|193:160|249:229|249:229|196:301|196:301|371:306|371:306|369:147|369:147|372:307|372:307|441:245|478:168|478:168|481:318|481:318,1,2008
185,74,42650,6,0,B|185:45|159:34|92:89|90:130|131:170|169:168|195:161|213:120|194:88|194:88|242:172|242:172|309:179|314:151|332:158|369:149|400:85|391:35|391:35|387:72|382:107|358:123|348:123|316:107|294:59|297:38|297:38|294:74|308:96|333:118|349:121|392:113|384:102|385:114|377:207|349:240|338:249|309:256|288:236,1,800
125,166,43105,6,0,B|165:167|174:211|144:250|99:234|83:224|85:188|85:188|82:225|29:245|-10:212|-3:128|72:133|80:180|79:161|79:161|71:109|86:53|107:30|107:30|122:66|119:109|90:172,1,624
381,164,43332,6,0,B|341:165|332:209|362:248|407:232|423:222|421:186|421:186|424:223|477:243|516:210|509:126|434:131|426:178|427:159|427:159|435:107|420:51|399:28|399:28|384:64|387:107|416:170,1,624
8,306,43559,6,0,B|120:142|120:142|60:229|60:229|0:149|0:149|115:301|115:301|197:300|197:300|294:158|294:159|294:159|249:226|249:226|193:160|193:160|249:229|249:229|196:301|196:301|371:306|371:306|369:147|369:147|372:307|372:307|441:245|478:168|478:168|481:318|481:318,1,2008
8,306,44014,6,0,B|120:142|120:142|60:229|60:229|0:149|0:149|115:301|115:301|197:300|197:300|294:158|294:159|294:159|249:226|249:226|193:160|193:160|249:229|249:229|196:301|196:301|371:306|371:306|369:147|369:147|372:307|372:307|441:245|478:168|478:168|481:318|481:318,1,2008
185,74,44468,6,0,B|185:45|159:34|92:89|90:130|131:170|169:168|195:161|213:120|194:88|194:88|242:172|242:172|309:179|314:151|332:158|369:149|400:85|391:35|391:35|387:72|382:107|358:123|348:123|316:107|294:59|297:38|297:38|294:74|308:96|333:118|349:121|392:113|384:102|385:114|377:207|349:240|338:249|309:256|288:236,1,800
125,166,44923,6,0,B|165:167|174:211|144:250|99:234|83:224|85:188|85:188|82:225|29:245|-10:212|-3:128|72:133|80:180|79:161|79:161|71:109|86:53|107:30|107:30|122:66|119:109|90:172,1,624
381,164,45150,6,0,B|341:165|332:209|362:248|407:232|423:222|421:186|421:186|424:223|477:243|516:210|509:126|434:131|426:178|427:159|427:159|435:107|420:51|399:28|399:28|384:64|387:107|416:170,1,624
8,306,45378,6,0,B|120:142|120:142|60:229|60:229|0:149|0:149|115:301|115:301|197:300|197:300|294:158|294:159|294:159|249:226|249:226|193:160|193:160|249:229|249:229|196:301|196:301|371:306|371:306|369:147|369:147|372:307|372:307|441:245|478:168|478:168|481:318|481:318,1,2008
8,306,45833,6,0,B|120:142|120:142|60:229|60:229|0:149|0:149|115:301|115:301|197:300|197:300|294:158|294:159|294:159|249:226|249:226|193:160|193:160|249:229|249:229|196:301|196:301|371:306|371:306|369:147|369:147|372:307|372:307|441:245|478:168|478:168|481:318|481:318,1,2008
8,306,46287,5,0,0:0:0:0:
93,15,46514,6,0,B|95:145|95:145|93:14|93:14|204:7|204:7|209:142|209:142|271:145|271:145|304:0|304:0|351:136|352:145|352:144|352:144|344:115|344:115|289:120|289:120,1,952
293,257,46741,6,0,B|290:256|345:261|345:261|354:232|354:232|354:231|352:240|306:375|306:375|272:231|272:231|211:234|211:234|205:368|205:368|95:362|95:362|96:231|96:231|94:361,1,952
93,93,46968,6,0,B|92:92|92:92|181:72|181:72|95:92|95:92|102:194|102:194|101:152|101:152|117:148|192:125|194:182|167:212|102:196|102:196|179:210|179:210|244:212|244:212|260:185|261:184|261:184|308:121|308:121|279:157|279:157|257:101|257:101|279:157|279:157|244:213|244:213|301:222|301:222|305:259|305:259|335:252|353:228|354:226|354:226|352:157|352:157|368:200|402:205|425:168|425:168|400:240|451:265,1,1416
125,166,47423,6,0,B|165:167|174:211|144:250|99:234|83:224|85:188|85:188|82:225|29:245|-10:212|-3:128|72:133|80:180|79:161|79:161|71:109|86:53|107:30|107:30|122:66|119:109|90:172,1,624
381,164,47650,6,0,B|341:165|332:209|362:248|407:232|423:222|421:186|421:186|424:223|477:243|516:210|509:126|434:131|426:178|427:159|427:159|435:107|420:51|399:28|399:28|384:64|387:107|416:170,1,624
125,166,47877,6,0,B|165:167|174:211|144:250|99:234|83:224|85:188|85:188|82:225|29:245|-10:212|-3:128|72:133|80:180|79:161|79:161|71:109|86:53|107:30|107:30|122:66|119:109|90:172,1,624
202,271,48105,6,0,B|149:267|133:324|167:378|228:362|250:351|251:304|251:304|251:352|317:384|372:346|372:236|274:234|258:294|262:269|262:269|278:202|265:128|240:95|240:95|217:141|216:197|246:282,1,800
293,305,49014,5,0,0:0:0:0:
0,181,49468,6,0,B|1:86|1:86|67:81|67:81|71:182|71:182|115:178|115:178|136:79|136:79|186:168|186:168|173:151|173:151|134:158|134:158|174:151|174:151|188:167|188:167|212:163|212:163|196:77|196:77|214:164|214:164|254:159|254:158|255:158|255:158|243:74|243:75|242:76|242:76|256:159|256:159|301:152|301:152|290:70|290:70|301:150|301:150|341:152|341:152|362:153|394:145|393:88|363:71|363:71|305:108|344:154|344:154|425:176|425:176|442:93|442:93|476:168,1,1760
0,235,52195,6,0,B|-22:338|-22:338|-22:297|-22:297|37:292|37:292|38:237|38:237|41:336|41:336|74:335|74:335|75:336|75:336|113:259|113:259|144:344|144:344|135:315|129:317|91:317|91:317|134:317|134:316|144:344|144:344|208:344|208:344|260:253|260:253|226:304|226:304|192:260|192:260|264:344|264:344|312:344|312:344|367:255|367:255|335:296|335:296|316:254|316:254|335:299|335:299|312:344|312:344|416:344|416:344|421:261|421:261|416:344|416:344|513:279|513:279|513:387|513:387,1,1920
