osu file format v14

[General]
AudioFilename: Little Big - Give Me Your Money (feat .Tommy Cash).mp3
AudioLeadIn: 0
PreviewTime: 79526
Countdown: 0
SampleSet: Soft
StackLeniency: 0.7
Mode: 2
LetterboxInBreaks: 0
WidescreenStoryboard: 0

[Editor]
DistanceSpacing: 2
BeatDivisor: 16
GridSize: 8
TimelineZoom: 2.579999

[Metadata]
Title:Give Me Your Money (feat. Tommy Cash)
TitleUnicode:Give Me Your Money (feat. Tommy Cash)
Artist:Little Big
ArtistUnicode:Little Big
Creator:IMkoley
Version:Give Me Your Peppy Points
Source:
Tags:
BeatmapID:1413214
BeatmapSetID:667948

[Difficulty]
HPDrainRate:3
CircleSize:4.1
OverallDifficulty:9.4
ApproachRate:9.4
SliderMultiplier:2.00000000596046
SliderTickRate:1

[Events]
//Background and Video events
0,0,"All-Seeing-Eye-HD-Wallpaper.jpg",0,0
//Break Periods
//Storyboard Layer 0 (Background)
//Storyboard Layer 1 (Fail)
//Storyboard Layer 2 (Pass)
//Storyboard Layer 3 (Foreground)
//Storyboard Sound Samples

[TimingPoints]
0,355.029585798817,4,2,0,60,1,0
11360,-111.111111111111,4,2,0,60,0,0
34082,-100,4,2,0,60,0,0
69585,-100,4,2,0,60,0,0
79526,-100,4,2,0,60,0,0
102248,-133.333333333333,4,2,0,60,0,0
104201,88.7573964497041,4,2,0,60,1,0
105088,355.029585798817,4,2,0,60,1,0
105817.615549219,355.029585798817,4,2,0,60,1,0
119467,-133.333333333333,4,2,0,15,0,0
119644,-133.333333333333,4,2,0,60,0,0
124970,-200,4,2,0,60,0,0
127100,88.7573964497041,4,2,0,60,1,0
136330,355.029585798817,4,2,0,60,1,0
136331,-100,4,2,0,60,0,0
150532,-100,4,2,0,60,0,0
161538,-100,4,2,0,60,0,0
163313,-100,4,2,0,60,0,0
172899,-100,4,2,0,60,0,0
173254,-100,4,2,0,60,0,0
187455,-100,4,2,0,60,0,0

[Colours]
Combo1 : 232,208,86
Combo2 : 50,150,50
Combo3 : 65,163,198
Combo4 : 184,46,31

[HitObjects]
24,216,2485,5,0,0:0:0:0:
320,216,2840,5,0,0:0:0:0:
88,216,3195,1,0,0:0:0:0:
384,216,3550,1,0,0:0:0:0:
88,168,3905,1,0,0:0:0:0:
456,96,4304,2,0,L|464:64,1,25.0000000745058
336,96,4460,2,0,L|328:64,1,25.0000000745058
208,96,4615,2,0,L|208:64,1,25.0000000745058
96,128,4770,2,0,L|96:96,1,25.0000000745058
352,104,4970,2,0,B|472:88|472:88|392:72,1,200.000000596046
80,272,5680,1,0,0:0:0:0:
424,72,6035,1,0,0:0:0:0:
64,96,6390,1,0,0:0:0:0:
424,136,6745,1,0,0:0:0:0:
64,200,7100,2,0,L|288:160,1,225.000000670552
504,112,7699,2,0,L|416:112,2,87.5000002607701
416,176,8054,1,0,0:0:0:0:
328,176,8121,2,0,P|272:112|168:96,1,187.500000558793
0,267,8520,6,0,P|106:164|142:42,1,275.000000819563
356,139,9230,2,0,L|236:94,1,125.000000372529
496,207,9585,2,0,L|367:102,1,162.500000484287
128,136,9940,2,0,L|273:51,1,162.500000484287
468,312,10650,5,0,0:0:0:0:
216,300,10917,1,0,0:0:0:0:
436,224,11183,1,0,0:0:0:0:
136,184,11360,2,0,L|72:112,1,89.9999975216388
356,132,11715,2,0,L|449:139,1,89.9999975216388
40,288,12071,2,0,L|96:208,1,89.9999975216388
456,344,12426,2,0,L|392:280,1,89.9999975216388
0,240,12781,2,0,P|64:200|124:216,1,134.999996282458
344,268,13136,1,0,0:0:0:0:
108,276,13313,1,0,0:0:0:0:
344,152,13491,2,0,P|376:120|396:76,1,89.9999975216388
152,88,13846,1,0,0:0:0:0:
48,140,13934,1,0,0:0:0:0:
348,168,14023,1,0,0:0:0:0:
436,124,14112,1,0,0:0:0:0:
88,252,14201,6,0,P|44:256|-8:248,1,89.9999975216388
281,310,14556,2,0,L|191:311,1,89.9999975216388
512,272,14911,2,0,L|452:204,1,89.9999975216388
82,144,15266,2,0,L|2:104,1,89.9999975216388
268,169,15621,5,0,0:0:0:0:
16,208,15798,1,0,0:0:0:0:
273,274,15976,1,0,0:0:0:0:
512,234,16153,1,0,0:0:0:0:
273,335,16331,2,0,P|197:343|153:307,1,134.999996282458
480,149,16686,2,0,L|440:236,1,89.9999975216388
120,252,17041,6,0,L|181:171,1,89.9999975216388
508,80,17396,2,0,L|412:84,1,89.9999975216388
104,188,17751,2,0,L|156:107,1,89.9999975216388
472,192,18106,2,0,L|504:291,1,89.9999975216388
0,292,18461,2,0,P|88:264|180:308,1,179.999995043278
492,236,18994,1,0,0:0:0:0:
208,248,19171,2,0,P|172:252|112:252,1,89.9999975216388
424,160,19526,2,0,P|460:160|520:160,1,89.9999975216388
216,288,19881,6,0,P|148:228|204:188,1,179.999995043278
448,232,20414,1,0,0:0:0:0:
200,240,20591,2,0,L|88:244,1,89.9999975216388
404,132,20946,2,0,L|512:136,1,89.9999975216388
304,56,21301,2,0,B|240:104|240:104|304:104|304:104|312:152|312:152|384:104|384:104,1,269.999992564916
288,248,22011,2,0,B|220:192,1,78.7499978314339
68,252,22233,2,0,L|112:204,1,56.2499984510242
432,200,22411,2,0,B|493:185|510:139|510:139|488:81,1,157.499995662868
45,113,23076,5,0,0:0:0:0:
80,80,23121,1,0,0:0:0:0:
112,48,23165,1,0,0:0:0:0:
256,192,23254,12,0,23276,0:0:0:0:
345,184,23431,5,0,0:0:0:0:
3,229,23786,1,0,0:0:0:0:
344,244,24142,6,0,L|244:244,1,89.9999975216388
512,300,24497,1,0,0:0:0:0:
256,288,24674,1,0,0:0:0:0:
8,268,24852,2,0,L|84:204,1,89.9999975216388
464,212,25207,2,0,P|416:244|336:224,1,134.999996282458
155,245,25562,6,0,L|75:293,1,89.9999975216388
352,167,25917,2,0,L|408:87,1,89.9999975216388
97,224,26272,2,0,P|45:244|-3:236,1,101.249997211844
232,160,26627,2,0,P|252:216|252:252,1,89.9999975216388
0,151,26982,1,0,0:0:0:0:
256,128,27159,1,0,0:0:0:0:
0,72,27337,1,0,0:0:0:0:
256,72,27514,1,0,0:0:0:0:
0,324,27692,2,0,P|4:292|8:228,1,89.9999975216388
256,264,28047,2,0,P|250:295|250:363,1,89.9999975216388
504,320,28402,6,0,P|456:292|340:316,1,179.999995043278
80,328,28934,1,0,0:0:0:0:
372,248,29112,2,0,L|432:184,1,78.7499978314339
92,240,29467,2,0,L|15:293,1,89.9999975216388
512,252,29822,2,0,P|444:236|392:272,1,134.999996282458
216,320,30177,1,0,0:0:0:0:
20,316,30355,1,0,0:0:0:0:
496,152,30532,2,0,L|432:76,1,89.9999975216388
96,160,30887,2,0,L|32:200,1,67.4999981412291
136,256,31131,1,0,0:0:0:0:
400,280,31242,1,0,0:0:0:0:
400,104,31686,1,0,0:0:0:0:
160,120,31775,1,0,0:0:0:0:
400,24,31952,1,0,0:0:0:0:
48,112,32307,1,0,0:0:0:0:
432,128,32662,2,0,B|488:176|496:216|416:256,1,168.749995353073
304,264,33017,1,0,0:0:0:0:
7,237,33372,1,0,0:0:0:0:
292,64,34082,5,0,0:0:0:0:
112,192,34260,1,0,0:0:0:0:
512,176,34437,1,0,0:0:0:0:
416,248,34615,1,0,0:0:0:0:
192,176,34792,2,0,P|260:172|296:172,1,100.000000298023
16,72,35147,2,0,P|84:76|124:77,1,100.000000298023
424,224,35502,6,0,L|472:248,1,50.0000001490115
212,132,35680,2,0,L|160:136,1,50.0000001490115
412,248,35857,2,0,L|460:260,1,50.0000001490115
218,127,36035,2,0,L|164:120,1,50.0000001490115
512,152,36213,2,0,L|408:156,1,100.000000298023
0,240,36568,2,0,L|88:192,1,100.000000298023
328,156,36923,5,0,0:0:0:0:
88,152,37100,1,0,0:0:0:0:
328,88,37278,1,0,0:0:0:0:
88,80,37455,1,0,0:0:0:0:
328,40,37633,1,0,0:0:0:0:
88,32,37810,1,0,0:0:0:0:
432,180,37988,2,0,L|468:276,1,100.000000298023
204,272,38343,5,0,0:0:0:0:
464,344,38520,1,0,0:0:0:0:
224,184,38698,2,0,L|124:184,1,100.000000298023
376,204,39053,1,0,0:0:0:0:
116,252,39230,1,0,0:0:0:0:
368,272,39408,2,0,P|392:316|520:288,1,200.000000596046
376,312,39852,1,0,0:0:0:0:
236,356,39940,1,0,0:0:0:0:
368,240,40118,5,0,0:0:0:0:
0,192,40295,1,0,0:0:0:0:
256,176,40473,5,0,0:0:0:0:
452,180,40650,1,0,0:0:0:0:
208,272,40828,2,0,L|100:264,1,100.000000298023
432,200,41183,6,0,L|492:196,1,50.0000001490115
204,144,41360,1,0,0:0:0:0:
296,288,41538,1,0,0:0:0:0:
0,112,41715,1,0,0:0:0:0:
196,232,41893,1,0,0:0:0:0:
408,128,42071,1,0,0:0:0:0:
72,96,42248,2,0,B|152:144|152:144|216:136,1,150.000000447035
280,120,42559,1,0,0:0:0:0:
352,112,42603,2,0,B|352:24|352:24|256:48|256:48|288:112,1,250.000000745058
408,176,43069,1,0,0:0:0:0:
272,144,43313,2,0,B|184:200,1,100.000000298023
256,192,43557,12,0,43579,0:0:0:0:
512,156,43668,6,0,L|412:96,1,112.500000335276
64,88,44023,2,0,B|192:84|192:84|36:156|36:156|144:152,1,400.000001192092
76,280,45443,5,0,0:0:0:0:
12,140,45621,1,0,0:0:0:0:
452,276,45798,1,0,0:0:0:0:
504,132,45976,1,0,0:0:0:0:
68,228,46153,1,0,0:0:0:0:
168,104,46331,1,0,0:0:0:0:
256,192,46442,12,0,46464,0:0:0:0:
512,176,46508,6,0,P|456:200|392:160,1,137.500000409782
104,120,46863,6,0,L|28:200,1,100.000000298023
380,312,47218,2,0,P|388:272|427:227,1,100.000000298023
176,144,47573,1,0,0:0:0:0:
410,143,47751,1,0,0:0:0:0:
256,192,47862,12,0,47884,0:0:0:0:
174,73,47928,5,0,0:0:0:0:
16,160,48284,5,0,0:0:0:0:
256,256,48461,1,0,0:0:0:0:
16,224,48639,5,0,0:0:0:0:
256,208,48816,1,0,0:0:0:0:
512,181,48994,5,0,0:0:0:0:
256,144,49171,1,0,0:0:0:0:
256,192,49282,12,0,49304,0:0:0:0:
512,67,49349,5,0,0:0:0:0:
224,280,49704,6,0,L|220:340,1,50.0000001490115
40,272,49881,1,0,0:0:0:0:
296,304,50059,1,0,0:0:0:0:
296,208,50236,1,0,0:0:0:0:
388,160,50325,1,0,0:0:0:0:
184,168,50414,2,0,L|76:172,1,100.000000298023
256,192,50658,12,0,50702,0:0:0:0:
368,136,50769,6,0,L|455:324,1,200.000000596046
272,232,51301,5,0,0:0:0:0:
448,152,51479,1,0,0:0:0:0:
248,176,51656,1,0,0:0:0:0:
408,96,51834,2,0,L|347:-1,1,100.000000298023
256,192,52078,12,0,52122,0:0:0:0:
248,112,52100,5,0,0:0:0:0:
128,224,52189,6,0,L|66:319,1,100.000000298023
464,160,52544,6,0,L|468:104,1,50.0000001490115
304,200,52721,1,0,0:0:0:0:
104,200,52899,1,0,0:0:0:0:
296,144,53076,1,0,0:0:0:0:
416,224,53254,1,0,0:0:0:0:
112,304,53387,1,0,0:0:0:0:
256,192,53498,12,0,53520,0:0:0:0:
275,238,53609,6,0,B|352:208|352:208|272:208,1,162.500000484287
160,216,53964,2,0,P|84:176|164:132,1,212.500000633299
328,128,54474,1,0,0:0:0:0:
120,288,54696,1,0,0:0:0:0:
416,208,55029,2,0,B|336:172|336:172|260:148,1,162.500000484287
256,192,55340,12,0,55362,0:0:0:0:
8,144,55384,6,0,P|64:96|96:88,1,100.000000298023
496,104,55739,1,0,0:0:0:0:
256,192,56094,12,0,56116,0:0:0:0:
280,200,56649,5,0,0:0:0:0:
88,160,56804,6,0,L|15:242,1,100.000000298023
280,136,57159,2,0,L|210:60,1,100.000000298023
508,50,57514,2,0,L|428:124,1,100.000000298023
196,188,57869,2,0,B|158:230|158:230|192:264,1,100.000000298023
512,287,58224,2,0,P|468:255|392:272,1,137.500000409782
128,344,58579,1,0,0:0:0:0:
412,344,58757,1,0,0:0:0:0:
144,256,58934,2,0,P|88:268|40:256,1,100.000000298023
396,196,59289,2,0,P|447:186|503:194,1,100.000000298023
356,204,59511,1,0,0:0:0:0:
164,176,59600,1,0,0:0:0:0:
120,312,59644,6,0,P|80:212|128:204,1,187.500000558793
408,88,60177,1,0,0:0:0:0:
148,60,60355,2,0,L|44:64,1,100.000000298023
408,180,60710,2,0,L|516:176,1,100.000000298023
163,213,61065,1,0,0:0:0:0:
417,249,61242,1,0,0:0:0:0:
164,276,61420,1,0,0:0:0:0:
420,319,61597,1,0,0:0:0:0:
156,276,61775,2,0,P|104:280|48:280,1,100.000000298023
420,112,62130,2,0,P|472:109|528:109,1,100.000000298023
169,214,62485,6,0,P|99:190|172:131,1,200.000000596046
512,152,63017,1,0,0:0:0:0:
344,176,63195,2,0,L|236:180,1,100.000000298023
8,297,63550,2,0,L|80:216,1,100.000000298023
336,248,63905,2,0,L|256:180,1,100.000000298023
72,224,64260,1,0,0:0:0:0:
256,100,64437,1,0,0:0:0:0:
440,228,64615,1,0,0:0:0:0:
344,196,64704,1,0,0:0:0:0:
256,156,64792,1,0,0:0:0:0:
0,84,64970,2,0,L|84:152,1,100.000000298023
128,184,65192,1,0,0:0:0:0:
308,72,65281,1,0,0:0:0:0:
352,96,65325,6,0,P|421:145|369:225,1,200.000000596046
0,144,65857,1,0,0:0:0:0:
307,107,66035,2,0,L|364:188,1,100.000000298023
0,73,66390,2,0,P|52:77|112:77,1,100.000000298023
428,128,66745,1,0,0:0:0:0:
304,160,66878,2,0,L|252:176,1,50.0000001490115
107,201,67100,2,0,L|128:104,1,100.000000298023
432,376,67455,2,0,L|384:256,1,125.000000372529
0,248,67965,1,0,0:0:0:0:
384,224,68165,1,0,0:0:0:0:
256,192,68343,12,0,69408,0:0:0:0:
320,232,68520,5,0,0:0:0:0:
176,4,68875,1,0,0:0:0:0:
320,376,69230,1,0,0:0:0:0:
404,124,69585,6,0,L|511:118,1,100.000000298023
174,71,69940,1,0,0:0:0:0:
415,50,70118,1,0,0:0:0:0:
168,152,70295,2,0,L|105:234,1,100.000000298023
512,199,70650,2,0,L|422:142,1,100.000000298023
0,197,71005,6,0,P|48:201|104:192,1,100.000000298023
376,128,71360,2,0,P|415:124|479:132,1,100.000000298023
64,144,71715,2,0,P|44:96|19:42,1,112.500000335276
496,96,72071,2,0,P|460:136|408:152,1,100.000000298023
24,220,72426,1,0,0:0:0:0:
260,220,72603,1,0,0:0:0:0:
24,292,72781,1,0,0:0:0:0:
261,291,72958,1,0,0:0:0:0:
512,316,73136,2,0,L|408:320,1,100.000000298023
88,192,73491,2,0,L|192:194,1,100.000000298023
472,184,73846,1,0,0:0:0:0:
176,80,74201,1,0,0:0:0:0:
288,16,74378,1,0,0:0:0:0:
0,112,74556,2,0,L|104:121,1,100.000000298023
479,113,74911,2,0,L|368:120,1,100.000000298023
92,96,75266,2,0,P|60:144|92:236,1,150.000000447035
485,225,75621,1,0,0:0:0:0:
231,197,75798,1,0,0:0:0:0:
497,346,75976,2,0,L|504:236,1,100.000000298023
248,64,76331,2,0,L|192:160,1,100.000000298023
296,240,76619,1,0,0:0:0:0:
8,248,76686,6,0,P|68:216|192:262,1,200.000000596046
426,337,77218,1,0,0:0:0:0:
192,144,77396,2,0,L|113:51,1,100.000000298023
430,133,77751,2,0,P|445:218|381:234,1,162.500000484287
184,200,78106,2,0,B|80:200|80:200|184:200,1,200.000000596046
500,16,78816,2,0,P|428:68|328:36,1,200.000000596046
8,112,79526,5,0,0:0:0:0:
216,196,79704,1,0,0:0:0:0:
432,132,79881,1,0,0:0:0:0:
352,216,80059,1,0,0:0:0:0:
12,156,80236,1,0,0:0:0:0:
336,276,80414,1,0,0:0:0:0:
68,220,80591,2,0,L|0:295,1,100.000000298023
336,160,80946,5,0,0:0:0:0:
96,228,81124,2,0,L|148:232,1,50.0000001490115
349,266,81301,1,0,0:0:0:0:
405,252,81390,1,0,0:0:0:0:
450,227,81479,1,0,0:0:0:0:
463,173,81568,1,0,0:0:0:0:
0,296,81656,2,0,P|76:284|104:288,1,100.000000298023
512,28,82011,2,0,P|436:40|408:40,1,100.000000298023
176,104,82366,5,0,0:0:0:0:
416,160,82544,1,0,0:0:0:0:
176,172,82721,1,0,0:0:0:0:
416,96,82899,1,0,0:0:0:0:
176,240,83076,1,0,0:0:0:0:
416,228,83254,1,0,0:0:0:0:
176,296,83431,2,0,L|68:296,1,100.000000298023
184,108,83786,6,0,L|180:48,1,50.0000001490115
460,136,83964,2,0,L|468:192,1,50.0000001490115
140,188,84142,2,0,L|124:132,1,50.0000001490115
416,228,84319,2,0,L|430:282,1,50.0000001490115
156,96,84497,2,0,L|124:0,1,100.000000298023
456,124,84852,2,0,L|512:216,1,100.000000298023
256,316,85207,5,0,0:0:0:0:
0,300,85384,1,0,0:0:0:0:
256,200,85562,5,0,0:0:0:0:
501,279,85739,1,0,0:0:0:0:
256,200,85917,5,0,0:0:0:0:
5,206,86094,1,0,0:0:0:0:
408,216,86272,2,0,L|516:216,1,100.000000298023
256,304,86627,5,0,0:0:0:0:
0,160,86804,1,0,0:0:0:0:
256,236,86982,1,0,0:0:0:0:
508,240,87159,1,0,0:0:0:0:
256,168,87337,2,0,L|184:232,1,87.5000002607701
512,174,87692,1,0,0:0:0:0:
37,202,88047,5,0,0:0:0:0:
116,275,88579,1,0,0:0:0:0:
512,252,88757,1,0,0:0:0:0:
256,192,89090,12,0,89113,0:0:0:0:
120,192,89112,5,0,0:0:0:0:
504,80,89467,1,0,0:0:0:0:
0,384,90177,1,0,0:0:0:0:
164,44,90887,6,0,L|56:40,1,100.000000298023
408,120,91242,2,0,L|513:115,1,100.000000298023
96,152,91597,1,0,0:0:0:0:
400,184,91775,1,0,0:0:0:0:
256,192,91886,12,0,91908,0:0:0:0:
95,219,91952,5,0,0:0:0:0:
352,224,92307,5,0,0:0:0:0:
184,176,92485,1,0,0:0:0:0:
504,256,92662,1,0,0:0:0:0:
470,241,92751,1,0,0:0:0:0:
430,241,92840,1,0,0:0:0:0:
395,256,92928,1,0,0:0:0:0:
359,276,93017,1,0,0:0:0:0:
144,208,93195,1,0,0:0:0:0:
256,192,93261,12,0,93284,0:0:0:0:
353,171,93372,6,0,P|269:191|253:191,1,100.000000298023
0,208,93727,6,0,L|104:208,1,100.000000298023
338,115,94082,2,0,L|241:147,1,100.000000298023
512,289,94437,2,0,P|468:305|416:304,1,100.000000298023
256,192,94681,12,0,94704,0:0:0:0:
64,176,94792,6,0,L|120:268,1,100.000000298023
487,133,95147,2,0,L|480:80,1,50.0000001490115
352,136,95325,1,0,0:0:0:0:
220,156,95414,1,0,0:0:0:0:
0,201,95502,2,0,L|104:208,1,100.000000298023
288,208,95857,1,0,0:0:0:0:
512,208,96035,1,0,0:0:0:0:
256,192,96124,12,0,96146,0:0:0:0:
224,80,96213,5,0,0:0:0:0:
512,72,96390,1,0,0:0:0:0:
224,152,96568,6,0,L|116:156,1,100.000000298023
420,228,96923,2,0,L|524:230,1,100.000000298023
152,328,97278,2,0,L|44:329,1,100.000000298023
256,192,97522,12,0,97544,0:0:0:0:
318,347,97633,6,0,L|428:352,1,100.000000298023
152,224,97988,1,0,0:0:0:0:
420,233,98165,1,0,0:0:0:0:
152,296,98343,1,0,0:0:0:0:
418,304,98520,1,0,0:0:0:0:
152,344,98698,1,0,0:0:0:0:
48,272,98853,1,0,0:0:0:0:
256,192,98964,12,0,98986,0:0:0:0:
321,242,99053,6,0,P|370:242|419:232,1,100.000000298023
48,144,99408,5,0,0:0:0:0:
512,236,99940,1,0,0:0:0:0:
88,257,100118,1,0,0:0:0:0:
512,233,100473,1,0,0:0:0:0:
73,166,100828,1,0,0:0:0:0:
256,192,100894,12,0,101471,0:0:0:0:
224,232,101449,5,0,0:0:0:0:
272,224,101494,1,0,0:0:0:0:
332,231,101538,5,0,0:0:0:0:
208,208,102248,6,0,L|104:204,1,103.125004241243
498,210,102603,2,0,B|346:239|346:239|508:289,1,300.000012338161
325,263,103668,2,0,P|290:264|248:272,1,75.0000030845403
512,207,104023,1,0,0:0:0:0:
24,124,104201,2,0,B|151:97|632:128|20:128,1,600.000001788138
48,216,104561,2,0,B|180:217|88:16|88:16|408:32|408:32|280:152|280:152|512:200|512:200,1,987.500002942977
512,100,105088,2,0,B|444:72|440:124|368:92,1,137.500000409782
92,129,105620,5,0,0:0:0:0:
395,178,105817,2,0,P|416:219|494:264,1,137.500000409782
244,188,106128,1,0,0:0:0:0:
0,304,106505,6,0,P|32:280|136:308,1,150.000000447035
512,166,106860,1,0,0:0:0:0:
328,208,107060,2,0,P|305:226|193:198,1,150.000000447035
400,155,107415,2,0,L|500:166,1,100.000000298023
72,72,107925,6,0,B|1:142|1:142|76:220,1,200.000000596046
352,208,108458,2,0,B|445:140|445:140|312:112,1,250.000000745058
0,198,108990,2,0,P|48:238|132:216,1,150.000000447035
512,133,109700,6,0,L|432:136,1,75.0000002235173
0,218,110077,2,0,L|108:102,1,150.000000447035
280,112,110433,1,0,0:0:0:0:
472,180,110788,6,0,B|420:249|420:249|476:328,1,150.000000447035
304,288,111143,1,0,0:0:0:0:
144,240,111231,1,0,0:0:0:0:
8,204,111320,2,0,B|48:124|48:124|92:128,1,125.000000372529
477,103,111631,1,0,0:0:0:0:
105,140,112030,1,0,0:0:0:0:
288,248,112363,5,0,0:0:0:0:
330,204,112452,1,0,0:0:0:0:
112,224,112540,2,0,L|128:184,1,37.5000001117586
48,224,112740,2,0,L|-4:192,1,50.0000001490115
213,226,112896,1,0,0:0:0:0:
379,279,113051,2,0,L|352:168,1,112.500000335276
184,144,113384,1,0,0:0:0:0:
336,80,113606,5,0,0:0:0:0:
480,40,113739,1,0,0:0:0:0:
336,223,113961,2,0,P|380:220|424:216,1,87.5000002607701
96,112,114338,2,0,B|159:200|159:200|256:200,1,200.000000596046
112,240,114848,1,0,0:0:0:0:
456,192,115004,2,0,L|344:192,1,112.500000335276
82,83,115403,2,0,P|43:84|-5:84,1,87.5000002607701
347,105,115758,5,0,0:0:0:0:
40,176,116091,6,0,P|68:172|120:171,1,75.0000002235173
512,244,116446,2,0,P|484:248|436:248,1,75.0000002235173
8,248,116801,2,0,L|48:308,1,62.5000001862644
152,320,116956,1,0,0:0:0:0:
400,236,117156,2,0,B|508:208|508:208|416:172,1,200.000000596046
288,200,117666,1,0,0:0:0:0:
412,104,117822,2,0,P|463:124|472:232,1,175.00000052154
92,164,118221,2,0,P|46:161|10:161,1,75.0000002235173
512,160,118576,1,0,0:0:0:0:
56,240,118953,6,0,B|-16:192|-16:192|80:152,1,187.500000558793
216,112,119308,1,0,0:0:0:0:
460,164,119641,6,0,L|508:236,1,84.3750034701079
216,116,119996,2,0,L|252:36,1,75.0000030845403
4,148,120351,1,0,0:0:0:0:
240,180,120529,1,0,0:0:0:0:
388,112,120706,2,0,P|313:104|238:104,1,150.000006169081
473,124,121239,2,0,L|440:112,1,28.1250011567026
304,88,121350,1,0,0:0:0:0:
0,215,121771,6,0,P|52:215|80:208,1,75.0000030845403
456,216,122104,1,0,0:0:0:0:
512,183,122126,2,0,P|460:183|432:184,1,75.0000030845403
138,163,122481,1,0,0:0:0:0:
348,139,122659,1,0,0:0:0:0:
112,264,122836,2,0,L|52:313,1,75.0000030845403
432,200,123191,1,0,0:0:0:0:
8,152,123369,6,0,P|52:172|128:168,1,121.875005012378
264,144,123746,1,0,0:0:0:0:
400,112,123835,1,0,0:0:0:0:
512,74,123924,1,0,0:0:0:0:
328,192,124012,1,0,0:0:0:0:
128,248,124101,2,0,L|172:312,1,75.0000030845403
408,280,124456,5,0,0:0:0:0:
154,309,124634,1,0,0:0:0:0:
416,208,124967,1,0,0:0:0:0:
80,208,125322,1,0,0:0:0:0:
423,106,127100,2,4,B|285:96|396:271|396:271|252:109|118:270|118:270|222:97|76:106,2,800.000002384184
0,270,127987,2,0,L|352:72,1,400.000001192092
424,184,128342,2,0,L|20:184,5,400.000001192092
24,144,129318,6,0,B|192:128|192:128|248:144|248:144|472:116,3,450.000001341104
256,204,130323,1,0,0:0:0:0:
496,264,130650,2,0,B|80:224|80:224|464:216|464:216,1,800.000002384184
112,192,131360,2,0,L|113:83,5,100.000000298023
16,176,131626,2,0,B|-8:129|-8:129|24:48|24:48|124:-8|124:-8|280:96|280:96|304:192|280:264,1,600.000001788138
128,176,132070,2,0,P|248:112|496:176,2,400.000001192092
244,168,132580,1,0,0:0:0:0:
456,196,132736,2,0,B|8:200|8:200|80:256|432:344,1,887.500002644954
176,64,133490,6,0,B|480:92|480:92|424:264|424:264|104:264,1,800.000002384184
288,160,134200,1,0,0:0:0:0:
424,344,134555,2,0,B|150:22|150:22|560:32|560:32|303:87|144:80|144:80|64:176|86:274|86:274|128:368|16:352,1,1600.00000476837
480,304,135620,1,0,0:0:0:0:
224,264,135886,2,0,B|144:264|144:264|256:88|256:88|360:264|360:264|224:264,1,600.000001788138
96,160,136331,5,0,0:0:0:0:
512,151,136686,1,0,0:0:0:0:
257,264,137041,1,0,0:0:0:0:
0,248,137396,1,0,0:0:0:0:
256,61,137751,5,0,0:0:0:0:
258,229,138105,1,0,0:0:0:0:
512,233,138282,1,0,0:0:0:0:
276,319,138461,1,0,0:0:0:0:
0,191,138816,1,0,0:0:0:0:
273,108,139171,5,0,0:0:0:0:
512,291,139526,1,0,0:0:0:0:
0,284,139881,1,0,0:0:0:0:
256,248,140236,1,0,0:0:0:0:
496,104,140590,5,0,0:0:0:0:
327,214,140723,1,0,0:0:0:0:
4,210,140946,1,0,0:0:0:0:
158,96,141078,1,0,0:0:0:0:
488,200,141301,1,0,0:0:0:0:
64,320,141656,1,0,0:0:0:0:
64,288,142010,5,0,0:0:0:0:
416,296,142187,1,0,0:0:0:0:
88,232,142365,1,0,0:0:0:0:
344,216,142543,1,0,0:0:0:0:
144,200,142720,1,0,0:0:0:0:
416,232,142898,1,0,0:0:0:0:
152,160,143075,1,0,0:0:0:0:
392,160,143253,1,0,0:0:0:0:
152,112,143430,2,0,L|272:112,1,112.500000335276
104,224,143786,5,0,0:0:0:0:
360,224,143963,1,0,0:0:0:0:
104,288,144140,1,0,0:0:0:0:
360,288,144318,1,0,0:0:0:0:
144,352,144495,1,0,0:0:0:0:
320,352,144673,1,0,0:0:0:0:
332,126,144850,5,0,0:0:0:0:
346,102,144938,1,0,0:0:0:0:
368,88,145027,1,0,0:0:0:0:
399,85,145116,1,0,0:0:0:0:
80,160,145205,1,0,0:0:0:0:
51,157,145294,1,0,0:0:0:0:
27,143,145384,1,0,0:0:0:0:
9,121,145473,1,0,0:0:0:0:
504,175,145560,5,0,0:0:0:0:
506,203,145649,1,0,0:0:0:0:
499,230,145739,1,0,0:0:0:0:
481,252,145827,1,0,0:0:0:0:
454,260,145915,1,0,0:0:0:0:
304,256,146004,1,0,0:0:0:0:
280,240,146094,1,0,0:0:0:0:
263,217,146183,1,0,0:0:0:0:
392,124,146270,5,0,0:0:0:0:
440,112,146359,1,0,0:0:0:0:
460,68,146448,1,0,0:0:0:0:
64,164,146537,1,0,0:0:0:0:
32,144,146625,1,0,0:0:0:0:
16,108,146714,1,0,0:0:0:0:
392,180,146803,1,0,0:0:0:0:
256,192,147690,12,0,150353,0:0:0:0:
160,128,150532,6,0,L|56:124,1,100.000000298023
412,232,150886,2,0,L|520:232,1,100.000000298023
264,192,151174,1,0,0:0:0:0:
164,192,151242,2,0,P|88:224|87:273,1,137.500000409782
408,304,151596,2,0,L|308:305,1,100.000000298023
40,233,151952,2,0,L|148:232,1,100.000000298023
448,136,152307,1,0,0:0:0:0:
208,168,152483,1,0,0:0:0:0:
448,192,152661,6,0,L|474:295,1,100.000000298023
144,160,153017,1,0,0:0:0:0:
106,193,153105,1,0,0:0:0:0:
69,226,153194,1,0,0:0:0:0:
48,256,153282,1,0,0:0:0:0:
376,264,153371,6,0,P|416:184|520:196,1,200.000000596046
0,128,153903,1,0,0:0:0:0:
264,244,154082,2,0,L|360:296,1,100.000000298023
80,120,154437,2,0,L|8:48,1,100.000000298023
416,188,154792,1,0,0:0:0:0:
176,240,154970,1,0,0:0:0:0:
416,116,155147,1,0,0:0:0:0:
176,136,155325,1,0,0:0:0:0:
416,256,155502,2,0,P|484:264|512:288,1,100.000000298023
220,40,155857,2,0,P|284:32|324:36,1,100.000000298023
104,296,156211,6,0,B|0:296|0:296|104:296,1,200.000000596046
280,272,156744,1,0,0:0:0:0:
512,248,156921,2,0,P|452:256|408:252,1,100.000000298023
68,120,157276,2,0,B|40:120|176:116,1,100.000000298023
416,192,157631,2,0,P|439:198|519:198,1,100.000000298023
246,178,157986,1,0,0:0:0:0:
0,159,158164,1,0,0:0:0:0:
416,108,158341,6,0,L|504:56,1,100.000000298023
303,81,158696,1,0,0:0:0:0:
253,91,158741,1,0,0:0:0:0:
209,114,158785,1,0,0:0:0:0:
176,153,158830,1,0,0:0:0:0:
110,227,158918,1,0,0:0:0:0:
58,282,158985,1,0,0:0:0:0:
512,344,159051,6,0,P|452:300|344:332,1,187.500000558793
136,272,159585,1,0,0:0:0:0:
388,224,159761,1,0,0:0:0:0:
72,192,160116,1,0,0:0:0:0:
448,256,160473,2,0,B|368:192|368:192|333:142,1,162.500000484287
176,144,160827,1,0,0:0:0:0:
368,48,161182,1,0,0:0:0:0:
80,56,161403,1,0,0:0:0:0:
256,192,161625,12,0,163134,0:0:0:0:
416,192,163313,6,0,L|523:189,1,100.000000298023
203,163,163668,1,0,0:0:0:0:
400,160,163844,1,0,0:0:0:0:
203,231,164023,2,0,L|127:306,1,100.000000298023
512,184,164378,2,0,P|473:144|384:128,1,150.000000447035
128,208,164732,6,0,P|172:252|296:228,1,200.000000596046
160,304,165264,1,0,0:0:0:0:
392,248,165443,2,0,P|408:292|447:329,1,100.000000298023
152,220,165798,2,0,B|141:159|86:126,1,100.000000298023
392,196,166152,1,0,0:0:0:0:
152,296,166331,1,0,0:0:0:0:
392,292,166508,1,0,0:0:0:0:
136,256,166685,1,0,0:0:0:0:
280,120,166863,6,0,L|180:123,1,100.000000298023
440,160,167217,2,0,L|508:242,1,100.000000298023
176,300,167572,6,0,P|256:272|364:312,1,200.000000596046
0,360,168106,1,0,0:0:0:0:
408,188,168282,2,0,L|476:104,1,100.000000298023
80,232,168637,2,0,L|4:304,1,100.000000298023
356,164,168992,2,0,P|412:148|484:188,1,137.500000409782
0,224,169347,1,0,0:0:0:0:
262,87,169525,1,0,0:0:0:0:
508,236,169702,6,0,L|488:341,1,100.000000298023
32,132,170057,2,0,B|25:181|25:181|54:233,1,100.000000298023
110,262,170279,1,0,0:0:0:0:
323,185,170368,1,0,0:0:0:0:
345,122,170412,6,0,P|409:70|521:122,1,212.500000633299
232,192,170946,1,0,0:0:0:0:
99,155,171122,2,0,P|49:153|0:162,1,100.000000298023
208,152,171477,2,0,L|308:152,1,100.000000298023
488,136,171832,2,0,B|516:164|384:160|384:160|312:232|312:232|392:232,1,300.000000894069
96,224,172543,1,0,0:0:0:0:
384,216,172720,2,0,B|283:215|283:215|384:216,1,200.000000596046
96,168,173254,5,0,0:0:0:0:
360,160,173431,1,0,0:0:0:0:
192,80,173609,1,0,0:0:0:0:
16,60,173786,1,0,0:0:0:0:
407,142,173964,2,0,P|448:153|499:194,1,100.000000298023
59,211,174318,2,0,P|43:159|56:108,1,100.000000298023
368,24,174673,2,0,P|296:64|196:24,1,187.500000558793
512,109,175205,5,0,0:0:0:0:
252,96,175383,2,0,L|256:205,1,100.000000298023
256,192,175627,12,0,175671,0:0:0:0:
0,131,175739,6,0,L|72:56,1,100.000000298023
512,184,176094,2,0,P|460:232|336:208,1,200.000000596046
0,144,176625,1,0,0:0:0:0:
256,151,176803,1,0,0:0:0:0:
512,203,176980,1,0,0:0:0:0:
136,208,177158,5,0,0:0:0:0:
256,244,177335,1,0,0:0:0:0:
444,232,177513,1,0,0:0:0:0:
160,208,177690,1,0,0:0:0:0:
444,176,177868,1,0,0:0:0:0:
255,268,178045,1,0,0:0:0:0:
0,122,178224,6,0,L|68:42,1,100.000000298023
408,168,178579,2,0,L|488:244,1,100.000000298023
240,260,178934,2,0,L|328:192,1,100.000000298023
144,168,179288,2,0,L|216:96,1,100.000000298023
92,272,179644,2,0,L|-4:228,1,100.000000298023
268,192,179998,2,0,L|264:88,1,100.000000298023
512,120,180353,6,0,L|444:192,1,100.000000298023
184,80,180708,1,0,0:0:0:0:
432,92,180886,1,0,0:0:0:0:
172,152,181063,2,0,P|112:152|68:156,1,100.000000298023
248,152,181352,1,0,0:0:0:0:
424,168,181418,2,0,P|488:168|532:164,1,100.000000298023
122,115,181773,2,0,B|70:129|50:170|50:170|57:212|120:236,1,187.500000558793
484,100,182307,5,0,0:0:0:0:
168,88,182483,2,0,L|48:76,1,100.000000298023
392,204,182838,2,0,L|492:192,1,100.000000298023
192,288,183193,2,0,B|120:264|120:264|4:200,1,200.000000596046
424,80,183903,2,0,B|328:136|328:136|408:176|408:176|480:256,1,300.000000894069
0,312,184615,1,0,0:0:0:0:
248,328,184970,1,0,0:0:0:0:
464,268,185324,5,0,0:0:0:0:
472,260,185412,1,0,0:0:0:0:
168,240,185590,1,0,0:0:0:0:
160,248,185679,1,0,0:0:0:0:
452,112,185856,1,0,0:0:0:0:
460,104,185945,1,0,0:0:0:0:
304,160,186034,6,0,P|210:118|168:184,1,187.500000558793
416,136,186566,1,0,0:0:0:0:
176,32,186744,1,0,0:0:0:0:
416,48,186921,1,0,0:0:0:0:
176,108,187099,2,0,L|68:105,1,100.000000298023
416,192,187454,6,0,L|523:189,1,100.000000298023
116,144,187809,1,0,0:0:0:0:
408,80,187987,1,0,0:0:0:0:
120,240,188164,2,0,L|44:315,1,100.000000298023
408,148,188519,2,0,L|489:205,1,100.000000298023
408,148,188874,1,0,0:0:0:0:
168,144,189051,1,0,0:0:0:0:
408,52,189229,5,0,0:0:0:0:
168,56,189406,1,0,0:0:0:0:
408,240,189584,2,0,P|424:284|463:321,1,100.000000298023
136,216,189939,2,0,B|125:155|70:122,1,100.000000298023
256,192,190294,12,0,190472,0:0:0:0:
124,60,190649,6,0,L|204:136,1,100.000000298023
504,145,190982,2,0,B|507:97|507:97|464:68,1,100.000000298023
149,133,191315,6,0,B|122:166|122:166|82:210,1,100.000000298023
454,135,191670,2,0,B|341:136|341:136|460:133,1,225.000000670552
110,229,192224,1,0,0:0:0:0:
73,178,192291,1,0,0:0:0:0:
446,254,192402,1,0,0:0:0:0:
467,201,192469,1,0,0:0:0:0:
101,317,192602,1,0,0:0:0:0:
209,291,192735,5,0,0:0:0:0:
384,232,192824,1,0,0:0:0:0:
212,234,192912,1,0,0:0:0:0:
128,200,193001,1,0,0:0:0:0:
200,184,193090,1,0,0:0:0:0:
272,184,193179,2,0,B|296:72,1,112.500000335276
63,155,193445,5,0,0:0:0:0:
38,95,193511,1,0,0:0:0:0:
232,119,193578,1,0,0:0:0:0:
289,106,193644,1,0,0:0:0:0:
506,148,193800,5,0,0:0:0:0:
102,263,194199,2,0,B|44:210|44:210|99:136,1,162.500000484287
512,220,194554,1,0,0:0:0:0:
20,148,195264,2,0,B|16:144|16:144|16:148|16:148|16:148|16:148|20:148|16:144|16:144|16:144|20:148|16:144|16:144|20:144|16:144,3,25.0000000745058
