osu file format v14

[General]
AudioFilename: audio.mp3
AudioLeadIn: 0
PreviewTime: 80033
Countdown: 0
SampleSet: Soft
StackLeniency: 0.4
Mode: 0
LetterboxInBreaks: 0
WidescreenStoryboard: 0

[Editor]
DistanceSpacing: 1
BeatDivisor: 2
GridSize: 4
TimelineZoom: 1.8

[Metadata]
Title:Jaakuningatar (Cut Ver.)
TitleUnicode:Jääkuningatar (Cut Ver.)
Artist:Litku Klemetti
ArtistUnicode:Litku Klemetti
Creator:dsco
Version:Normal
Source:
Tags:ice queen finnish rock pop indie luova records juna kainuuseen finland
BeatmapID:2928430
BeatmapSetID:1421834

[Difficulty]
HPDrainRate:4
CircleSize:3
OverallDifficulty:4
ApproachRate:5
SliderMultiplier:1.09999990463257
SliderTickRate:1

[Events]
//Background and Video events
0,0,"atey-ghailan-demo-autumn-forest.jpg",0,0
//Break Periods
//Storyboard Layer 0 (Background)
//Storyboard Layer 1 (Fail)
//Storyboard Layer 2 (Pass)
//Storyboard Layer 3 (Foreground)
//Storyboard Layer 4 (Overlay)
//Storyboard Sound Samples

[TimingPoints]
41.8641801548204,408.163265306122,4,2,0,60,1,0
1674,410.958904109589,4,2,0,60,1,0
3317,405.405405405405,4,2,0,60,1,0
4938,408.163265306122,4,2,0,60,1,0
7795,400,4,2,0,60,1,0
8195,408.163265306122,4,2,0,60,1,0
9011,410.958904109589,4,2,0,60,1,0
9832,410.958904109589,4,2,0,60,1,0
11475,408.163265306122,4,2,0,60,1,0
14740,413.793103448276,4,2,0,60,1,0
15567,408.163265306122,4,2,0,60,1,0
16383,408.163265306122,4,2,0,60,1,0
21280,405.405405405405,4,2,0,60,1,0
22090,410.958904109589,4,2,0,60,1,0
22911,408.163265306122,4,2,0,60,1,0
26176,405.405405405405,4,2,0,60,1,0
27797,413.793103448276,4,2,0,60,1,0
29452,408.163265306122,4,2,0,60,1,0
31084,405.405405405405,4,2,0,60,1,0
34327,409.556313993174,4,2,0,60,1,0
37603,408.163265306122,4,2,0,60,1,0
40868,409.556313993174,4,2,0,60,1,0
43325,397.350993377483,4,2,0,60,1,0
43921,408.163265306122,4,2,0,60,1,0
44125,408.163265306122,4,2,0,60,1,0
46573,413.793103448276,4,2,0,60,1,0
47400,408.163265306122,4,2,0,60,1,0
51481,402.684563758389,4,2,0,60,1,0
52085,408.163265306122,4,2,0,60,1,0
52289,408.163265306122,4,2,0,60,1,0
53921,422.535211267606,4,2,0,60,1,0
54766,408.163265306122,4,2,0,60,1,0
55582,405.405405405405,4,2,0,60,1,0
57203,408.163265306122,4,2,0,60,1,0
58835,413.793103448276,4,2,0,60,1,0
60076,394.736842105263,4,2,0,60,1,0
60470,410.958904109589,4,2,0,60,1,0
62113,419.58041958042,4,2,0,60,1,0
62532,394.736842105263,4,2,0,60,1,0
63124,408.163265306122,4,2,0,60,1,0
63736,413.793103448276,4,2,0,60,1,0
64149,397.350993377483,4,2,0,60,1,0
64546,422.535211267606,4,2,0,60,1,0
64968,394.736842105263,4,2,0,60,1,0
65362,410.958904109589,4,2,0,60,1,0
66183,400,4,2,0,60,1,0
66983,422.535211267606,4,2,0,60,1,0
67828,394.736842105263,4,2,0,60,1,0
68420,408.163265306122,4,2,0,60,1,0
68624,408.163265306122,4,2,0,60,1,0
72297,400,4,2,0,60,1,0
72697,416.666666666667,4,2,0,60,1,0
73530,406.779661016949,4,2,0,60,1,0
78207,419.58041958042,4,2,0,60,1,0
78416,419.58041958042,4,2,0,60,1,0
78835,402.684563758389,4,2,0,60,1,0
80043,425.531914893617,4,2,0,60,1,0
80468,408.163265306122,4,2,0,60,1,0
81692,404.040404040404,4,2,0,60,1,0
84116,408.163265306122,4,2,0,60,1,0
84932,408.163265306122,4,2,0,60,1,0
85748,434.782608695652,4,2,0,60,1,0
86182,408.163265306122,4,2,0,60,1,0
86590,408.163265306122,4,2,0,75,1,1
86590,-90.9090909090909,4,2,0,60,0,1
89038,405.405405405405,4,2,0,75,1,1
89038,-90.9090909090909,4,2,0,60,0,1
89848,405.405405405405,4,2,0,75,1,1
89848,-90.9090909090909,4,2,0,60,0,1
92280,428.571428571429,4,2,0,75,1,1
92280,-90.9090909090909,4,2,0,60,0,1
92708,461.538461538462,4,2,0,75,1,1
93169,461.538461538462,4,2,0,75,1,0
93399,-100,4,2,0,10,0,0

[Colours]
Combo1 : 83,215,106
Combo2 : 219,109,98

[HitObjects]
333,223,1674,6,0,L|452:217,2,109.999990463257,4|8|0,0:0|0:0|0:0,0:0:0:0:
287,323,2906,1,8,0:0:0:0:
185,277,3317,2,0,P|143:288|26:240,1,164.999985694885,2|0,0:0|0:0,0:0:0:0:
25,82,4533,2,0,L|92:74,1,54.9999952316285,8|0,0:0|0:0,0:0:0:0:
126,104,4938,6,0,P|167:69|286:71,1,164.999985694885,2|0,0:0|0:0,0:0:0:0:
416,145,6162,1,8,0:0:0:0:
338,222,6570,1,2,0:0:0:0:
338,222,6774,1,2,0:0:0:0:
249,287,7182,2,0,L|84:264,1,164.999985694885,2|8,0:0|0:0,0:0:0:0:
36,166,8195,5,2,0:0:0:0:
10,59,8603,2,0,P|64:60|112:87,1,109.999990463257,8|0,0:0|0:0,0:0:0:0:
197,18,9421,1,8,0:0:0:0:
210,133,9832,2,0,P|273:99|370:117,1,164.999985694885,2|0,0:0|0:0,0:0:0:0:
488,219,11064,2,0,L|491:286,1,54.9999952316285,8|0,0:0|0:0,0:0:0:0:
454,316,11475,6,0,L|269:305,1,164.999985694885,2|0,0:0|0:0,0:0:0:0:
127,337,12699,1,8,0:0:0:0:
82,242,13107,1,2,0:0:0:0:
82,242,13311,1,2,0:0:0:0:
168,171,13719,2,0,P|207:110|227:15,1,164.999985694885,2|8,0:0|0:0,0:0:0:0:
331,47,14740,5,4,0:0:0:0:
429,95,15153,2,0,L|440:211,1,109.999990463257,8|0,0:0|0:0,0:0:0:0:
502,295,15975,1,8,0:0:0:0:
396,331,16383,2,0,P|304:362|226:330,2,164.999985694885,2|0|8,0:0|0:0|0:0,0:0:0:0:
423,224,18015,6,0,L|429:99,1,109.999990463257,2|8,0:0|0:0,0:0:0:0:
431,59,18627,1,0,0:0:0:0:
213,91,19444,2,0,L|139:84,2,54.9999952316285,0|2|0,0:0|0:0|0:0,0:0:0:0:
279,178,20260,2,0,L|288:298,1,109.999990463257,2|0,0:0|0:0,0:0:0:0:
294,342,20872,1,8,0:0:0:0:
183,330,21280,6,0,L|65:322,1,109.999990463257,2|8,0:0|0:0,0:0:0:0:
82,213,22090,2,0,L|191:220,1,109.999990463257,2|8,0:0|0:0,0:0:0:0:
298,194,22911,2,0,B|267:104|317:118|287:27,2,164.999985694885,2|0|8,0:0|0:0|0:0,0:0:0:0:
394,247,24543,6,0,L|504:239,2,109.999990463257,2|8|0,0:0|0:0|0:0,0:0:0:0:
320,328,25768,1,8,0:0:0:0:
217,286,26176,2,0,P|158:287|102:299,1,109.999990463257,2|8,0:0|0:0,0:0:0:0:
58,320,26784,1,2,0:0:0:0:
134,61,27797,5,4,0:0:0:0:
228,117,28210,2,0,L|341:110,2,109.999990463257,8|0|8,0:0|0:0|0:0,0:0:0:0:
147,194,29452,2,0,L|138:311,1,109.999990463257,2|8,0:0|0:0,0:0:0:0:
131,358,30064,1,2,0:0:0:0:
293,328,30676,2,0,L|300:260,1,54.9999952316285,8|0,0:0|0:0,0:0:0:0:
346,245,31084,6,0,L|479:236,2,109.999990463257,2|8|0,0:0|0:0|0:0,0:0:0:0:
274,168,32300,1,8,0:0:0:0:
274,168,32502,2,0,L|157:148,1,109.999990463257,2|0,0:0|0:0,0:0:0:0:
75,212,33313,1,2,0:0:0:0:
313,342,34327,5,2,0:0:0:0:
404,281,34736,2,0,L|413:165,1,109.999990463257,8|0,0:0|0:0,0:0:0:0:
496,100,35555,1,8,0:0:0:0:
394,57,35965,2,0,L|278:66,1,109.999990463257,2|8,0:0|0:0,0:0:0:0:
245,104,36579,2,0,L|76:95,1,164.999985694885,2|8,0:0|0:0,0:0:0:0:
21,188,37603,5,2,0:0:0:0:
76,283,38011,2,0,L|67:358,2,54.9999952316285,8|0|0,0:0|0:0|0:0,0:0:0:0:
150,202,38827,1,8,0:0:0:0:
217,296,39235,1,2,0:0:0:0:
217,296,39439,1,8,0:0:0:0:
302,226,39847,2,0,L|421:216,1,109.999990463257,2|0,0:0|0:0,0:0:0:0:
466,209,40460,1,8,0:0:0:0:
463,99,40868,6,0,P|392:51|302:63,1,164.999985694885,4|0,0:0|0:0,0:0:0:0:
267,82,41687,2,0,L|157:92,1,109.999990463257,4|8,0:0|0:0,0:0:0:0:
102,99,42301,1,4,0:0:0:0:
54,198,42711,2,0,L|-5:195,2,54.9999952316285,2|8|0,0:0|0:0|0:0,0:0:0:0:
101,226,43325,2,0,L|114:343,1,109.999990463257,2|8,0:0|0:0,0:0:0:0:
156,368,43921,1,2,0:0:0:0:
252,314,44329,6,0,L|246:254,2,54.9999952316285,2|8|0,0:0|0:0|0:0,0:0:0:0:
296,345,44941,2,0,P|346:329|426:338,1,109.999990463257,2|8,0:0|0:0,0:0:0:0:
450,302,45553,1,2,0:0:0:0:
487,141,46165,1,2,0:0:0:0:
427,48,46573,2,0,L|297:61,1,109.999990463257,8|8,0:0|0:0,0:0:0:0:
243,140,47400,6,0,P|275:192|277:308,1,164.999985694885,4|0,0:0|0:0,0:0:0:0:
232,318,48216,2,0,L|102:305,1,109.999990463257,4|8,0:0|0:0,0:0:0:0:
67,301,48828,1,4,0:0:0:0:
54,191,49236,2,0,L|-3:184,2,54.9999952316285,2|8|0,0:0|0:0|0:0,0:0:0:0:
102,165,49848,2,0,L|116:50,1,109.999990463257,2|8,0:0|0:0,0:0:0:0:
164,30,50461,1,2,0:0:0:0:
270,56,50869,6,0,P|299:45|337:37,2,54.9999952316285,2|8|0,0:0|0:0|0:0,0:0:0:0:
258,109,51481,2,0,L|272:224,1,109.999990463257,2|8,0:0|0:0,0:0:0:0:
317,248,52085,1,2,0:0:0:0:
236,323,52493,1,2,0:0:0:0:
236,323,52697,2,0,L|102:308,1,109.999990463257,8|8,0:0|0:0,0:0:0:0:
55,226,53513,2,0,L|49:152,1,54.9999952316285,8|8,0:0|0:0,0:0:0:0:
9,135,53921,5,4,0:0:0:0:
102,76,54343,2,0,L|168:81,1,54.9999952316285,8|0,0:0|0:0,0:0:0:0:
198,43,54766,2,0,L|264:48,1,54.9999952316285,2|0,0:0|0:0,0:0:0:0:
302,22,55174,1,8,0:0:0:0:
376,102,55582,2,0,L|363:290,1,164.999985694885,2|0,0:0|0:0,0:0:0:0:
223,352,56798,2,0,L|166:341,1,54.9999952316285,8|0,0:0|0:0,0:0:0:0:
115,356,57203,6,0,L|96:168,1,164.999985694885,2|0,0:0|0:0,0:0:0:0:
188,53,58427,1,8,0:0:0:0:
289,108,58835,1,2,0:0:0:0:
289,108,59041,1,2,0:0:0:0:
356,194,59455,2,0,L|340:316,1,109.999990463257,2|0,0:0|0:0,0:0:0:0:
358,355,60076,1,8,0:0:0:0:
461,315,60470,5,2,0:0:0:0:
507,215,60880,2,0,L|500:151,1,54.9999952316285,8|0,0:0|0:0,0:0:0:0:
453,132,61291,2,0,L|446:68,1,54.9999952316285,2|0,0:0|0:0,0:0:0:0:
404,41,61702,1,8,0:0:0:0:
333,112,62113,2,0,B|243:81|257:131|166:101,1,162,2|0,0:0|0:0,0:0:0:0:
24,190,63328,2,0,L|31:260,1,54.9999952316285,8|0,0:0|0:0,0:0:0:0:
37,295,63736,6,0,P|111:288|151:305,1,109.999990463257,2|8,0:0|0:0,0:0:0:0:
170,347,64347,1,2,0:0:0:0:
327,296,64968,2,0,L|334:233,1,54.9999952316285,8|0,0:0|0:0,0:0:0:0:
378,215,65362,1,2,0:0:0:0:
378,215,65567,1,8,0:0:0:0:
461,143,65978,1,2,0:0:0:0:
461,143,66183,2,0,L|450:24,1,109.999990463257,8|8,0:0|3:0,0:0:0:0:
342,24,66983,6,0,P|316:49|232:67,1,109.999990463257,4|8,0:0|0:0,0:0:0:0:
141,101,67828,2,0,P|116:127|98:211,1,109.999990463257,2|8,0:0|0:0,0:0:0:0:
118,247,68420,1,2,0:0:0:0:
207,311,68828,2,0,L|318:302,1,109.999990463257,2|0,0:0|0:0,0:0:0:0:
367,322,69440,2,0,L|361:383,2,54.9999952316285,2|0|8,0:0|0:0|0:0,0:0:0:0:
418,301,70052,1,2,0:0:0:0:
462,200,70460,6,0,P|431:136|417:80,1,109.999990463257,2|0,0:0|0:0,0:0:0:0:
369,77,71072,2,0,L|376:12,2,54.9999952316285,2|0|8,0:0|0:0|0:0,0:0:0:0:
320,102,71685,1,2,0:0:0:0:
239,177,72093,2,0,P|270:241|284:289,1,109,2|2,0:0|0:0,0:0:0:0:
268,331,72697,1,10,0:0:0:0:
164,369,73113,1,10,0:0:0:0:
57,339,73530,6,0,P|78:288|72:213,1,109.999990463257,4|8,0:0|0:0,0:0:0:0:
0,156,74343,2,0,P|0:101|20:50,1,109.999990463257,2|8,0:0|0:0,0:0:0:0:
75,40,74953,1,2,0:0:0:0:
176,81,75360,2,0,L|299:72,1,109.999990463257,2|0,0:0|0:0,0:0:0:0:
340,69,75970,2,0,L|347:12,2,54.9999952316285,2|0|8,0:0|0:0|0:0,0:0:0:0:
372,113,76580,1,2,0:0:0:0:
291,187,76987,6,0,P|274:243|275:307,1,109.999990463257,2|0,0:0|0:0,0:0:0:0:
234,333,77597,2,0,L|174:341,2,54.9999952316285,2|0|8,0:0|0:0|0:0,0:0:0:0:
262,380,78207,1,2,0:0:0:0:
367,347,78625,1,2,0:0:0:0:
367,347,78835,1,10,0:0:0:0:
472,315,79237,2,0,P|454:254|458:188,1,109.999990463257,10|10,0:0|0:0,0:0:0:0:
418,103,80043,6,0,L|300:89,1,109.999990463257,4|8,0:0|0:0,0:0:0:0:
209,41,80876,2,0,L|91:55,1,109.999990463257,4|8,0:0|0:0,0:0:0:0:
57,88,81488,2,0,P|35:148|50:204,1,109.5,4|0,0:0|0:0,0:0:0:0:
79,233,82096,1,8,0:0:0:0:
175,285,82500,2,0,L|167:349,2,54.9999952316285,2|0|8,0:0|0:0|0:0,0:0:0:0:
217,250,83106,2,0,P|279:242|332:220,1,109.999990463257,2|0,0:0|0:0,0:0:0:0:
367,192,83712,5,8,0:0:0:0:
405,88,84116,2,0,L|466:81,2,54.9999952316285,2|0|8,0:0|0:0|0:0,0:0:0:0:
357,60,84728,2,0,L|240:53,1,109.999990463257,2|0,0:0|0:0,0:0:0:0:
192,49,85340,1,8,0:0:0:0:
95,101,85748,1,10,0:0:0:0:
181,169,86182,1,10,0:0:0:0:
91,232,86590,6,0,L|77:356,1,120.999993202209,4|8,0:0|0:0,0:0:0:0:
196,374,87406,2,0,L|209:249,1,120.999993202209,4|8,0:0|0:0,0:0:0:0:
264,229,88018,2,0,P|331:246|402:236,1,120.999993202209,4|0,0:0|0:0,0:0:0:0:
432,208,88630,1,8,0:0:0:0:
450,88,89038,2,0,L|521:92,2,60.4999966011047,4|0|8,0:0|0:0|0:0,0:0:0:0:
394,63,89646,2,0,P|332:79|269:62,1,120.999993202209,4|0,0:0|0:0,0:0:0:0:
235,23,90253,5,8,0:0:0:0:
123,70,90658,2,0,L|111:134,1,60.4999966011047,4|0,0:0|0:0,0:0:0:0:
59,155,91064,1,8,0:0:0:0:
59,155,91266,1,4,0:0:0:0:
141,250,91672,1,2,0:0:0:0:
141,250,91875,1,8,0:0:0:0:
239,199,92280,5,12,0:0:0:0:
294,280,92708,1,12,0:0:0:0:
392,230,93169,5,6,0:0:0:0:
256,192,93630,12,0,96861,0:0:0:0:
