osu file format v14

[General]
AudioFilename: audio.mp3
AudioLeadIn: 0
PreviewTime: 80033
Countdown: 0
SampleSet: Soft
StackLeniency: 0.4
Mode: 0
LetterboxInBreaks: 0
WidescreenStoryboard: 1

[Editor]
DistanceSpacing: 0.9
BeatDivisor: 4
GridSize: 4
TimelineZoom: 1.8

[Metadata]
Title:Jaakuningatar (Cut Ver.)
TitleUnicode:Jääkuningatar (Cut Ver.)
Artist:Litku Klemetti
ArtistUnicode:Litku Klemetti
Creator:dsco
Version:Insane
Source:
Tags:ice queen finnish rock pop indie luova records juna kainuuseen finland
BeatmapID:2928429
BeatmapSetID:1421834

[Difficulty]
HPDrainRate:5
CircleSize:4
OverallDifficulty:7.5
ApproachRate:8.5
SliderMultiplier:1.69999990463257
SliderTickRate:1

[Events]
//Background and Video events
0,0,"atey-ghailan-demo-autumn-forest.jpg",0,0
//Break Periods
//Storyboard Layer 0 (Background)
//Storyboard Layer 1 (Fail)
//Storyboard Layer 2 (Pass)
//Storyboard Layer 3 (Foreground)
//Storyboard Layer 4 (Overlay)
//Storyboard Sound Samples

[TimingPoints]
41.8641801548204,408.163265306122,4,2,0,60,1,0
1674,410.958904109589,4,2,0,60,1,0
3317,405.405405405405,4,2,0,60,1,0
4938,408.163265306122,4,2,0,60,1,0
7795,400,4,2,0,60,1,0
8195,408.163265306122,4,2,0,60,1,0
9011,410.958904109589,4,2,0,60,1,0
9832,410.958904109589,4,2,0,60,1,0
11475,408.163265306122,4,2,0,60,1,0
14740,413.793103448276,4,2,0,60,1,0
15567,408.163265306122,4,2,0,60,1,0
16383,408.163265306122,4,2,0,60,1,0
21280,405.405405405405,4,2,0,60,1,0
22090,410.958904109589,4,2,0,60,1,0
22911,408.163265306122,4,2,0,60,1,0
26176,405.405405405405,4,2,0,60,1,0
27797,413.793103448276,4,2,0,60,1,0
29452,408.163265306122,4,2,0,60,1,0
31084,405.405405405405,4,2,0,60,1,0
34327,409.556313993174,4,2,0,60,1,0
37603,408.163265306122,4,2,0,60,1,0
40868,409.556313993174,4,2,0,60,1,0
43325,397.350993377483,4,2,0,60,1,0
43921,408.163265306122,4,2,0,60,1,0
44125,408.163265306122,4,2,0,60,1,0
46573,413.793103448276,4,2,0,60,1,0
47400,408.163265306122,4,2,0,60,1,0
51481,402.684563758389,4,2,0,60,1,0
52085,408.163265306122,4,2,0,60,1,0
52289,408.163265306122,4,2,0,60,1,0
53921,422.535211267606,4,2,0,60,1,0
54766,408.163265306122,4,2,0,60,1,0
55582,405.405405405405,4,2,0,60,1,0
57203,408.163265306122,4,2,0,60,1,0
58835,413.793103448276,4,2,0,60,1,0
60076,394.736842105263,4,2,0,60,1,0
60470,410.958904109589,4,2,0,60,1,0
62113,419.58041958042,4,2,0,60,1,0
62532,394.736842105263,4,2,0,60,1,0
63124,408.163265306122,4,2,0,60,1,0
63736,413.793103448276,4,2,0,60,1,0
64149,397.350993377483,4,2,0,60,1,0
64546,422.535211267606,4,2,0,60,1,0
64968,394.736842105263,4,2,0,60,1,0
65362,410.958904109589,4,2,0,60,1,0
66183,400,4,2,0,60,1,0
66983,422.535211267606,4,2,0,60,1,0
66983,-80,4,2,0,60,0,0
67828,394.736842105263,4,2,0,60,1,0
67828,-80,4,2,0,60,0,0
68420,408.163265306122,4,2,0,60,1,0
68420,-80,4,2,0,60,0,0
68624,408.163265306122,4,2,0,60,1,0
68624,-80,4,2,0,60,0,0
72297,400,4,2,0,60,1,0
72297,-80,4,2,0,60,0,0
72697,416.666666666667,4,2,0,60,1,0
72697,-80,4,2,0,60,0,0
73530,406.779661016949,4,2,0,60,1,0
73530,-80,4,2,0,60,0,0
78207,419.58041958042,4,2,0,60,1,0
78207,-80,4,2,0,60,0,0
78416,419.58041958042,4,2,0,60,1,0
78416,-80,4,2,0,60,0,0
78835,402.684563758389,4,2,0,60,1,0
78835,-80,4,2,0,60,0,0
80043,425.531914893617,4,2,0,60,1,0
80043,-80,4,2,0,60,0,0
80468,408.163265306122,4,2,0,60,1,0
80468,-80,4,2,0,60,0,0
81692,404.040404040404,4,2,0,60,1,0
81692,-80,4,2,0,60,0,0
84116,408.163265306122,4,2,0,60,1,0
84116,-80,4,2,0,60,0,0
84932,408.163265306122,4,2,0,60,1,0
85748,434.782608695652,4,2,0,60,1,0
86182,408.163265306122,4,2,0,60,1,0
86590,408.163265306122,4,2,0,60,1,0
86590,-80,4,2,0,75,0,1
89038,405.405405405405,4,2,0,75,1,1
89038,-80,4,2,0,75,0,1
89848,405.405405405405,4,2,0,75,1,1
89848,-80,4,2,0,75,0,1
92280,428.571428571429,4,2,0,75,1,1
92708,461.538461538462,4,2,0,75,1,1
93169,461.538461538462,4,2,0,75,1,0
93399,-100,4,2,0,10,0,0

[Colours]
Combo1 : 83,215,106
Combo2 : 219,109,98

[HitObjects]
0,177,41,5,0,3:2:0:0:
86,210,347,1,8,3:2:0:0:
88,222,450,2,0,L|96:310,1,84.9999952316285,8|0,3:2|3:2,3:2:0:0:
180,299,858,2,0,L|172:214,1,84.9999952316285,8|0,3:2|3:2,3:2:0:0:
234,155,1266,1,8,3:2:0:0:
259,174,1368,1,8,3:2:0:0:
288,185,1470,1,8,3:2:0:0:
320,187,1572,1,8,3:2:0:0:
351,180,1674,6,0,P|422:147|491:161,1,127.499992847443,4|0,0:0|0:0,0:0:0:0:
479,157,2084,1,8,0:0:0:0:
510,236,2290,1,0,0:0:0:0:
429,367,2495,2,0,L|439:283,1,84.9999952316285,2|0,0:0|0:0,0:0:0:0:
354,274,2906,2,0,L|344:358,1,84.9999952316285,8|0,0:0|0:0,0:0:0:0:
304,220,3317,6,0,B|296:117|335:149|331:46,1,169.999990463257,2|8,0:0|0:0,0:0:0:0:
411,73,3925,2,0,B|414:167|375:135|383:238,1,169.999990463257,2|0,0:0|0:0,0:0:0:0:
468,207,4533,1,8,0:0:0:0:
468,207,4735,1,0,0:0:0:0:
244,79,4938,6,0,P|153:73|65:53,1,169.999990463257,2|8,0:0|0:0,0:0:0:0:
10,110,5550,1,2,0:0:0:0:
298,21,5958,1,0,0:0:0:0:
361,77,6162,2,0,P|368:125|377:177,1,84.9999952316285,8|0,0:0|0:0,0:0:0:0:
449,199,6570,5,2,0:0:0:0:
298,292,6774,2,0,P|305:250|311:208,1,84.9999952316285,2|8,0:0|0:0,0:0:0:0:
61,330,7182,2,0,B|161:355|136:311|237:333,1,169.999990463257,2|0,0:0|0:0,0:0:0:0:
298,292,7794,1,8,0:0:0:0:
298,292,7995,1,0,0:0:0:0:
494,325,8195,6,0,P|419:316|349:347,1,127.499992847443,4|0,0:0|0:0,0:0:0:0:
363,339,8603,1,8,0:0:0:0:
298,292,8807,1,0,0:0:0:0:
330,219,9011,2,0,P|340:178|358:117,1,84.9999952316285,2|0,0:0|0:0,0:0:0:0:
429,156,9421,2,0,P|419:197|401:258,1,84.9999952316285,8|0,0:0|0:0,0:0:0:0:
299,77,9832,6,0,P|216:80|110:48,1,169.999990463257,2|8,0:0|0:0,0:0:0:0:
56,96,10448,2,0,P|47:50|31:-7,2,84.9999952316285,2|0|0,0:0|0:0|0:0,0:0:0:0:
12,169,11064,1,8,0:0:0:0:
12,169,11270,1,0,0:0:0:0:
64,381,11475,6,0,L|79:202,1,169.999990463257,2|8,0:0|0:0,0:0:0:0:
151,169,12087,1,2,0:0:0:0:
416,227,12495,1,0,0:0:0:0:
501,199,12699,1,8,0:0:0:0:
413,236,12903,1,0,0:0:0:0:
433,142,13107,5,2,0:0:0:0:
411,245,13311,2,0,P|406:289|402:345,1,84.9999952316285,2|8,0:0|0:0,0:0:0:0:
340,168,13719,2,0,P|256:144|146:121,1,169.999990463257,2|0,0:0|0:0,0:0:0:0:
100,167,14332,1,8,0:0:0:0:
100,167,14536,1,0,0:0:0:0:
410,120,14740,5,4,0:0:0:0:
410,120,15153,2,0,P|422:67|424:12,1,84.9999952316285,8|0,0:0|0:0,0:0:0:0:
340,168,15567,2,0,P|288:184|239:209,1,84.9999952316285
416,204,15975,2,0,P|455:240|502:270,1,84.9999952316285,8|0,0:0|0:0,0:0:0:0:
410,120,16383,6,0,P|334:113|229:84,1,169.999990463257,2|8,0:0|0:0,0:0:0:0:
178,34,16995,1,2,0:0:0:0:
182,38,17607,1,8,0:0:0:0:
182,38,17811,1,0,0:0:0:0:
410,120,18015,6,0,P|334:113|229:84,1,169.999990463257,2|8,0:0|0:0,0:0:0:0:
178,34,18627,1,2,0:0:0:0:
178,34,19240,1,8,0:0:0:0:
244,89,19444,1,0,0:0:0:0:
164,119,19648,5,0,0:0:0:0:
241,257,19852,2,0,P|234:215|229:173,1,84.9999952316285,2|8,0:0|0:0,0:0:0:0:
134,371,20260,2,0,P|145:285|153:191,1,169.999990463257
80,158,20872,1,8,0:0:0:0:
159,206,21076,1,0,0:0:0:0:
164,119,21280,5,2,0:0:0:0:
164,119,21685,2,0,P|182:72|198:25,1,84.9999952316285,8|0,0:0|0:0,0:0:0:0:
243,191,22090,2,0,P|193:198|144:208,1,84.9999952316285
266,87,22500,2,0,P|297:126|330:163,1,84.9999952316285,8|0,0:0|0:0,0:0:0:0:
164,119,22911,6,0,P|74:112|-10:100,1,169.999990463257,2|8,0:0|0:0,0:0:0:0:
13,184,23523,1,0,0:0:0:0:
17,188,24135,1,8,0:0:0:0:
17,188,24339,1,0,0:0:0:0:
164,119,24543,6,0,P|121:115|79:111,1,84.9999952316285,2|0,0:0|0:0,0:0:0:0:
17,188,24951,2,0,P|59:191|101:195,1,84.9999952316285,8|0,0:0|0:0,0:0:0:0:
137,272,25359,1,0,0:0:0:0:
212,232,25564,1,0,0:0:0:0:
130,278,25768,2,0,P|123:328|119:375,1,84.9999952316285,8|0,0:0|0:0,0:0:0:0:
220,229,26176,6,0,P|213:143|209:43,1,169.999990463257,2|8,0:0|0:0,0:0:0:0:
307,265,26784,1,2,0:0:0:0:
307,265,26986,2,0,P|357:268|411:270,1,84.9999952316285
390,354,27392,2,0,P|340:351|286:349,1,84.9999952316285,8|0,0:0|0:0,0:0:0:0:
220,229,27797,5,2,0:0:0:0:
220,229,28210,2,0,P|231:177|250:130,1,84.9999952316285,8|0,0:0|0:0,0:0:0:0:
217,321,28624,2,0,P|166:337|116:344,1,84.9999952316285
299,277,29038,2,0,P|338:312|369:352,1,84.9999952316285,8|0,0:0|0:0,0:0:0:0:
220,229,29452,6,0,P|206:147|198:53,1,169.999990463257,2|8,0:0|0:0,0:0:0:0:
262,4,30064,1,0,0:0:0:0:
266,8,30676,1,8,0:0:0:0:
266,8,30880,1,0,0:0:0:0:
220,229,31084,6,0,P|206:147|202:107,1,84.9999952316285,2|0,0:0|0:0,0:0:0:0:
266,8,31489,2,0,P|280:90|284:130,1,84.9999952316285,8|0,0:0|0:0,0:0:0:0:
198,147,31894,1,0,0:0:0:0:
119,113,32097,1,0,0:0:0:0:
39,144,32300,1,8,0:0:0:0:
122,103,32502,6,0,P|196:106|296:82,1,169.999990463257,2|2,0:0|0:0,0:0:0:0:
364,125,33111,1,8,0:0:0:0:
316,333,33313,2,0,P|295:250|297:165,1,169.999990463257,0|2,0:0|0:0,0:0:0:0:
370,205,33921,2,0,P|374:262|391:310,1,84.9999952316285,8|0,0:0|0:0,0:0:0:0:
451,239,34327,5,2,0:0:0:0:
451,239,34736,2,0,P|449:196|439:155,1,84.9999952316285,8|0,0:0|0:0,0:0:0:0:
496,18,35146,2,0,P|460:40|430:70,1,84.9999952316285
281,89,35555,2,0,P|318:108|359:120,1,84.9999952316285,8|0,0:0|0:0,0:0:0:0:
202,39,35965,6,0,P|145:50|23:60,1,169.999990463257,2|8,0:0|0:0,0:0:0:0:
5,140,36579,1,0,0:0:0:0:
9,144,37193,1,8,0:0:0:0:
9,144,37398,1,0,0:0:0:0:
202,39,37603,6,0,P|145:50|23:60,1,169.999990463257,2|8,0:0|0:0,0:0:0:0:
5,140,38215,1,0,0:0:0:0:
69,192,38419,2,0,P|77:244|79:282,1,84.9999952316285
140,335,38827,1,8,0:0:0:0:
72,279,39031,1,0,0:0:0:0:
127,134,39235,5,2,0:0:0:0:
62,282,39439,2,0,P|50:331|36:372,1,84.9999952316285,8|0,0:0|0:0,0:0:0:0:
216,302,39847,1,2,0:0:0:0:
216,302,40051,2,0,P|258:313|316:324,1,84.9999952316285,8|0,0:0|0:0,0:0:0:0:
368,371,40460,2,0,P|410:360|468:349,1,84.9999952316285,8|0,0:0|0:0,0:0:0:0:
505,287,40868,6,0,P|481:180|483:87,1,169.999990463257,4|8,0:0|0:0,0:0:0:0:
372,52,41482,1,0,0:0:0:0:
372,52,41687,1,2,0:0:0:0:
366,179,41891,1,2,0:0:0:0:
479,120,42096,1,8,0:0:0:0:
259,111,42301,6,0,P|169:104|59:80,1,169.999990463257,4|0,0:0|0:0,0:0:0:0:
24,141,42915,2,0,P|20:202|13:249,1,84.9999952316285,8|0,0:0|0:0,0:0:0:0:
91,363,43325,1,2,0:0:0:0:
84,278,43523,1,2,0:0:0:0:
91,371,43722,1,8,0:0:0:0:
259,111,43921,6,0,P|169:104|59:80,1,169.999990463257,4|0,0:0|0:0,0:0:0:0:
24,141,44533,2,0,P|20:202|13:249,1,84.9999952316285,8|0,0:0|0:0,0:0:0:0:
91,363,44941,1,2,0:0:0:0:
84,278,45145,1,2,0:0:0:0:
91,371,45349,1,8,0:0:0:0:
259,111,45553,6,0,P|169:104|59:80,1,169.999990463257,4|0,0:0|0:0,0:0:0:0:
24,141,46165,1,8,0:0:0:0:
24,141,46369,1,0,0:0:0:0:
325,63,46573,1,10,0:0:0:0:
325,63,46986,1,10,0:0:0:0:
24,141,47400,6,0,P|16:227|12:322,1,169.999990463257,4|8,0:0|0:0,0:0:0:0:
134,361,48012,1,0,0:0:0:0:
134,361,48216,1,2,0:0:0:0:
248,213,48420,1,2,0:0:0:0:
117,230,48624,1,8,0:0:0:0:
265,344,48828,6,0,P|363:324|473:327,1,169.999990463257,4|0,0:0|0:0,0:0:0:0:
486,256,49440,2,0,P|477:209|475:138,1,84.9999952316285,8|0,0:0|0:0,0:0:0:0:
406,120,49848,1,2,0:0:0:0:
394,204,50053,1,2,0:0:0:0:
408,111,50257,1,8,0:0:0:0:
265,344,50461,6,0,P|363:324|473:327,1,169.999990463257,4|0,0:0|0:0,0:0:0:0:
486,256,51073,2,0,P|477:209|475:138,1,84.9999952316285,8|0,0:0|0:0,0:0:0:0:
406,120,51481,1,2,0:0:0:0:
394,204,51682,1,2,0:0:0:0:
408,111,51883,1,8,0:0:0:0:
265,344,52085,6,0,P|363:324|473:327,1,169.999990463257,4|0,0:0|0:0,0:0:0:0:
486,256,52697,1,8,0:0:0:0:
486,256,52901,1,0,0:0:0:0:
428,15,53105,1,8,0:0:0:0:
351,53,53309,2,0,P|327:50|293:48,1,42.4999976158143,2|0,3:2|3:2,3:2:0:0:
217,218,53513,1,8,3:2:0:0:
236,193,53615,1,0,3:2:0:0:
247,164,53717,1,0,3:2:0:0:
249,132,53819,1,0,3:2:0:0:
242,101,53921,6,0,P|175:104|87:113,1,127.499992847443,4|0,0:0|0:0,0:0:0:0:
105,111,54343,1,8,0:0:0:0:
52,178,54554,1,0,3:0:0:0:
51,188,54660,1,2,3:2:0:0:
50,199,54766,2,0,P|45:247|41:289,1,84.9999952316285,2|0,0:0|0:0,0:0:0:0:
126,295,55174,1,8,0:0:0:0:
134,210,55378,1,0,3:0:0:0:
135,199,55480,1,2,3:2:0:0:
136,189,55582,6,0,P|221:185|290:174,1,127.499992847443,2|2,0:0|0:0,0:0:0:0:
273,176,55987,1,8,0:0:0:0:
350,211,56190,2,0,P|356:142|376:27,1,169.999990463257,2|0,0:0|0:0,0:0:0:0:
456,55,56798,2,0,P|447:102|442:157,1,84.9999952316285,8|0,0:0|0:0,0:0:0:0:
285,31,57203,6,0,P|226:49|106:60,1,169.999990463257,2|8,0:0|0:0,0:0:0:0:
34,45,57815,1,2,0:0:0:0:
372,42,58223,1,0,0:0:0:0:
426,107,58427,2,0,P|470:106|518:100,1,84.9999952316285,8|0,0:0|0:0,0:0:0:0:
345,121,58835,5,2,0:0:0:0:
405,270,59041,2,0,P|405:228|399:186,1,84.9999952316285,2|8,0:0|0:0,0:0:0:0:
484,349,59455,2,0,P|488:279|481:176,1,169.999990463257,2|0,0:0|0:0,0:0:0:0:
510,101,60076,1,8,0:0:0:0:
510,101,60273,1,0,0:0:0:0:
284,106,60470,6,0,P|357:113|418:114,1,127.499992847443,4|0,0:0|0:0,0:0:0:0:
422,113,60880,1,8,0:0:0:0:
390,192,61086,1,0,0:0:0:0:
481,266,61291,2,0,P|479:224|474:182,1,84.9999952316285,2|0,0:0|0:0,0:0:0:0:
387,199,61702,2,0,P|389:241|394:283,1,84.9999952316285,8|0,0:0|0:0,0:0:0:0:
194,347,62113,6,0,B|270:327|251:361|329:344,1,127.499992847443,2|2,0:0|0:0,0:0:0:0:
330,344,62532,1,8,0:0:0:0:
136,293,62729,2,0,P|90:306|38:316,1,84.9999952316285,2|0,0:0|0:0,0:0:0:0:
3,244,63124,1,0,0:0:0:0:
209,264,63328,1,8,0:0:0:0:
209,264,63532,1,0,0:0:0:0:
60,188,63736,6,0,P|44:142|37:11,1,169.999990463257,2|8,0:0|0:0,0:0:0:0:
119,36,64347,1,0,0:0:0:0:
129,35,64447,1,2,0:0:0:0:
142,33,64546,2,0,L|232:26,1,84.9999952316285
235,25,64862,1,2,0:0:0:0:
246,24,64968,1,8,0:0:0:0:
242,108,65165,1,0,0:0:0:0:
312,67,65362,5,2,0:0:0:0:
169,147,65567,2,0,P|87:136|-2:132,1,169.999990463257,10|0,0:0|0:0,0:0:0:0:
189,227,66183,1,8,0:0:0:0:
248,172,66383,1,8,3:2:0:0:
244,151,66483,1,8,3:2:0:0:
242,129,66583,1,8,3:0:0:0:
241,108,66683,1,8,3:0:0:0:
241,87,66783,1,8,3:0:0:0:
242,66,66883,1,8,3:0:0:0:
244,45,66983,6,0,P|323:63|462:44,1,212.499988079071,4|8,0:0|0:0,0:0:0:0:
487,135,67616,1,0,3:0:0:0:
482,156,67722,1,0,3:0:0:0:
478,177,67828,1,2,0:0:0:0:
506,301,68025,1,2,0:0:0:0:
381,328,68222,1,8,0:0:0:0:
353,204,68420,6,0,P|274:186|135:205,1,212.499988079071,4|0,0:0|0:0,0:0:0:0:
70,278,69032,2,0,L|58:392,1,106.249994039536,8|0,0:0|0:0,0:0:0:0:
43,174,69440,1,2,0:0:0:0:
144,201,69644,1,2,0:0:0:0:
35,172,69848,1,8,0:0:0:0:
353,204,70052,6,0,P|274:186|135:205,1,212.499988079071,4|0,0:0|0:0,0:0:0:0:
70,278,70664,2,0,L|58:392,1,106.249994039536,8|0,0:0|0:0,0:0:0:0:
43,174,71072,1,2,0:0:0:0:
144,201,71277,1,2,0:0:0:0:
35,172,71481,1,8,0:0:0:0:
353,204,71685,6,0,P|274:186|135:205,1,212.499988079071,4|0,0:0|0:0,0:0:0:0:
70,278,72297,1,8,0:0:0:0:
70,278,72497,1,0,0:0:0:0:
353,120,72697,6,0,P|347:64|350:-9,1,106.249994039536,10|0,0:0|0:0,0:0:0:0:
144,201,73113,2,0,P|150:257|147:330,1,106.249994039536,10|0,0:0|0:0,0:0:0:0:
251,149,73530,6,0,P|172:167|33:148,1,212.499988079071,4|8,0:0|0:0,0:0:0:0:
5,231,74140,1,0,3:0:0:0:
7,257,74241,1,0,3:0:0:0:
10,283,74343,1,2,0:0:0:0:
169,170,74546,1,2,0:0:0:0:
33,147,74750,1,8,0:0:0:0:
146,306,74953,6,0,P|258:282|377:278,1,212.499988079071,4|0,0:0|0:0,0:0:0:0:
420,216,75563,2,0,P|402:165|389:114,1,106.249994039536,8|0,0:0|0:0,0:0:0:0:
300,154,75970,1,2,0:0:0:0:
198,123,76174,1,2,0:0:0:0:
312,157,76377,1,8,0:0:0:0:
146,306,76580,6,0,P|258:282|377:278,1,212.499988079071,4|0,0:0|0:0,0:0:0:0:
420,216,77191,2,0,P|402:165|389:114,1,106.249994039536,8|0,0:0|0:0,0:0:0:0:
300,154,77597,1,2,0:0:0:0:
198,123,77801,1,2,0:0:0:0:
312,157,78004,1,8,0:0:0:0:
146,306,78207,6,0,P|258:282|377:278,1,212.499988079071,4|0,0:0|0:0,0:0:0:0:
420,216,78835,1,8,0:0:0:0:
420,216,79036,1,2,0:0:0:0:
441,295,79237,1,8,0:0:0:0:
338,186,79439,1,8,3:2:0:0:
333,154,79539,1,8,3:2:0:0:
329,123,79640,2,0,P|326:93|325:57,3,53.1249970197678,2|0|0|0,3:2|3:2|3:2|3:2,3:2:0:0:
322,44,80043,6,0,B|197:9|227:65|102:35,1,212.499988079071,4|8,0:0|0:0,0:0:0:0:
22,91,80672,1,0,3:0:0:0:
16,117,80774,1,0,3:0:0:0:
9,142,80876,1,2,0:0:0:0:
150,170,81080,1,2,0:0:0:0:
103,34,81284,1,8,0:0:0:0:
56,278,81488,6,0,P|165:257|279:242,1,212,4|0,0:0|0:0,0:0:0:0:
323,154,82096,2,0,P|307:96|299:38,1,106.249994039536,8|0,0:0|0:0,0:0:0:0:
299,36,82399,1,0,3:0:0:0:
297,21,82500,1,2,0:0:0:0:
375,249,82702,1,2,0:0:0:0:
420,156,82904,1,8,0:0:0:0:
56,278,83106,6,0,P|165:257|279:242,1,212.499988079071,4|0,0:0|0:0,0:0:0:0:
323,154,83712,2,0,P|307:96|299:38,1,106.249994039536,8|0,0:0|0:0,0:0:0:0:
299,36,84015,1,0,3:0:0:0:
297,21,84116,1,2,0:0:0:0:
375,249,84320,1,2,0:0:0:0:
420,156,84524,1,8,0:0:0:0:
56,278,84728,6,0,P|165:257|279:242,1,212.499988079071,4|0,0:0|0:0,0:0:0:0:
323,154,85340,1,8,0:0:0:0:
323,154,85544,1,0,0:0:0:0:
26,367,85748,5,10,0:0:0:0:
26,367,86182,1,10,0:0:0:0:
323,154,86590,6,0,P|428:144|541:115,1,212.499988079071,4|8,0:0|0:0,0:0:0:0:
494,217,87202,1,0,3:0:0:0:
490,243,87304,1,0,3:0:0:0:
487,269,87406,1,2,0:0:0:0:
314,153,87610,1,2,0:0:0:0:
459,124,87814,1,8,0:0:0:0:
342,298,88018,6,0,P|242:279|97:276,1,212.499988079071,4|0,0:0|0:0,0:0:0:0:
4,383,88630,2,0,P|18:332|25:280,1,106.249994039536,8|0,0:0|0:0,0:0:0:0:
25,267,88936,1,0,3:0:0:0:
24,253,89038,1,2,0:0:0:0:
116,382,89240,1,2,0:0:0:0:
92,177,89443,1,8,0:0:0:0:
342,298,89646,6,0,P|242:279|97:276,1,212.499988079071,4|0,0:0|0:0,0:0:0:0:
4,383,90253,2,0,P|18:332|25:280,1,106.249994039536,8|0,0:0|0:0,0:0:0:0:
25,267,90557,1,0,3:0:0:0:
24,253,90658,1,2,0:0:0:0:
169,385,90861,1,8,0:0:0:0:
142,383,90962,1,8,0:0:0:0:
116,382,91064,1,8,0:0:0:0:
342,298,91266,6,0,P|242:279|97:276,1,212.499988079071,4|0,0:0|0:0,0:0:0:0:
4,383,91875,1,8,0:0:0:0:
375,209,92077,1,2,0:0:0:0:
102,110,92280,1,12,0:0:0:0:
102,110,92708,1,12,0:0:0:0:
375,209,93169,5,6,0:0:0:0:
256,192,93399,12,0,96861,0:0:0:0:
