osu file format v14

[General]
AudioFilename: audio.mp3
AudioLeadIn: 0
PreviewTime: 46003
Countdown: 0
SampleSet: Normal
StackLeniency: 0.7
Mode: 1
LetterboxInBreaks: 0
WidescreenStoryboard: 0

[Editor]
Bookmarks: 185,8912,17639,26366,35094,46003,52548,54730,63457,72185,80912,85275,91821,94003,102730,110639,110912
DistanceSpacing: 0.9
BeatDivisor: 4
GridSize: 32
TimelineZoom: 3.099999

[Metadata]
Title:TRICKL4SH 220
TitleUnicode:TRICKL4SH 220
Artist:Lite Show Magic
ArtistUnicode:Lite Show Magic
Creator:Taikocracy
Version:Ayyri's Outer Oni
Source:SOUND VOLTEX IV HEAVENLY HAVEN
Tags:SDVX KONAMI BEMANI Don't waste me! E.P. EP M3-36 M3 LSM C.H.S CHS Comiket 85 C85 CHSEP-0003 HARDCORE TANO*C Happy Hardcore Speedcore tpz Ayyri We are "LSM" LSMD-0001 Lick Dom Records C92 "Lite Show" TRICKLASH t+pazolite vs C-Show
BeatmapID:1347774
BeatmapSetID:635144

[Difficulty]
HPDrainRate:7
CircleSize:2
OverallDifficulty:7
ApproachRate:10
SliderMultiplier:1.4
SliderTickRate:1

[Events]
//Background and Video events
0,0,"TRICKL4SH 220.jpg",0,0
//Break Periods
//Storyboard Layer 0 (Background)
//Storyboard Layer 1 (Fail)
//Storyboard Layer 2 (Pass)
//Storyboard Layer 3 (Foreground)
//Storyboard Sound Samples

[TimingPoints]
185,272.727272727273,4,1,0,100,1,0
8912,-66.6666666666667,4,1,0,100,0,0
9866,-100,4,1,0,100,0,0
11094,-66.6666666666667,4,1,0,100,0,0
14366,-100,4,1,0,100,0,0
15457,-66.6666666666667,4,1,0,100,0,0
17639,-100,4,1,0,100,0,0
34275,-108.695652173913,4,1,0,100,0,0
34412,-111.111111111111,4,1,0,100,0,0
34548,-113.636363636364,4,1,0,100,0,0
34685,-116.279069767442,4,1,0,100,0,0
34821,-119.047619047619,4,1,0,100,0,0
35094,-125,4,1,0,50,0,0
39457,-111.111111111111,4,1,0,75,0,0
45185,-111.111111111111,4,1,0,50,0,0
45457,-66.6666666666667,4,1,0,100,0,0
45730,-80,4,1,0,100,0,0
46003,-100,4,1,0,100,0,1
52548,-66.6666666666667,4,1,0,100,0,0
53639,-80,4,1,0,100,0,0
53775,-83.3333333333333,4,1,0,100,0,0
54185,-86.9565217391304,4,1,0,100,0,0
54253,-88.4955752212389,4,1,0,100,0,0
54321,-90.9090909090909,4,1,0,100,0,0
54457,-93.4579439252336,4,1,0,100,0,0
54525,-95.2380952380952,4,1,0,100,0,0
54594,-97.0873786407767,4,1,0,100,0,0
54730,-100,4,1,0,100,0,1
61275,-66.6666666666667,4,1,0,100,0,1
62366,-80,4,1,0,100,0,1
62503,-83.3333333333333,4,1,0,100,0,1
62912,-86.9565217391304,4,1,0,100,0,1
62980,-88.4955752212389,4,1,0,100,0,1
63048,-90.9090909090909,4,1,0,100,0,1
63185,-93.4579439252336,4,1,0,100,0,1
63253,-95.2380952380952,4,1,0,100,0,1
63321,-97.0873786407767,4,1,0,100,0,1
63457,-100,4,1,0,100,0,0
85003,-66.6666666666667,4,1,0,100,0,0
85275,-80,4,1,0,100,0,1
85412,-86.9565217391304,4,1,0,100,0,1
85480,-87.719298245614,4,1,0,100,0,1
85548,-88.4955752212389,4,1,0,100,0,1
85685,-90.0900900900901,4,1,0,100,0,1
85821,-91.743119266055,4,1,0,100,0,1
85889,-92.5925925925926,4,1,0,100,0,1
85957,-93.4579439252336,4,1,0,100,0,1
86025,-94.3396226415094,4,1,0,100,0,1
86094,-95.2380952380952,4,1,0,100,0,1
86162,-96.1538461538461,4,1,0,100,0,1
86230,-97.0873786407767,4,1,0,100,0,1
86366,-100,4,1,0,100,0,1
91821,-66.6666666666667,4,1,0,100,0,0
92912,-80,4,1,0,100,0,0
93048,-83.3333333333333,4,1,0,100,0,0
93457,-86.9565217391304,4,1,0,100,0,0
93525,-88.4955752212389,4,1,0,100,0,0
93594,-90.9090909090909,4,1,0,100,0,0
93730,-93.4579439252336,4,1,0,100,0,0
93798,-95.2380952380952,4,1,0,100,0,0
93866,-97.0873786407767,4,1,0,100,0,0
94003,-100,4,1,0,100,0,1
100275,-80,4,1,0,100,0,1
100548,-66.6666666666667,4,1,0,100,0,1
101639,-80,4,1,0,100,0,1
101775,-83.3333333333333,4,1,0,100,0,1
101912,-86.9565217391304,4,1,0,100,0,1
101980,-87.719298245614,4,1,0,100,0,1
102048,-88.4955752212389,4,1,0,100,0,1
102116,-89.2857142857143,4,1,0,100,0,1
102185,-90.0900900900901,4,1,0,100,0,1
102253,-90.9090909090909,4,1,0,100,0,1
102321,-91.743119266055,4,1,0,100,0,1
102389,-92.5925925925926,4,1,0,100,0,1
102457,-93.4579439252336,4,1,0,100,0,1
102525,-94.3396226415094,4,1,0,100,0,1
102594,-95.2380952380952,4,1,0,100,0,1
102730,-66.6666666666667,4,1,0,100,0,0
103821,-100,4,1,0,100,0,0
104912,-66.6666666666667,4,1,0,100,0,0
108048,-100,4,1,0,100,0,0
109275,-66.6666666666667,4,1,0,100,0,0
110639,-80,4,1,0,100,0,0

[HitObjects]
256,192,185,5,4,0:0:0:0:
256,192,457,1,8,0:0:0:0:
256,192,525,1,8,0:0:0:0:
256,192,594,1,0,0:0:0:0:
256,192,730,1,0,0:0:0:0:
256,192,866,1,8,0:0:0:0:
256,192,935,1,0,0:0:0:0:
256,192,1003,1,8,0:0:0:0:
256,192,1139,1,8,0:0:0:0:
256,192,1207,1,0,0:0:0:0:
256,192,1275,1,8,0:0:0:0:
256,192,1344,1,8,0:0:0:0:
256,192,1412,1,0,0:0:0:0:
256,192,1548,1,8,0:0:0:0:
256,192,1685,1,0,0:0:0:0:
256,192,1753,1,0,0:0:0:0:
256,192,1821,1,8,0:0:0:0:
256,192,1957,1,8,0:0:0:0:
256,192,2094,1,8,0:0:0:0:
256,192,2162,1,8,0:0:0:0:
256,192,2230,1,8,0:0:0:0:
256,192,2298,1,8,0:0:0:0:
256,192,2366,1,0,0:0:0:0:
256,192,2503,1,0,0:0:0:0:
256,192,2639,1,8,0:0:0:0:
256,192,2775,1,0,0:0:0:0:
256,192,2844,1,0,0:0:0:0:
256,192,2912,1,8,0:0:0:0:
256,192,3048,1,8,0:0:0:0:
256,192,3185,1,8,0:0:0:0:
256,192,3321,1,0,0:0:0:0:
256,192,3389,1,0,0:0:0:0:
256,192,3457,1,8,0:0:0:0:
256,192,3525,1,8,0:0:0:0:
256,192,3594,1,0,0:0:0:0:
256,192,3730,1,8,0:0:0:0:
256,192,3798,1,0,0:0:0:0:
256,192,3866,1,8,0:0:0:0:
256,192,3935,1,8,0:0:0:0:
256,192,4003,1,0,0:0:0:0:
256,192,4139,1,4,0:0:0:0:
256,192,4275,1,0,0:0:0:0:
256,192,4344,1,0,0:0:0:0:
256,192,4412,1,8,0:0:0:0:
256,192,4548,1,4,0:0:0:0:
256,192,4821,1,8,0:0:0:0:
256,192,4957,1,0,0:0:0:0:
256,192,5025,1,0,0:0:0:0:
256,192,5094,1,8,0:0:0:0:
256,192,5230,1,8,0:0:0:0:
256,192,5366,1,0,0:0:0:0:
256,192,5503,1,8,0:0:0:0:
256,192,5571,1,8,0:0:0:0:
256,192,5639,1,0,0:0:0:0:
256,192,5775,1,0,0:0:0:0:
256,192,5844,1,0,0:0:0:0:
256,192,5912,1,8,0:0:0:0:
256,192,5980,1,8,0:0:0:0:
256,192,6048,1,0,0:0:0:0:
256,192,6185,1,8,0:0:0:0:
256,192,6321,1,8,0:0:0:0:
256,192,6389,1,0,0:0:0:0:
256,192,6457,1,8,0:0:0:0:
256,192,6525,1,8,0:0:0:0:
256,192,6594,1,0,0:0:0:0:
256,192,6730,1,8,0:0:0:0:
256,192,6798,1,8,0:0:0:0:
256,192,6866,1,0,0:0:0:0:
256,192,7003,1,8,0:0:0:0:
256,192,7071,1,8,0:0:0:0:
256,192,7139,1,0,0:0:0:0:
256,192,7275,1,8,0:0:0:0:
256,192,7344,1,0,0:0:0:0:
256,192,7412,1,8,0:0:0:0:
256,192,7480,1,0,0:0:0:0:
256,192,7548,1,8,0:0:0:0:
256,192,7616,1,8,0:0:0:0:
256,192,7685,1,0,0:0:0:0:
256,192,7821,1,8,0:0:0:0:
256,192,7957,1,0,0:0:0:0:
256,192,8025,1,0,0:0:0:0:
256,192,8094,1,8,0:0:0:0:
256,192,8162,1,0,0:0:0:0:
256,192,8230,1,8,0:0:0:0:
256,192,8503,1,8,0:0:0:0:
256,192,8571,1,8,0:0:0:0:
256,192,8639,1,8,0:0:0:0:
256,192,8707,1,8,0:0:0:0:
256,192,8775,1,8,0:0:0:0:
256,192,8912,1,4,0:0:0:0:
256,192,9321,1,4,0:0:0:0:
256,192,9730,1,4,0:0:0:0:
256,192,10003,1,8,0:0:0:0:
256,192,10139,1,0,0:0:0:0:
256,192,10207,1,0,0:0:0:0:
256,192,10275,1,8,0:0:0:0:
256,192,10412,1,0,0:0:0:0:
256,192,10548,1,8,0:0:0:0:
256,192,10616,1,8,0:0:0:0:
256,192,10684,1,0,0:0:0:0:
256,192,10752,1,0,0:0:0:0:
256,192,10820,1,8,0:0:0:0:
256,192,10889,1,0,0:0:0:0:
256,192,10957,1,8,0:0:0:0:
256,192,11094,1,4,0:0:0:0:
256,192,11503,1,4,0:0:0:0:
256,192,11912,1,4,0:0:0:0:
256,192,12321,1,4,0:0:0:0:
256,192,12730,1,4,0:0:0:0:
256,192,13003,1,12,0:0:0:0:
256,192,13275,1,4,0:0:0:0:
256,192,13685,1,4,0:0:0:0:
256,192,14094,1,4,0:0:0:0:
256,192,14366,1,8,0:0:0:0:
256,192,14503,1,0,0:0:0:0:
256,192,14571,1,0,0:0:0:0:
256,192,14639,1,8,0:0:0:0:
256,192,14775,1,0,0:0:0:0:
256,192,14844,1,0,0:0:0:0:
256,192,14912,1,8,0:0:0:0:
256,192,14980,1,8,0:0:0:0:
256,192,15048,1,0,0:0:0:0:
256,192,15116,1,0,0:0:0:0:
256,192,15185,1,8,0:0:0:0:
256,192,15253,1,0,0:0:0:0:
256,192,15321,1,8,0:0:0:0:
256,192,15457,1,4,0:0:0:0:
256,192,15866,1,4,0:0:0:0:
256,192,16275,1,4,0:0:0:0:
256,192,16685,1,4,0:0:0:0:
256,192,17094,1,4,0:0:0:0:
256,192,17366,1,12,0:0:0:0:
256,192,17639,1,8,0:0:0:0:
256,192,17775,1,8,0:0:0:0:
256,192,17844,1,8,0:0:0:0:
256,192,17912,1,0,0:0:0:0:
256,192,18048,1,8,0:0:0:0:
256,192,18185,1,0,0:0:0:0:
256,192,18253,1,0,0:0:0:0:
256,192,18321,1,8,0:0:0:0:
256,192,18389,1,0,0:0:0:0:
256,192,18457,1,8,0:0:0:0:
256,192,18594,1,8,0:0:0:0:
256,192,18730,1,0,0:0:0:0:
256,192,18798,1,0,0:0:0:0:
256,192,18866,1,8,0:0:0:0:
256,192,18935,1,0,0:0:0:0:
256,192,19003,1,8,0:0:0:0:
256,192,19071,1,8,0:0:0:0:
256,192,19139,1,0,0:0:0:0:
256,192,19275,1,8,0:0:0:0:
256,192,19412,1,8,0:0:0:0:
256,192,19480,1,0,0:0:0:0:
256,192,19548,1,8,0:0:0:0:
256,192,19616,1,8,0:0:0:0:
256,192,19685,1,0,0:0:0:0:
256,192,19821,1,8,0:0:0:0:
256,192,19957,1,0,0:0:0:0:
256,192,20025,1,8,0:0:0:0:
256,192,20162,1,0,0:0:0:0:
256,192,20230,1,8,0:0:0:0:
256,192,20366,1,0,0:0:0:0:
256,192,20435,1,0,0:0:0:0:
256,192,20503,1,0,0:0:0:0:
256,192,20571,1,0,0:0:0:0:
256,192,20639,1,8,0:0:0:0:
256,192,20775,1,8,0:0:0:0:
256,192,20912,1,8,0:0:0:0:
256,192,20980,1,0,0:0:0:0:
256,192,21048,1,0,0:0:0:0:
256,192,21116,1,8,0:0:0:0:
256,192,21185,1,0,0:0:0:0:
256,192,21321,1,8,0:0:0:0:
256,192,21457,1,0,0:0:0:0:
256,192,21594,1,8,0:0:0:0:
256,192,21730,1,12,0:0:0:0:
256,192,22003,1,8,0:0:0:0:
256,192,22139,1,0,0:0:0:0:
256,192,22207,1,0,0:0:0:0:
256,192,22275,1,8,0:0:0:0:
256,192,22412,1,0,0:0:0:0:
256,192,22548,1,0,0:0:0:0:
256,192,22616,1,8,0:0:0:0:
256,192,22684,1,0,0:0:0:0:
256,192,22752,1,0,0:0:0:0:
256,192,22820,1,8,0:0:0:0:
256,192,22957,1,8,0:0:0:0:
256,192,23093,1,8,0:0:0:0:
256,192,23161,1,0,0:0:0:0:
256,192,23229,1,8,0:0:0:0:
256,192,23298,1,8,0:0:0:0:
256,192,23366,1,0,0:0:0:0:
256,192,23434,1,8,0:0:0:0:
256,192,23502,1,0,0:0:0:0:
256,192,23639,1,0,0:0:0:0:
256,192,23775,1,8,0:0:0:0:
256,192,23844,1,8,0:0:0:0:
256,192,23912,1,0,0:0:0:0:
256,192,23980,1,8,0:0:0:0:
256,192,24048,1,0,0:0:0:0:
256,192,24185,1,8,0:0:0:0:
256,192,24321,1,8,0:0:0:0:
256,192,24389,1,0,0:0:0:0:
256,192,24526,1,8,0:0:0:0:
256,192,24594,1,0,0:0:0:0:
256,192,24730,1,8,0:0:0:0:
256,192,24799,1,8,0:0:0:0:
256,192,24867,1,8,0:0:0:0:
256,192,24935,1,8,0:0:0:0:
256,192,25003,1,0,0:0:0:0:
256,192,25139,1,8,0:0:0:0:
256,192,25275,1,0,0:0:0:0:
256,192,25548,1,0,0:0:0:0:
256,192,25821,1,8,0:0:0:0:
256,192,26094,1,8,0:0:0:0:
256,192,26366,1,8,0:0:0:0:
256,192,26435,1,8,0:0:0:0:
256,192,26503,1,8,0:0:0:0:
256,192,26571,1,8,0:0:0:0:
256,192,26639,1,0,0:0:0:0:
256,192,26775,1,8,0:0:0:0:
256,192,26912,1,8,0:0:0:0:
256,192,26980,1,0,0:0:0:0:
256,192,27048,1,8,0:0:0:0:
256,192,27116,1,8,0:0:0:0:
256,192,27185,1,0,0:0:0:0:
256,192,27321,1,0,0:0:0:0:
256,192,27457,1,12,0:0:0:0:
256,192,27662,1,12,0:0:0:0:
256,192,27866,1,12,0:0:0:0:
256,192,28003,1,0,0:0:0:0:
256,192,28139,1,8,0:0:0:0:
256,192,28275,1,0,0:0:0:0:
256,192,28412,1,0,0:0:0:0:
256,192,28548,1,8,0:0:0:0:
256,192,28685,1,8,0:0:0:0:
256,192,28753,1,8,0:0:0:0:
256,192,28821,1,0,0:0:0:0:
256,192,28889,1,0,0:0:0:0:
256,192,28957,1,0,0:0:0:0:
256,192,29025,1,0,0:0:0:0:
256,192,29094,1,8,0:0:0:0:
256,192,29230,1,8,0:0:0:0:
256,192,29298,1,0,0:0:0:0:
256,192,29366,1,8,0:0:0:0:
256,192,29503,1,0,0:0:0:0:
256,192,29639,1,12,0:0:0:0:
256,192,29775,1,12,0:0:0:0:
256,192,29980,1,12,0:0:0:0:
256,192,30253,1,8,0:0:0:0:
256,192,30321,1,0,0:0:0:0:
256,192,30457,1,0,0:0:0:0:
256,192,30594,1,12,0:0:0:0:
256,192,30730,1,0,0:0:0:0:
256,192,30798,1,0,0:0:0:0:
256,192,30866,1,0,0:0:0:0:
256,192,30935,1,0,0:0:0:0:
256,192,31003,1,8,0:0:0:0:
256,192,31139,1,0,0:0:0:0:
256,192,31276,1,8,0:0:0:0:
256,192,31412,1,8,0:0:0:0:
256,192,31480,1,0,0:0:0:0:
256,192,31548,1,8,0:0:0:0:
256,192,31616,1,8,0:0:0:0:
256,192,31685,1,0,0:0:0:0:
256,192,31821,1,8,0:0:0:0:
256,192,31889,1,0,0:0:0:0:
256,192,31957,1,8,0:0:0:0:
256,192,32026,1,0,0:0:0:0:
256,192,32094,1,0,0:0:0:0:
256,192,32162,1,8,0:0:0:0:
256,192,32230,1,0,0:0:0:0:
256,192,32366,1,8,0:0:0:0:
256,192,32503,1,0,0:0:0:0:
256,192,32571,1,0,0:0:0:0:
256,192,32639,1,8,0:0:0:0:
256,192,32707,1,8,0:0:0:0:
256,192,32776,1,0,0:0:0:0:
256,192,32912,1,8,0:0:0:0:
256,192,32980,1,0,0:0:0:0:
256,192,33048,1,8,0:0:0:0:
256,192,33116,1,0,0:0:0:0:
256,192,33185,1,8,0:0:0:0:
256,192,33253,1,8,0:0:0:0:
256,192,33321,1,0,0:0:0:0:
256,192,33389,1,0,0:0:0:0:
256,192,33457,1,8,0:0:0:0:
256,192,33525,1,0,0:0:0:0:
256,192,33594,1,8,0:0:0:0:
256,192,33662,1,0,0:0:0:0:
256,192,33730,1,8,0:0:0:0:
256,192,33798,1,8,0:0:0:0:
256,192,33866,1,0,0:0:0:0:
256,192,33935,1,0,0:0:0:0:
256,192,34003,1,8,0:0:0:0:
256,192,34275,1,8,0:0:0:0:
256,192,34412,1,8,0:0:0:0:
256,192,34548,1,0,0:0:0:0:
256,192,34685,1,0,0:0:0:0:
256,192,34821,1,12,0:0:0:0:
256,192,35094,1,4,0:0:0:0:
256,192,35366,1,0,0:0:0:0:
256,192,35639,1,0,0:0:0:0:
256,192,35912,1,0,0:0:0:0:
256,192,36048,1,0,0:0:0:0:
256,192,36185,1,8,0:0:0:0:
256,192,36457,1,0,0:0:0:0:
256,192,36730,1,8,0:0:0:0:
256,192,37003,1,0,0:0:0:0:
256,192,37275,1,8,0:0:0:0:
256,192,37548,1,0,0:0:0:0:
256,192,37685,1,8,0:0:0:0:
256,192,37821,1,0,0:0:0:0:
256,192,38094,1,8,0:0:0:0:
256,192,38366,1,8,0:0:0:0:
256,192,38639,1,0,0:0:0:0:
256,192,38775,1,8,0:0:0:0:
256,192,38844,1,8,0:0:0:0:
256,192,38912,1,0,0:0:0:0:
256,192,39185,1,8,0:0:0:0:
256,192,39457,1,0,0:0:0:0:
256,192,39730,1,0,0:0:0:0:
256,192,39798,1,0,0:0:0:0:
256,192,39866,1,0,0:0:0:0:
256,192,39935,1,0,0:0:0:0:
256,192,40003,1,8,0:0:0:0:
256,192,40275,1,0,0:0:0:0:
256,192,40412,1,0,0:0:0:0:
256,192,40548,1,8,0:0:0:0:
256,192,40821,1,0,0:0:0:0:
256,192,40889,1,0,0:0:0:0:
256,192,40957,1,0,0:0:0:0:
256,192,41025,1,0,0:0:0:0:
256,192,41094,1,8,0:0:0:0:
256,192,41366,1,0,0:0:0:0:
256,192,41639,1,8,0:0:0:0:
256,192,41912,1,0,0:0:0:0:
256,192,41980,1,0,0:0:0:0:
256,192,42048,1,8,0:0:0:0:
256,192,42116,1,0,0:0:0:0:
256,192,42185,1,8,0:0:0:0:
256,192,42457,1,0,0:0:0:0:
256,192,42730,1,8,0:0:0:0:
256,192,43003,1,0,0:0:0:0:
256,192,43071,1,0,0:0:0:0:
256,192,43139,1,8,0:0:0:0:
256,192,43207,1,0,0:0:0:0:
256,192,43275,1,8,0:0:0:0:
256,192,43548,1,0,0:0:0:0:
256,192,43821,1,8,0:0:0:0:
256,192,43957,12,0,45184,0:0:0:0:
256,192,45457,5,12,0:0:0:0:
256,192,45730,1,4,0:0:0:0:
256,192,46003,1,12,0:0:0:0:
256,192,46139,1,0,0:0:0:0:
256,192,46207,1,0,0:0:0:0:
256,192,46275,1,8,0:0:0:0:
256,192,46412,1,8,0:0:0:0:
256,192,46548,1,0,0:0:0:0:
256,192,46616,1,8,0:0:0:0:
256,192,46685,1,0,0:0:0:0:
256,192,46753,1,0,0:0:0:0:
256,192,46821,1,8,0:0:0:0:
256,192,46889,1,8,0:0:0:0:
256,192,46957,1,0,0:0:0:0:
256,192,47094,1,8,0:0:0:0:
256,192,47230,1,0,0:0:0:0:
256,192,47298,1,0,0:0:0:0:
256,192,47366,1,8,0:0:0:0:
256,192,47412,1,8,0:0:0:0:
256,192,47457,1,8,0:0:0:0:
256,192,47503,1,0,0:0:0:0:
256,192,47639,1,0,0:0:0:0:
256,192,47707,1,0,0:0:0:0:
256,192,47775,1,8,0:0:0:0:
256,192,47844,1,0,0:0:0:0:
256,192,47912,1,8,0:0:0:0:
256,192,47980,1,8,0:0:0:0:
256,192,48048,1,0,0:0:0:0:
256,192,48185,1,8,0:0:0:0:
256,192,48321,1,0,0:0:0:0:
256,192,48389,1,0,0:0:0:0:
256,192,48457,1,8,0:0:0:0:
256,192,48594,1,8,0:0:0:0:
256,192,48730,1,0,0:0:0:0:
256,192,48798,1,0,0:0:0:0:
256,192,48866,1,8,0:0:0:0:
256,192,48935,1,0,0:0:0:0:
256,192,49003,1,8,0:0:0:0:
256,192,49139,1,0,0:0:0:0:
256,192,49275,1,8,0:0:0:0:
256,192,49344,1,0,0:0:0:0:
256,192,49412,1,8,0:0:0:0:
256,192,49480,1,8,0:0:0:0:
256,192,49548,1,0,0:0:0:0:
256,192,49616,1,0,0:0:0:0:
256,192,49685,1,8,0:0:0:0:
256,192,49753,1,0,0:0:0:0:
256,192,49821,1,8,0:0:0:0:
256,192,49957,1,8,0:0:0:0:
256,192,50025,1,0,0:0:0:0:
256,192,50094,1,8,0:0:0:0:
256,192,50230,1,0,0:0:0:0:
256,192,50366,1,12,0:0:0:0:
256,192,50503,1,0,0:0:0:0:
256,192,50571,1,0,0:0:0:0:
256,192,50639,1,8,0:0:0:0:
256,192,50776,1,8,0:0:0:0:
256,192,50912,1,8,0:0:0:0:
256,192,50980,1,8,0:0:0:0:
256,192,51049,1,0,0:0:0:0:
256,192,51117,1,8,0:0:0:0:
256,192,51185,1,0,0:0:0:0:
256,192,51253,1,0,0:0:0:0:
256,192,51321,1,8,0:0:0:0:
256,192,51458,1,8,0:0:0:0:
256,192,51594,1,0,0:0:0:0:
256,192,51662,1,0,0:0:0:0:
256,192,51730,1,8,0:0:0:0:
256,192,51776,1,8,0:0:0:0:
256,192,51821,1,8,0:0:0:0:
256,192,51867,1,0,0:0:0:0:
256,192,52003,1,0,0:0:0:0:
256,192,52071,1,0,0:0:0:0:
256,192,52139,1,8,0:0:0:0:
256,192,52208,1,0,0:0:0:0:
256,192,52276,1,8,0:0:0:0:
256,192,52344,1,8,0:0:0:0:
256,192,52412,1,0,0:0:0:0:
256,192,52548,1,4,0:0:0:0:
256,192,52821,1,8,0:0:0:0:
256,192,52957,1,4,0:0:0:0:
256,192,53230,1,12,0:0:0:0:
256,192,53503,1,4,0:0:0:0:
256,192,53775,1,0,0:0:0:0:
256,192,53912,1,8,0:0:0:0:
256,192,54048,1,0,0:0:0:0:
256,192,54185,1,8,0:0:0:0:
256,192,54253,1,8,0:0:0:0:
256,192,54321,1,8,0:0:0:0:
256,192,54457,1,0,0:0:0:0:
256,192,54525,1,0,0:0:0:0:
256,192,54594,1,0,0:0:0:0:
256,192,54730,1,12,0:0:0:0:
256,192,54866,1,0,0:0:0:0:
256,192,54934,1,0,0:0:0:0:
256,192,55002,1,8,0:0:0:0:
256,192,55139,1,8,0:0:0:0:
256,192,55275,1,0,0:0:0:0:
256,192,55343,1,8,0:0:0:0:
256,192,55412,1,0,0:0:0:0:
256,192,55480,1,0,0:0:0:0:
256,192,55548,1,8,0:0:0:0:
256,192,55616,1,0,0:0:0:0:
256,192,55684,1,8,0:0:0:0:
256,192,55821,1,8,0:0:0:0:
256,192,55957,1,0,0:0:0:0:
256,192,56025,1,0,0:0:0:0:
256,192,56093,1,8,0:0:0:0:
256,192,56139,1,8,0:0:0:0:
256,192,56184,1,8,0:0:0:0:
256,192,56230,1,0,0:0:0:0:
256,192,56366,1,8,0:0:0:0:
256,192,56434,1,0,0:0:0:0:
256,192,56502,1,8,0:0:0:0:
256,192,56571,1,0,0:0:0:0:
256,192,56639,1,8,0:0:0:0:
256,192,56707,1,8,0:0:0:0:
256,192,56775,1,0,0:0:0:0:
256,192,56912,1,8,0:0:0:0:
256,192,57048,1,0,0:0:0:0:
256,192,57116,1,0,0:0:0:0:
256,192,57185,1,8,0:0:0:0:
256,192,57321,1,8,0:0:0:0:
256,192,57457,1,0,0:0:0:0:
256,192,57525,1,0,0:0:0:0:
256,192,57594,1,8,0:0:0:0:
256,192,57662,1,0,0:0:0:0:
256,192,57730,1,8,0:0:0:0:
256,192,57866,1,0,0:0:0:0:
256,192,58003,1,8,0:0:0:0:
256,192,58071,1,0,0:0:0:0:
256,192,58139,1,8,0:0:0:0:
256,192,58207,1,0,0:0:0:0:
256,192,58275,1,8,0:0:0:0:
256,192,58344,1,8,0:0:0:0:
256,192,58412,1,0,0:0:0:0:
256,192,58480,1,0,0:0:0:0:
256,192,58548,1,8,0:0:0:0:
256,192,58685,1,8,0:0:0:0:
256,192,58753,1,0,0:0:0:0:
256,192,58821,1,8,0:0:0:0:
256,192,58957,1,0,0:0:0:0:
256,192,59094,1,12,0:0:0:0:
256,192,59230,1,0,0:0:0:0:
256,192,59298,1,0,0:0:0:0:
256,192,59366,1,8,0:0:0:0:
256,192,59503,1,0,0:0:0:0:
256,192,59639,1,8,0:0:0:0:
256,192,59707,1,0,0:0:0:0:
256,192,59776,1,8,0:0:0:0:
256,192,59844,1,8,0:0:0:0:
256,192,59912,1,0,0:0:0:0:
256,192,59980,1,0,0:0:0:0:
256,192,60048,1,8,0:0:0:0:
256,192,60185,1,8,0:0:0:0:
256,192,60321,1,0,0:0:0:0:
256,192,60389,1,0,0:0:0:0:
256,192,60457,1,8,0:0:0:0:
256,192,60503,1,8,0:0:0:0:
256,192,60548,1,8,0:0:0:0:
256,192,60594,1,0,0:0:0:0:
256,192,60730,1,0,0:0:0:0:
256,192,60798,1,0,0:0:0:0:
256,192,60866,1,8,0:0:0:0:
256,192,60935,1,8,0:0:0:0:
256,192,61003,1,0,0:0:0:0:
256,192,61071,1,0,0:0:0:0:
256,192,61139,1,8,0:0:0:0:
256,192,61275,1,4,0:0:0:0:
256,192,61548,1,8,0:0:0:0:
256,192,61685,1,4,0:0:0:0:
256,192,61957,1,12,0:0:0:0:
256,192,62230,1,4,0:0:0:0:
256,192,62503,1,0,0:0:0:0:
256,192,62639,1,8,0:0:0:0:
256,192,62775,1,0,0:0:0:0:
256,192,62912,1,8,0:0:0:0:
256,192,62980,1,8,0:0:0:0:
256,192,63048,1,8,0:0:0:0:
256,192,63185,1,0,0:0:0:0:
256,192,63253,1,0,0:0:0:0:
256,192,63321,1,0,0:0:0:0:
256,192,63457,1,12,0:0:0:0:
256,192,63730,1,0,0:0:0:0:
256,192,64003,1,8,0:0:0:0:
256,192,64071,1,0,0:0:0:0:
256,192,64139,1,8,0:0:0:0:
256,192,64275,1,8,0:0:0:0:
256,192,64412,1,8,0:0:0:0:
256,192,64548,1,0,0:0:0:0:
256,192,64684,1,0,0:0:0:0:
256,192,64753,1,0,0:0:0:0:
256,192,64821,1,8,0:0:0:0:
256,192,64957,1,8,0:0:0:0:
256,192,65093,1,8,0:0:0:0:
256,192,65162,1,0,0:0:0:0:
256,192,65230,1,8,0:0:0:0:
256,192,65298,1,8,0:0:0:0:
256,192,65366,1,0,0:0:0:0:
256,192,65639,1,8,0:0:0:0:
256,192,65775,1,8,0:0:0:0:
256,192,65844,1,8,0:0:0:0:
256,192,65912,1,0,0:0:0:0:
256,192,66048,1,8,0:0:0:0:
256,192,66185,1,0,0:0:0:0:
256,192,66253,1,8,0:0:0:0:
256,192,66321,1,0,0:0:0:0:
256,192,66457,1,8,0:0:0:0:
256,192,66594,1,8,0:0:0:0:
256,192,66730,1,0,0:0:0:0:
256,192,66866,1,0,0:0:0:0:
256,192,66935,1,0,0:0:0:0:
256,192,67003,1,8,0:0:0:0:
256,192,67139,1,0,0:0:0:0:
256,192,67275,1,8,0:0:0:0:
256,192,67548,1,8,0:0:0:0:
256,192,67821,1,4,0:0:0:0:
256,192,68094,1,8,0:0:0:0:
256,192,68367,1,8,0:0:0:0:
256,192,68435,1,0,0:0:0:0:
256,192,68503,1,8,0:0:0:0:
256,192,68639,1,0,0:0:0:0:
256,192,68776,1,8,0:0:0:0:
256,192,68912,1,0,0:0:0:0:
256,192,69048,1,0,0:0:0:0:
256,192,69117,1,0,0:0:0:0:
256,192,69185,1,8,0:0:0:0:
256,192,69321,1,8,0:0:0:0:
256,192,69457,1,8,0:0:0:0:
256,192,69525,1,0,0:0:0:0:
256,192,69594,1,8,0:0:0:0:
256,192,69662,1,8,0:0:0:0:
256,192,69730,1,0,0:0:0:0:
256,192,70003,1,8,0:0:0:0:
256,192,70139,1,8,0:0:0:0:
256,192,70207,1,8,0:0:0:0:
256,192,70276,1,0,0:0:0:0:
256,192,70412,1,8,0:0:0:0:
256,192,70549,1,0,0:0:0:0:
256,192,70616,1,0,0:0:0:0:
256,192,70685,1,8,0:0:0:0:
256,192,70821,1,0,0:0:0:0:
256,192,70958,1,8,0:0:0:0:
256,192,71025,1,0,0:0:0:0:
256,192,71093,1,8,0:0:0:0:
256,192,71230,1,0,0:0:0:0:
256,192,71366,1,8,0:0:0:0:
256,192,71503,1,0,0:0:0:0:
256,192,71639,1,8,0:0:0:0:
256,192,71775,1,8,0:0:0:0:
256,192,71912,1,0,0:0:0:0:
256,192,72048,1,8,0:0:0:0:
256,192,72185,1,4,0:0:0:0:
256,192,72458,1,8,0:0:0:0:
256,192,72731,1,8,0:0:0:0:
256,192,72867,1,0,0:0:0:0:
256,192,72935,1,0,0:0:0:0:
256,192,73003,1,8,0:0:0:0:
256,192,73140,1,8,0:0:0:0:
256,192,73276,1,0,0:0:0:0:
256,192,73412,1,0,0:0:0:0:
256,192,73481,1,0,0:0:0:0:
256,192,73549,1,8,0:0:0:0:
256,192,73617,1,8,0:0:0:0:
256,192,73685,1,0,0:0:0:0:
256,192,73821,1,8,0:0:0:0:
256,192,73958,1,8,0:0:0:0:
256,192,74026,1,0,0:0:0:0:
256,192,74094,1,8,0:0:0:0:
256,192,74162,1,8,0:0:0:0:
256,192,74231,1,0,0:0:0:0:
256,192,74367,1,8,0:0:0:0:
256,192,74503,1,8,0:0:0:0:
256,192,74571,1,0,0:0:0:0:
256,192,74708,1,8,0:0:0:0:
256,192,74775,1,0,0:0:0:0:
256,192,74912,1,0,0:0:0:0:
256,192,74981,1,0,0:0:0:0:
256,192,75049,1,0,0:0:0:0:
256,192,75117,1,0,0:0:0:0:
256,192,75185,1,8,0:0:0:0:
256,192,75321,1,8,0:0:0:0:
256,192,75457,1,0,0:0:0:0:
256,192,75594,1,0,0:0:0:0:
256,192,75662,1,8,0:0:0:0:
256,192,75730,1,0,0:0:0:0:
256,192,75866,1,0,0:0:0:0:
256,192,76003,1,8,0:0:0:0:
256,192,76071,1,8,0:0:0:0:
256,192,76139,1,0,0:0:0:0:
256,192,76207,1,0,0:0:0:0:
256,192,76275,1,12,0:0:0:0:
256,192,76548,1,4,0:0:0:0:
256,192,76821,1,8,0:0:0:0:
256,192,77094,1,8,0:0:0:0:
256,192,77162,1,8,0:0:0:0:
256,192,77230,1,0,0:0:0:0:
256,192,77298,1,0,0:0:0:0:
256,192,77366,1,8,0:0:0:0:
256,192,77503,1,8,0:0:0:0:
256,192,77639,1,0,0:0:0:0:
256,192,77707,1,0,0:0:0:0:
256,192,77775,1,8,0:0:0:0:
256,192,77844,1,0,0:0:0:0:
256,192,77912,1,8,0:0:0:0:
256,192,77980,1,8,0:0:0:0:
256,192,78048,1,0,0:0:0:0:
256,192,78184,1,8,0:0:0:0:
256,192,78321,1,8,0:0:0:0:
256,192,78389,1,0,0:0:0:0:
256,192,78457,1,8,0:0:0:0:
256,192,78525,1,8,0:0:0:0:
256,192,78594,1,0,0:0:0:0:
256,192,78730,1,8,0:0:0:0:
256,192,78798,1,0,0:0:0:0:
256,192,78866,1,8,0:0:0:0:
256,192,78935,1,0,0:0:0:0:
256,192,79003,1,8,0:0:0:0:
256,192,79071,1,8,0:0:0:0:
256,192,79139,1,0,0:0:0:0:
256,192,79207,1,0,0:0:0:0:
256,192,79275,1,8,0:0:0:0:
256,192,79344,1,0,0:0:0:0:
256,192,79412,1,8,0:0:0:0:
256,192,79480,1,0,0:0:0:0:
256,192,79548,1,8,0:0:0:0:
256,192,79616,1,8,0:0:0:0:
256,192,79685,1,0,0:0:0:0:
256,192,79753,1,0,0:0:0:0:
256,192,79821,1,8,0:0:0:0:
256,192,80094,1,8,0:0:0:0:
256,192,80230,1,8,0:0:0:0:
256,192,80366,1,0,0:0:0:0:
256,192,80435,1,0,0:0:0:0:
256,192,80503,1,0,0:0:0:0:
256,192,80639,1,8,0:0:0:0:
256,192,80707,1,8,0:0:0:0:
256,192,80775,1,8,0:0:0:0:
256,192,80912,1,4,0:0:0:0:
256,192,81185,1,0,0:0:0:0:
256,192,81253,1,0,0:0:0:0:
256,192,81321,1,8,0:0:0:0:
256,192,81457,1,0,0:0:0:0:
256,192,81525,1,8,0:0:0:0:
256,192,81594,1,0,0:0:0:0:
256,192,81662,1,0,0:0:0:0:
256,192,81730,1,8,0:0:0:0:
256,192,81866,1,0,0:0:0:0:
256,192,82003,1,8,0:0:0:0:
256,192,82139,1,0,0:0:0:0:
256,192,82275,1,0,0:0:0:0:
256,192,82412,1,8,0:0:0:0:
256,192,82548,1,8,0:0:0:0:
256,192,82616,1,8,0:0:0:0:
256,192,82685,1,8,0:0:0:0:
256,192,82821,1,0,0:0:0:0:
256,192,82957,1,8,0:0:0:0:
256,192,83094,1,4,0:0:0:0:
256,192,83366,1,8,0:0:0:0:
256,192,83503,1,4,0:0:0:0:
256,192,83775,1,4,0:0:0:0:
256,192,84048,1,4,0:0:0:0:
256,192,84185,2,0,L|320:192,10,35
256,192,85003,1,12,0:0:0:0:
256,192,85275,1,12,0:0:0:0:
256,192,85412,1,0,0:0:0:0:
256,192,85480,1,0,0:0:0:0:
256,192,85548,1,8,0:0:0:0:
256,192,85685,1,8,0:0:0:0:
256,192,85821,1,8,0:0:0:0:
256,192,85889,1,0,0:0:0:0:
256,192,85958,1,8,0:0:0:0:
256,192,86026,1,8,0:0:0:0:
256,192,86094,1,0,0:0:0:0:
256,192,86162,1,0,0:0:0:0:
256,192,86230,1,8,0:0:0:0:
256,192,86367,1,8,0:0:0:0:
256,192,86503,1,0,0:0:0:0:
256,192,86571,1,0,0:0:0:0:
256,192,86639,1,8,0:0:0:0:
256,192,86685,1,8,0:0:0:0:
256,192,86730,1,8,0:0:0:0:
256,192,86776,1,0,0:0:0:0:
256,192,86912,1,0,0:0:0:0:
256,192,86980,1,8,0:0:0:0:
256,192,87048,1,0,0:0:0:0:
256,192,87117,1,0,0:0:0:0:
256,192,87185,1,8,0:0:0:0:
256,192,87253,1,0,0:0:0:0:
256,192,87321,1,8,0:0:0:0:
256,192,87458,1,8,0:0:0:0:
256,192,87594,1,0,0:0:0:0:
256,192,87662,1,0,0:0:0:0:
256,192,87730,1,8,0:0:0:0:
256,192,87866,1,8,0:0:0:0:
256,192,88003,1,0,0:0:0:0:
256,192,88071,1,0,0:0:0:0:
256,192,88139,1,8,0:0:0:0:
256,192,88207,1,0,0:0:0:0:
256,192,88275,1,8,0:0:0:0:
256,192,88412,1,8,0:0:0:0:
256,192,88548,1,0,0:0:0:0:
256,192,88616,1,0,0:0:0:0:
256,192,88685,1,8,0:0:0:0:
256,192,88753,1,0,0:0:0:0:
256,192,88821,1,8,0:0:0:0:
256,192,88889,1,0,0:0:0:0:
256,192,88957,1,8,0:0:0:0:
256,192,89025,1,8,0:0:0:0:
256,192,89094,1,0,0:0:0:0:
256,192,89230,1,8,0:0:0:0:
256,192,89298,1,0,0:0:0:0:
256,192,89366,1,8,0:0:0:0:
256,192,89503,1,0,0:0:0:0:
256,192,89639,1,12,0:0:0:0:
256,192,89775,1,0,0:0:0:0:
256,192,89843,1,0,0:0:0:0:
256,192,89911,1,8,0:0:0:0:
256,192,90048,1,8,0:0:0:0:
256,192,90184,1,8,0:0:0:0:
256,192,90252,1,8,0:0:0:0:
256,192,90321,1,0,0:0:0:0:
256,192,90389,1,0,0:0:0:0:
256,192,90457,1,8,0:0:0:0:
256,192,90525,1,0,0:0:0:0:
256,192,90593,1,8,0:0:0:0:
256,192,90730,1,8,0:0:0:0:
256,192,90866,1,0,0:0:0:0:
256,192,90934,1,0,0:0:0:0:
256,192,91002,1,8,0:0:0:0:
256,192,91048,1,8,0:0:0:0:
256,192,91093,1,8,0:0:0:0:
256,192,91139,1,0,0:0:0:0:
256,192,91275,1,0,0:0:0:0:
256,192,91343,1,0,0:0:0:0:
256,192,91411,1,8,0:0:0:0:
256,192,91480,1,0,0:0:0:0:
256,192,91548,1,8,0:0:0:0:
256,192,91616,1,8,0:0:0:0:
256,192,91684,1,0,0:0:0:0:
256,192,91821,1,4,0:0:0:0:
256,192,92094,1,8,0:0:0:0:
256,192,92230,1,4,0:0:0:0:
256,192,92503,1,12,0:0:0:0:
256,192,92775,1,4,0:0:0:0:
256,192,93048,1,0,0:0:0:0:
256,192,93185,1,8,0:0:0:0:
256,192,93321,1,0,0:0:0:0:
256,192,93457,1,8,0:0:0:0:
256,192,93525,1,8,0:0:0:0:
256,192,93594,1,8,0:0:0:0:
256,192,93730,1,0,0:0:0:0:
256,192,93798,1,0,0:0:0:0:
256,192,93866,1,0,0:0:0:0:
256,192,94003,1,8,0:0:0:0:
256,192,94071,1,8,0:0:0:0:
256,192,94139,1,0,0:0:0:0:
256,192,94207,1,0,0:0:0:0:
256,192,94275,1,8,0:0:0:0:
256,192,94344,1,0,0:0:0:0:
256,192,94412,1,8,0:0:0:0:
256,192,94480,1,8,0:0:0:0:
256,192,94548,1,0,0:0:0:0:
256,192,94616,1,0,0:0:0:0:
256,192,94685,1,8,0:0:0:0:
256,192,94753,1,8,0:0:0:0:
256,192,94821,1,0,0:0:0:0:
256,192,94889,1,0,0:0:0:0:
256,192,94957,1,8,0:0:0:0:
256,192,95025,1,0,0:0:0:0:
256,192,95094,1,8,0:0:0:0:
256,192,95162,1,8,0:0:0:0:
256,192,95230,1,0,0:0:0:0:
256,192,95298,1,0,0:0:0:0:
256,192,95366,1,8,0:0:0:0:
256,192,95412,1,8,0:0:0:0:
256,192,95457,1,8,0:0:0:0:
256,192,95503,1,0,0:0:0:0:
256,192,95571,1,0,0:0:0:0:
256,192,95639,1,8,0:0:0:0:
256,192,95707,1,0,0:0:0:0:
256,192,95775,1,8,0:0:0:0:
256,192,95844,1,0,0:0:0:0:
256,192,95912,1,8,0:0:0:0:
256,192,95980,1,8,0:0:0:0:
256,192,96048,1,0,0:0:0:0:
256,192,96116,1,0,0:0:0:0:
256,192,96185,1,8,0:0:0:0:
256,192,96321,1,0,0:0:0:0:
256,192,96389,1,8,0:0:0:0:
256,192,96457,1,0,0:0:0:0:
256,192,96525,1,0,0:0:0:0:
256,192,96594,1,8,0:0:0:0:
256,192,96730,1,8,0:0:0:0:
256,192,96866,1,0,0:0:0:0:
256,192,96935,1,8,0:0:0:0:
256,192,97003,1,0,0:0:0:0:
256,192,97071,1,0,0:0:0:0:
256,192,97139,1,8,0:0:0:0:
256,192,97275,1,8,0:0:0:0:
256,192,97344,1,0,0:0:0:0:
256,192,97412,1,8,0:0:0:0:
256,192,97480,1,8,0:0:0:0:
256,192,97548,1,0,0:0:0:0:
256,192,97616,1,0,0:0:0:0:
256,192,97685,1,8,0:0:0:0:
256,192,97753,1,0,0:0:0:0:
256,192,97821,1,8,0:0:0:0:
256,192,97957,1,8,0:0:0:0:
256,192,98025,1,0,0:0:0:0:
256,192,98094,1,8,0:0:0:0:
256,192,98366,1,8,0:0:0:0:
256,192,98434,1,8,0:0:0:0:
256,192,98502,1,0,0:0:0:0:
256,192,98570,1,0,0:0:0:0:
256,192,98638,1,8,0:0:0:0:
256,192,98707,1,0,0:0:0:0:
256,192,98775,1,8,0:0:0:0:
256,192,98843,1,8,0:0:0:0:
256,192,98911,1,0,0:0:0:0:
256,192,98979,1,0,0:0:0:0:
256,192,99048,1,8,0:0:0:0:
256,192,99116,1,8,0:0:0:0:
256,192,99184,1,0,0:0:0:0:
256,192,99252,1,0,0:0:0:0:
256,192,99320,1,8,0:0:0:0:
256,192,99388,1,0,0:0:0:0:
256,192,99457,1,8,0:0:0:0:
256,192,99525,1,8,0:0:0:0:
256,192,99593,1,0,0:0:0:0:
256,192,99661,1,0,0:0:0:0:
256,192,99729,1,8,0:0:0:0:
256,192,99775,1,8,0:0:0:0:
256,192,99820,1,8,0:0:0:0:
256,192,99866,1,0,0:0:0:0:
256,192,99935,1,0,0:0:0:0:
256,192,100003,1,8,0:0:0:0:
256,192,100071,1,0,0:0:0:0:
256,192,100139,1,8,0:0:0:0:
256,192,100275,1,12,0:0:0:0:
256,192,100548,1,4,0:0:0:0:
256,192,100821,1,8,0:0:0:0:
256,192,100957,1,4,0:0:0:0:
256,192,101230,1,12,0:0:0:0:
256,192,101503,1,4,0:0:0:0:
256,192,101775,1,0,0:0:0:0:
256,192,101912,1,8,0:0:0:0:
256,192,101980,1,8,0:0:0:0:
256,192,102048,1,8,0:0:0:0:
256,192,102116,1,8,0:0:0:0:
256,192,102185,1,0,0:0:0:0:
256,192,102253,1,0,0:0:0:0:
256,192,102321,1,0,0:0:0:0:
256,192,102389,1,0,0:0:0:0:
256,192,102457,1,8,0:0:0:0:
256,192,102525,1,8,0:0:0:0:
256,192,102594,1,0,0:0:0:0:
256,192,102730,1,4,0:0:0:0:
256,192,103139,1,4,0:0:0:0:
256,192,103548,1,4,0:0:0:0:
256,192,103821,1,8,0:0:0:0:
256,192,103957,1,0,0:0:0:0:
256,192,104025,1,0,0:0:0:0:
256,192,104094,1,8,0:0:0:0:
256,192,104230,1,0,0:0:0:0:
256,192,104298,1,0,0:0:0:0:
256,192,104366,1,8,0:0:0:0:
256,192,104435,1,8,0:0:0:0:
256,192,104503,1,0,0:0:0:0:
256,192,104571,1,0,0:0:0:0:
256,192,104639,1,8,0:0:0:0:
256,192,104707,1,0,0:0:0:0:
256,192,104775,1,8,0:0:0:0:
256,192,104912,1,4,0:0:0:0:
256,192,105321,1,4,0:0:0:0:
256,192,105730,1,4,0:0:0:0:
256,192,106139,1,4,0:0:0:0:
256,192,106548,1,4,0:0:0:0:
256,192,106821,1,12,0:0:0:0:
256,192,107094,1,4,0:0:0:0:
256,192,107503,1,4,0:0:0:0:
256,192,107912,1,4,0:0:0:0:
256,192,108185,1,8,0:0:0:0:
256,192,108321,1,8,0:0:0:0:
256,192,108389,1,8,0:0:0:0:
256,192,108457,1,0,0:0:0:0:
256,192,108594,1,8,0:0:0:0:
256,192,108662,1,0,0:0:0:0:
256,192,108730,1,8,0:0:0:0:
256,192,108798,1,8,0:0:0:0:
256,192,108866,1,0,0:0:0:0:
256,192,108935,1,0,0:0:0:0:
256,192,109003,1,8,0:0:0:0:
256,192,109071,1,0,0:0:0:0:
256,192,109139,1,8,0:0:0:0:
256,192,109275,1,4,0:0:0:0:
256,192,109685,1,4,0:0:0:0:
256,192,109957,1,4,0:0:0:0:
256,192,110230,1,4,0:0:0:0:
256,192,110366,1,4,0:0:0:0:
256,192,110639,1,8,0:0:0:0:
256,192,110912,1,0,0:0:0:0:
