osu file format v14

[General]
AudioFilename: audio.mp3
AudioLeadIn: 0
PreviewTime: 46003
Countdown: 0
SampleSet: Normal
StackLeniency: 0.7
Mode: 1
LetterboxInBreaks: 0
WidescreenStoryboard: 0

[Editor]
Bookmarks: 185,8912,17639,26366,35094,46003,52548,54730,63457,72185,80912,85275,91821,94003,102730,110639,110912
DistanceSpacing: 0.9
BeatDivisor: 4
GridSize: 32
TimelineZoom: 1.7

[Metadata]
Title:TRICKL4SH 220
TitleUnicode:TRICKL4SH 220
Artist:Lite Show Magic
ArtistUnicode:Lite Show Magic
Creator:Taikocracy
Version:Ayyri's Muzukashii
Source:SOUND VOLTEX IV HEAVENLY HAVEN
Tags:SDVX KONAMI BEMANI Don't waste me! E.P. EP M3-36 M3 LSM C.H.S CHS Comiket 85 C85 CHSEP-0003 HARDCORE TANO*C Happy Hardcore Speedcore tpz Ayyri We are "LSM" LSMD-0001 Lick Dom Records C92 "Lite Show" TRICKLASH t+pazolite vs C-Show
BeatmapID:1347772
BeatmapSetID:635144

[Difficulty]
HPDrainRate:6
CircleSize:2
OverallDifficulty:5
ApproachRate:10
SliderMultiplier:1.4
SliderTickRate:1

[Events]
//Background and Video events
0,0,"TRICKL4SH 220.jpg",0,0
//Break Periods
//Storyboard Layer 0 (Background)
//Storyboard Layer 1 (Fail)
//Storyboard Layer 2 (Pass)
//Storyboard Layer 3 (Foreground)
//Storyboard Sound Samples

[TimingPoints]
185,272.727272727273,4,1,0,100,1,0
34412,-111.111111111111,4,1,0,100,0,0
34821,-117.647058823529,4,1,0,100,0,0
35094,-125,4,1,0,50,0,0
39457,-111.111111111111,4,1,0,75,0,0
43821,-107.52688172043,4,1,0,75,0,0
44912,-107.52688172043,4,1,0,50,0,0
45457,-105.263157894737,4,1,0,100,0,0
45730,-103.092783505155,4,1,0,100,0,0
46003,-100,4,1,0,100,0,1
52548,-100,4,1,0,100,0,0
54730,-100,4,1,0,100,0,1
63457,-100,4,1,0,100,0,0
85275,-100,4,1,0,100,0,1
91821,-100,4,1,0,100,0,0
94003,-100,4,1,0,100,0,1
102730,-100,4,1,0,100,0,0

[HitObjects]
256,192,185,5,4,0:0:0:0:
256,192,457,1,8,0:0:0:0:
256,192,730,1,8,0:0:0:0:
256,192,866,1,8,0:0:0:0:
256,192,1003,1,0,0:0:0:0:
256,192,1139,1,8,0:0:0:0:
256,192,1275,1,0,0:0:0:0:
256,192,1548,1,8,0:0:0:0:
256,192,1821,1,0,0:0:0:0:
256,192,2094,1,8,0:0:0:0:
256,192,2230,1,8,0:0:0:0:
256,192,2366,1,0,0:0:0:0:
256,192,2639,1,8,0:0:0:0:
256,192,2912,1,0,0:0:0:0:
256,192,3185,1,8,0:0:0:0:
256,192,3457,1,8,0:0:0:0:
256,192,3730,1,0,0:0:0:0:
256,192,3866,1,8,0:0:0:0:
256,192,4139,1,4,0:0:0:0:
256,192,4548,1,12,0:0:0:0:
256,192,5094,1,0,0:0:0:0:
256,192,5230,1,8,0:0:0:0:
256,192,5366,1,0,0:0:0:0:
256,192,5503,1,8,0:0:0:0:
256,192,5639,1,0,0:0:0:0:
256,192,5912,1,8,0:0:0:0:
256,192,6185,1,0,0:0:0:0:
256,192,6457,1,8,0:0:0:0:
256,192,6594,1,8,0:0:0:0:
256,192,6730,1,0,0:0:0:0:
256,192,7003,1,0,0:0:0:0:
256,192,7275,1,0,0:0:0:0:
256,192,7412,1,0,0:0:0:0:
256,192,7548,1,0,0:0:0:0:
256,192,7821,1,8,0:0:0:0:
256,192,8094,1,0,0:0:0:0:
256,192,8230,1,8,0:0:0:0:
256,192,8503,1,12,0:0:0:0:
256,192,8912,1,4,0:0:0:0:
256,192,9321,1,4,0:0:0:0:
256,192,9730,1,4,0:0:0:0:
256,192,10003,1,8,0:0:0:0:
256,192,10139,1,0,0:0:0:0:
256,192,10275,1,8,0:0:0:0:
256,192,10548,1,12,0:0:0:0:
256,192,10821,1,0,0:0:0:0:
256,192,11094,1,4,0:0:0:0:
256,192,11503,1,4,0:0:0:0:
256,192,11912,1,4,0:0:0:0:
256,192,12321,1,4,0:0:0:0:
256,192,12730,1,4,0:0:0:0:
256,192,13003,1,12,0:0:0:0:
256,192,13275,1,4,0:0:0:0:
256,192,13685,1,4,0:0:0:0:
256,192,14094,1,4,0:0:0:0:
256,192,14366,1,8,0:0:0:0:
256,192,14503,1,0,0:0:0:0:
256,192,14639,1,8,0:0:0:0:
256,192,14912,1,12,0:0:0:0:
256,192,15185,1,0,0:0:0:0:
256,192,15457,1,4,0:0:0:0:
256,192,15866,1,4,0:0:0:0:
256,192,16275,1,4,0:0:0:0:
256,192,16685,1,4,0:0:0:0:
256,192,17094,1,4,0:0:0:0:
256,192,17366,1,12,0:0:0:0:
256,192,17639,1,4,0:0:0:0:
256,192,17912,1,8,0:0:0:0:
256,192,18185,1,8,0:0:0:0:
256,192,18321,1,0,0:0:0:0:
256,192,18457,1,8,0:0:0:0:
256,192,18730,1,0,0:0:0:0:
256,192,19003,1,8,0:0:0:0:
256,192,19139,1,8,0:0:0:0:
256,192,19275,1,0,0:0:0:0:
256,192,19412,1,0,0:0:0:0:
256,192,19548,1,8,0:0:0:0:
256,192,19821,1,8,0:0:0:0:
256,192,20025,1,8,0:0:0:0:
256,192,20230,1,8,0:0:0:0:
256,192,20366,1,0,0:0:0:0:
256,192,20503,1,0,0:0:0:0:
256,192,20639,1,8,0:0:0:0:
256,192,20912,1,0,0:0:0:0:
256,192,21185,1,0,0:0:0:0:
256,192,21321,1,0,0:0:0:0:
256,192,21457,1,8,0:0:0:0:
256,192,21594,1,0,0:0:0:0:
256,192,21730,1,12,0:0:0:0:
256,192,22003,1,0,0:0:0:0:
256,192,22275,1,8,0:0:0:0:
256,192,22548,1,0,0:0:0:0:
256,192,22685,1,0,0:0:0:0:
256,192,22821,1,8,0:0:0:0:
256,192,23094,1,0,0:0:0:0:
256,192,23366,1,8,0:0:0:0:
256,192,23503,1,8,0:0:0:0:
256,192,23639,1,0,0:0:0:0:
256,192,23775,1,0,0:0:0:0:
256,192,23912,1,8,0:0:0:0:
256,192,24185,1,8,0:0:0:0:
256,192,24389,1,8,0:0:0:0:
256,192,24594,1,8,0:0:0:0:
256,192,24730,1,0,0:0:0:0:
256,192,24866,1,0,0:0:0:0:
256,192,25003,1,8,0:0:0:0:
256,192,25275,1,0,0:0:0:0:
256,192,25821,1,8,0:0:0:0:
256,192,26094,1,8,0:0:0:0:
256,192,26366,1,4,0:0:0:0:
256,192,26639,1,0,0:0:0:0:
256,192,26912,1,8,0:0:0:0:
256,192,27048,1,0,0:0:0:0:
256,192,27185,1,8,0:0:0:0:
256,192,27457,1,4,0:0:0:0:
256,192,27662,1,4,0:0:0:0:
256,192,27866,1,4,0:0:0:0:
256,192,28003,1,8,0:0:0:0:
256,192,28139,1,8,0:0:0:0:
256,192,28275,1,0,0:0:0:0:
256,192,28548,1,8,0:0:0:0:
256,192,28821,1,0,0:0:0:0:
256,192,28889,1,0,0:0:0:0:
256,192,28957,1,0,0:0:0:0:
256,192,29094,1,8,0:0:0:0:
256,192,29230,1,0,0:0:0:0:
256,192,29366,1,8,0:0:0:0:
256,192,29639,1,0,0:0:0:0:
256,192,29775,1,0,0:0:0:0:
256,192,29980,1,8,0:0:0:0:
256,192,30253,1,0,0:0:0:0:
256,192,30321,1,0,0:0:0:0:
256,192,30457,1,0,0:0:0:0:
256,192,30594,1,8,0:0:0:0:
256,192,30730,1,0,0:0:0:0:
256,192,31003,1,8,0:0:0:0:
256,192,31275,1,8,0:0:0:0:
256,192,31412,1,0,0:0:0:0:
256,192,31548,1,8,0:0:0:0:
256,192,31821,1,0,0:0:0:0:
256,192,31957,1,0,0:0:0:0:
256,192,32094,1,8,0:0:0:0:
256,192,32230,1,0,0:0:0:0:
256,192,32366,1,8,0:0:0:0:
256,192,32503,1,0,0:0:0:0:
256,192,32571,1,0,0:0:0:0:
256,192,32639,1,0,0:0:0:0:
256,192,32912,1,0,0:0:0:0:
256,192,33048,1,0,0:0:0:0:
256,192,33185,1,8,0:0:0:0:
256,192,33321,1,8,0:0:0:0:
256,192,33457,1,0,0:0:0:0:
256,192,33594,1,0,0:0:0:0:
256,192,33730,1,8,0:0:0:0:
256,192,33866,1,8,0:0:0:0:
256,192,34003,1,0,0:0:0:0:
256,192,34412,1,0,0:0:0:0:
256,192,34821,1,8,0:0:0:0:
256,192,35094,1,0,0:0:0:0:
256,192,35912,1,0,0:0:0:0:
256,192,36048,1,0,0:0:0:0:
256,192,36185,1,8,0:0:0:0:
256,192,36730,1,8,0:0:0:0:
256,192,37275,1,8,0:0:0:0:
256,192,37685,1,0,0:0:0:0:
256,192,38094,1,8,0:0:0:0:
256,192,38366,1,8,0:0:0:0:
256,192,38775,1,0,0:0:0:0:
256,192,38844,1,0,0:0:0:0:
256,192,38912,1,0,0:0:0:0:
256,192,39185,1,8,0:0:0:0:
256,192,39457,1,0,0:0:0:0:
256,192,39730,1,8,0:0:0:0:
256,192,40275,1,0,0:0:0:0:
256,192,40412,1,0,0:0:0:0:
256,192,40548,1,8,0:0:0:0:
256,192,40821,1,8,0:0:0:0:
256,192,41094,1,0,0:0:0:0:
256,192,41639,1,8,0:0:0:0:
256,192,42048,1,8,0:0:0:0:
256,192,42457,1,0,0:0:0:0:
256,192,42730,1,8,0:0:0:0:
256,192,43139,1,0,0:0:0:0:
256,192,43548,1,8,0:0:0:0:
256,192,43821,12,0,44912,0:0:0:0:
256,192,45457,5,12,0:0:0:0:
256,192,45730,1,4,0:0:0:0:
256,192,46003,1,12,0:0:0:0:
256,192,46275,1,8,0:0:0:0:
256,192,46548,1,0,0:0:0:0:
256,192,46685,1,8,0:0:0:0:
256,192,46821,1,8,0:0:0:0:
256,192,46957,1,0,0:0:0:0:
256,192,47094,1,8,0:0:0:0:
256,192,47366,1,8,0:0:0:0:
256,192,47435,1,8,0:0:0:0:
256,192,47503,1,8,0:0:0:0:
256,192,47639,1,0,0:0:0:0:
256,192,47912,1,8,0:0:0:0:
256,192,48048,1,8,0:0:0:0:
256,192,48185,1,0,0:0:0:0:
256,192,48457,1,8,0:0:0:0:
256,192,48730,1,0,0:0:0:0:
256,192,48866,1,0,0:0:0:0:
256,192,49003,1,8,0:0:0:0:
256,192,49275,1,8,0:0:0:0:
256,192,49548,1,0,0:0:0:0:
256,192,49685,1,8,0:0:0:0:
256,192,49821,1,8,0:0:0:0:
256,192,49957,1,0,0:0:0:0:
256,192,50025,1,0,0:0:0:0:
256,192,50094,1,0,0:0:0:0:
256,192,50366,1,4,0:0:0:0:
256,192,50639,1,8,0:0:0:0:
256,192,50912,1,0,0:0:0:0:
256,192,51048,1,8,0:0:0:0:
256,192,51185,1,8,0:0:0:0:
256,192,51321,1,0,0:0:0:0:
256,192,51457,1,8,0:0:0:0:
256,192,51730,1,8,0:0:0:0:
256,192,51798,1,8,0:0:0:0:
256,192,51866,1,8,0:0:0:0:
256,192,52003,1,0,0:0:0:0:
256,192,52139,1,0,0:0:0:0:
256,192,52275,1,8,0:0:0:0:
256,192,52412,1,0,0:0:0:0:
256,192,52548,1,4,0:0:0:0:
256,192,52957,1,4,0:0:0:0:
256,192,53230,1,12,0:0:0:0:
256,192,53503,1,4,0:0:0:0:
256,192,54185,1,8,0:0:0:0:
256,192,54457,1,0,0:0:0:0:
256,192,54730,1,12,0:0:0:0:
256,192,55003,1,8,0:0:0:0:
256,192,55275,1,0,0:0:0:0:
256,192,55412,1,8,0:0:0:0:
256,192,55548,1,8,0:0:0:0:
256,192,55685,1,0,0:0:0:0:
256,192,55821,1,8,0:0:0:0:
256,192,56094,1,8,0:0:0:0:
256,192,56162,1,8,0:0:0:0:
256,192,56230,1,8,0:0:0:0:
256,192,56366,1,0,0:0:0:0:
256,192,56639,1,8,0:0:0:0:
256,192,56775,1,8,0:0:0:0:
256,192,56912,1,0,0:0:0:0:
256,192,57185,1,8,0:0:0:0:
256,192,57457,1,0,0:0:0:0:
256,192,57594,1,0,0:0:0:0:
256,192,57730,1,8,0:0:0:0:
256,192,58003,1,8,0:0:0:0:
256,192,58275,1,0,0:0:0:0:
256,192,58412,1,8,0:0:0:0:
256,192,58548,1,8,0:0:0:0:
256,192,58685,1,0,0:0:0:0:
256,192,58753,1,0,0:0:0:0:
256,192,58821,1,0,0:0:0:0:
256,192,59094,1,4,0:0:0:0:
256,192,59366,1,8,0:0:0:0:
256,192,59639,1,0,0:0:0:0:
256,192,59775,1,8,0:0:0:0:
256,192,59912,1,8,0:0:0:0:
256,192,60048,1,0,0:0:0:0:
256,192,60185,1,8,0:0:0:0:
256,192,60457,1,8,0:0:0:0:
256,192,60525,1,8,0:0:0:0:
256,192,60594,1,8,0:0:0:0:
256,192,60730,1,0,0:0:0:0:
256,192,60866,1,0,0:0:0:0:
256,192,61003,1,8,0:0:0:0:
256,192,61139,1,0,0:0:0:0:
256,192,61275,1,4,0:0:0:0:
256,192,61685,1,4,0:0:0:0:
256,192,61957,1,12,0:0:0:0:
256,192,62230,1,4,0:0:0:0:
256,192,62912,1,8,0:0:0:0:
256,192,63185,1,0,0:0:0:0:
256,192,63457,1,4,0:0:0:0:
256,192,63730,1,8,0:0:0:0:
256,192,64003,1,8,0:0:0:0:
256,192,64139,1,0,0:0:0:0:
256,192,64275,1,8,0:0:0:0:
256,192,64548,1,0,0:0:0:0:
256,192,64821,1,8,0:0:0:0:
256,192,65094,1,0,0:0:0:0:
256,192,65230,1,0,0:0:0:0:
256,192,65366,1,8,0:0:0:0:
256,192,65639,1,8,0:0:0:0:
256,192,65775,1,0,0:0:0:0:
256,192,65844,1,0,0:0:0:0:
256,192,65912,1,0,0:0:0:0:
256,192,66048,1,0,0:0:0:0:
256,192,66185,1,8,0:0:0:0:
256,192,66457,1,8,0:0:0:0:
256,192,66594,1,8,0:0:0:0:
256,192,66730,1,0,0:0:0:0:
256,192,67003,1,0,0:0:0:0:
256,192,67139,1,0,0:0:0:0:
256,192,67275,1,8,0:0:0:0:
256,192,67548,1,0,0:0:0:0:
256,192,67821,1,8,0:0:0:0:
256,192,68094,1,8,0:0:0:0:
256,192,68366,1,0,0:0:0:0:
256,192,68503,1,0,0:0:0:0:
256,192,68639,1,8,0:0:0:0:
256,192,68912,1,0,0:0:0:0:
256,192,69185,1,8,0:0:0:0:
256,192,69457,1,0,0:0:0:0:
256,192,69594,1,0,0:0:0:0:
256,192,69730,1,8,0:0:0:0:
256,192,70003,1,8,0:0:0:0:
256,192,70139,1,0,0:0:0:0:
256,192,70207,1,0,0:0:0:0:
256,192,70275,1,0,0:0:0:0:
256,192,70412,1,0,0:0:0:0:
256,192,70548,1,8,0:0:0:0:
256,192,70821,1,8,0:0:0:0:
256,192,70957,1,8,0:0:0:0:
256,192,71094,1,0,0:0:0:0:
256,192,71639,1,0,0:0:0:0:
256,192,72185,1,4,0:0:0:0:
256,192,72457,1,8,0:0:0:0:
256,192,72730,1,8,0:0:0:0:
256,192,72866,1,0,0:0:0:0:
256,192,73003,1,8,0:0:0:0:
256,192,73275,1,0,0:0:0:0:
256,192,73548,1,8,0:0:0:0:
256,192,73685,1,8,0:0:0:0:
256,192,73821,1,0,0:0:0:0:
256,192,73957,1,0,0:0:0:0:
256,192,74094,1,8,0:0:0:0:
256,192,74366,1,8,0:0:0:0:
256,192,74571,1,8,0:0:0:0:
256,192,74775,1,8,0:0:0:0:
256,192,74912,1,0,0:0:0:0:
256,192,75048,1,0,0:0:0:0:
256,192,75185,1,8,0:0:0:0:
256,192,75457,1,0,0:0:0:0:
256,192,75730,1,0,0:0:0:0:
256,192,75866,1,0,0:0:0:0:
256,192,76003,1,8,0:0:0:0:
256,192,76139,1,0,0:0:0:0:
256,192,76275,1,12,0:0:0:0:
256,192,76548,1,0,0:0:0:0:
256,192,76821,1,8,0:0:0:0:
256,192,77094,1,8,0:0:0:0:
256,192,77230,1,0,0:0:0:0:
256,192,77366,1,8,0:0:0:0:
256,192,77639,1,0,0:0:0:0:
256,192,77912,1,8,0:0:0:0:
256,192,78048,1,8,0:0:0:0:
256,192,78185,1,0,0:0:0:0:
256,192,78321,1,0,0:0:0:0:
256,192,78457,1,8,0:0:0:0:
256,192,78730,1,0,0:0:0:0:
256,192,78866,1,0,0:0:0:0:
256,192,79003,1,8,0:0:0:0:
256,192,79139,1,8,0:0:0:0:
256,192,79275,1,0,0:0:0:0:
256,192,79412,1,0,0:0:0:0:
256,192,79548,1,8,0:0:0:0:
256,192,79685,1,8,0:0:0:0:
256,192,79821,1,0,0:0:0:0:
256,192,80230,1,8,0:0:0:0:
256,192,80366,1,0,0:0:0:0:
256,192,80639,1,8,0:0:0:0:
256,192,80912,1,0,0:0:0:0:
256,192,81185,1,8,0:0:0:0:
256,192,81321,1,0,0:0:0:0:
256,192,81457,1,0,0:0:0:0:
256,192,81594,1,8,0:0:0:0:
256,192,81730,1,8,0:0:0:0:
256,192,82003,1,0,0:0:0:0:
256,192,82139,1,0,0:0:0:0:
256,192,82275,1,8,0:0:0:0:
256,192,82412,1,8,0:0:0:0:
256,192,82548,1,0,0:0:0:0:
256,192,82685,1,0,0:0:0:0:
256,192,82821,1,8,0:0:0:0:
256,192,82957,1,8,0:0:0:0:
256,192,83094,1,0,0:0:0:0:
256,192,83366,1,0,0:0:0:0:
256,192,83503,1,8,0:0:0:0:
256,192,83639,1,0,0:0:0:0:
256,192,83775,1,8,0:0:0:0:
256,192,83912,1,0,0:0:0:0:
256,192,84048,1,8,0:0:0:0:
256,192,84185,2,0,L|312:192,12,35
256,192,85275,1,12,0:0:0:0:
256,192,85548,1,8,0:0:0:0:
256,192,85821,1,0,0:0:0:0:
256,192,85957,1,8,0:0:0:0:
256,192,86094,1,8,0:0:0:0:
256,192,86230,1,0,0:0:0:0:
256,192,86366,1,8,0:0:0:0:
256,192,86639,1,8,0:0:0:0:
256,192,86707,1,8,0:0:0:0:
256,192,86775,1,8,0:0:0:0:
256,192,86912,1,0,0:0:0:0:
256,192,87185,1,8,0:0:0:0:
256,192,87321,1,8,0:0:0:0:
256,192,87457,1,0,0:0:0:0:
256,192,87730,1,8,0:0:0:0:
256,192,88003,1,0,0:0:0:0:
256,192,88139,1,0,0:0:0:0:
256,192,88275,1,8,0:0:0:0:
256,192,88548,1,8,0:0:0:0:
256,192,88821,1,0,0:0:0:0:
256,192,88957,1,8,0:0:0:0:
256,192,89094,1,8,0:0:0:0:
256,192,89230,1,0,0:0:0:0:
256,192,89298,1,0,0:0:0:0:
256,192,89366,1,0,0:0:0:0:
256,192,89639,1,4,0:0:0:0:
256,192,89912,1,8,0:0:0:0:
256,192,90185,1,0,0:0:0:0:
256,192,90321,1,8,0:0:0:0:
256,192,90457,1,8,0:0:0:0:
256,192,90594,1,0,0:0:0:0:
256,192,90730,1,8,0:0:0:0:
256,192,91003,1,8,0:0:0:0:
256,192,91071,1,8,0:0:0:0:
256,192,91139,1,8,0:0:0:0:
256,192,91275,1,0,0:0:0:0:
256,192,91412,1,0,0:0:0:0:
256,192,91548,1,8,0:0:0:0:
256,192,91685,1,0,0:0:0:0:
256,192,91821,1,4,0:0:0:0:
256,192,92230,1,4,0:0:0:0:
256,192,92503,1,12,0:0:0:0:
256,192,92775,1,4,0:0:0:0:
256,192,93457,1,8,0:0:0:0:
256,192,93730,1,0,0:0:0:0:
256,192,94003,1,8,0:0:0:0:
256,192,94139,1,8,0:0:0:0:
256,192,94275,1,0,0:0:0:0:
256,192,94548,1,8,0:0:0:0:
256,192,94685,1,0,0:0:0:0:
256,192,94821,1,8,0:0:0:0:
256,192,94957,1,0,0:0:0:0:
256,192,95094,1,8,0:0:0:0:
256,192,95366,1,8,0:0:0:0:
256,192,95639,1,0,0:0:0:0:
256,192,95775,1,0,0:0:0:0:
256,192,95912,1,8,0:0:0:0:
256,192,96185,1,0,0:0:0:0:
256,192,96389,1,8,0:0:0:0:
256,192,96594,1,8,0:0:0:0:
256,192,96730,1,0,0:0:0:0:
256,192,96935,1,8,0:0:0:0:
256,192,97139,1,8,0:0:0:0:
256,192,97275,1,0,0:0:0:0:
256,192,97412,1,0,0:0:0:0:
256,192,97548,1,8,0:0:0:0:
256,192,97685,1,8,0:0:0:0:
256,192,97821,1,0,0:0:0:0:
256,192,97889,1,0,0:0:0:0:
256,192,97957,1,0,0:0:0:0:
256,192,98094,1,8,0:0:0:0:
256,192,98366,1,8,0:0:0:0:
256,192,98503,1,8,0:0:0:0:
256,192,98639,1,0,0:0:0:0:
256,192,98775,1,0,0:0:0:0:
256,192,98912,1,8,0:0:0:0:
256,192,99048,1,0,0:0:0:0:
256,192,99185,1,8,0:0:0:0:
256,192,99321,1,8,0:0:0:0:
256,192,99457,1,0,0:0:0:0:
256,192,99730,1,8,0:0:0:0:
256,192,100003,1,0,0:0:0:0:
256,192,100275,1,12,0:0:0:0:
256,192,100548,1,4,0:0:0:0:
256,192,100957,1,4,0:0:0:0:
256,192,101230,1,12,0:0:0:0:
256,192,101503,1,4,0:0:0:0:
256,192,101912,1,0,0:0:0:0:
256,192,102185,1,8,0:0:0:0:
256,192,102457,1,0,0:0:0:0:
256,192,102730,1,4,0:0:0:0:
256,192,103139,1,4,0:0:0:0:
256,192,103548,1,4,0:0:0:0:
256,192,103821,1,0,0:0:0:0:
256,192,103957,1,8,0:0:0:0:
256,192,104094,1,0,0:0:0:0:
256,192,104366,1,12,0:0:0:0:
256,192,104639,1,0,0:0:0:0:
256,192,104912,1,4,0:0:0:0:
256,192,105321,1,4,0:0:0:0:
256,192,105730,1,4,0:0:0:0:
256,192,106139,1,4,0:0:0:0:
256,192,106548,1,4,0:0:0:0:
256,192,106821,1,12,0:0:0:0:
256,192,107094,1,4,0:0:0:0:
256,192,107503,1,4,0:0:0:0:
256,192,107912,1,4,0:0:0:0:
256,192,108185,1,8,0:0:0:0:
256,192,108321,1,0,0:0:0:0:
256,192,108457,1,8,0:0:0:0:
256,192,108730,1,0,0:0:0:0:
256,192,108866,1,8,0:0:0:0:
256,192,109003,1,0,0:0:0:0:
256,192,109275,1,4,0:0:0:0:
256,192,109685,1,4,0:0:0:0:
256,192,109957,1,4,0:0:0:0:
256,192,110230,1,4,0:0:0:0:
256,192,110366,1,4,0:0:0:0:
256,192,110639,1,8,0:0:0:0:
256,192,110912,1,0,0:0:0:0:
