osu file format v14

[General]
AudioFilename: audio.mp3
AudioLeadIn: 0
PreviewTime: 46003
Countdown: 0
SampleSet: Normal
StackLeniency: 0.7
Mode: 1
LetterboxInBreaks: 0
WidescreenStoryboard: 0

[Editor]
Bookmarks: 8875,17602,26329,35057,45966,72148,78693,80875
DistanceSpacing: 0.8
BeatDivisor: 4
GridSize: 32
TimelineZoom: 3.299999

[Metadata]
Title:TRICKL4SH 220
TitleUnicode:TRICKL4SH 220
Artist:Lite Show Magic
ArtistUnicode:Lite Show Magic
Creator:Taikocracy
Version:Oni
Source:SOUND VOLTEX IV HEAVENLY HAVEN
Tags:SDVX KONAMI BEMANI Don't waste me! E.P. EP M3-36 M3 LSM C.H.S CHS Comiket 85 C85 CHSEP-0003 HARDCORE TANO*C Happy Hardcore Speedcore tpz Ayyri We are "LSM" LSMD-0001 Lick Dom Records C92 "Lite Show" TRICKLASH t+pazolite vs C-Show
BeatmapID:1347777
BeatmapSetID:635144

[Difficulty]
HPDrainRate:5.5
CircleSize:2
OverallDifficulty:5.5
ApproachRate:10
SliderMultiplier:1.4
SliderTickRate:1

[Events]
//Background and Video events
0,0,"anime_angel_w1.jpg",0,0
//Break Periods
//Storyboard Layer 0 (Background)
//Storyboard Layer 1 (Fail)
//Storyboard Layer 2 (Pass)
//Storyboard Layer 3 (Foreground)
//Storyboard Sound Samples

[TimingPoints]
185,272.727272727273,4,1,0,100,1,0
8912,-83.3333333333333,4,1,0,100,0,0
10003,-100,4,1,0,100,0,0
11094,-83.3333333333333,4,1,0,100,0,0
14366,-100,4,1,0,100,0,0
15457,-83.3333333333333,4,1,0,100,0,0
17639,-100,4,1,0,100,0,0
34275,-105.263157894737,4,1,0,95,0,0
34412,-111.111111111111,4,1,0,80,0,0
34548,-117.647058823529,4,1,0,85,0,0
34821,-125,4,1,0,80,0,0
35094,-133.333333333333,4,1,0,75,0,0
45457,-83.3333333333333,4,1,0,100,0,0
45730,-90.9090909090909,4,1,0,100,0,0
46003,-100,4,1,0,100,0,1
52548,-83.3333333333333,4,1,0,100,0,0
54185,-90.9090909090909,4,1,0,100,0,0
54457,-95.2380952380952,4,1,0,100,0,0
54730,-100,4,1,0,100,0,1
61275,-83.3333333333333,4,1,0,100,0,1
62912,-90.9090909090909,4,1,0,100,0,1
63185,-95.2380952380952,4,1,0,100,0,1
63457,-100,4,1,0,100,0,0
85275,-100,4,1,0,100,0,1
91821,-83.3333333333333,4,1,0,100,0,0
93457,-90.9090909090909,4,1,0,100,0,0
93730,-95.2380952380952,4,1,0,100,0,0
94003,-100,4,1,0,100,0,1
100548,-83.3333333333333,4,1,0,100,0,1
102730,-83.3333333333333,4,1,0,100,0,0
103821,-100,4,1,0,100,0,0
104912,-83.3333333333333,4,1,0,100,0,0
108185,-100,4,1,0,100,0,0
109275,-83.3333333333333,4,1,0,100,0,0
110639,-100,4,1,0,100,0,0

[HitObjects]
256,192,185,5,0,0:0:0:0:
256,192,457,1,8,0:0:0:0:
256,192,593,1,0,0:0:0:0:
256,192,662,1,0,0:0:0:0:
256,192,730,1,0,0:0:0:0:
256,192,866,1,8,0:0:0:0:
256,192,1139,1,0,0:0:0:0:
256,192,1275,1,8,0:0:0:0:
256,192,1412,1,0,0:0:0:0:
256,192,1480,1,0,0:0:0:0:
256,192,1548,1,8,0:0:0:0:
256,192,1684,1,0,0:0:0:0:
256,192,1821,1,8,0:0:0:0:
256,192,1957,1,0,0:0:0:0:
256,192,2093,1,8,0:0:0:0:
256,192,2162,1,8,0:0:0:0:
256,192,2230,1,8,0:0:0:0:
256,192,2298,1,8,0:0:0:0:
256,192,2366,1,0,0:0:0:0:
256,192,2503,1,0,0:0:0:0:
256,192,2571,1,0,0:0:0:0:
256,192,2639,1,8,0:0:0:0:
256,192,2775,1,0,0:0:0:0:
256,192,2912,1,0,0:0:0:0:
256,192,3048,1,8,0:0:0:0:
256,192,3321,1,0,0:0:0:0:
256,192,3457,1,8,0:0:0:0:
256,192,3593,1,0,0:0:0:0:
256,192,3662,1,0,0:0:0:0:
256,192,3730,1,8,0:0:0:0:
256,192,3866,1,0,0:0:0:0:
256,192,4003,1,8,0:0:0:0:
256,192,4139,1,4,0:0:0:0:
256,192,4412,1,8,0:0:0:0:
256,192,4548,1,4,0:0:0:0:
256,192,4821,1,8,0:0:0:0:
256,192,4957,1,0,0:0:0:0:
256,192,5025,1,0,0:0:0:0:
256,192,5093,1,8,0:0:0:0:
256,192,5230,1,0,0:0:0:0:
256,192,5503,1,0,0:0:0:0:
256,192,5639,1,8,0:0:0:0:
256,192,5775,1,8,0:0:0:0:
256,192,5843,1,8,0:0:0:0:
256,192,5912,1,0,0:0:0:0:
256,192,6048,1,0,0:0:0:0:
256,192,6184,1,8,0:0:0:0:
256,192,6321,1,0,0:0:0:0:
256,192,6457,1,8,0:0:0:0:
256,192,6593,1,0,0:0:0:0:
256,192,6730,5,4,0:0:0:0:
256,192,7003,1,4,0:0:0:0:
256,192,7275,1,4,0:0:0:0:
256,192,7548,1,4,0:0:0:0:
256,192,7821,1,0,0:0:0:0:
256,192,7957,1,0,0:0:0:0:
256,192,8093,1,8,0:0:0:0:
256,192,8230,1,0,0:0:0:0:
256,192,8503,1,8,0:0:0:0:
256,192,8571,1,8,0:0:0:0:
256,192,8639,1,0,0:0:0:0:
256,192,8775,1,8,0:0:0:0:
256,192,8912,1,4,0:0:0:0:
256,192,9321,1,4,0:0:0:0:
256,192,9730,1,12,0:0:0:0:
256,192,10003,1,8,0:0:0:0:
256,192,10139,1,0,0:0:0:0:
256,192,10207,1,0,0:0:0:0:
256,192,10275,1,8,0:0:0:0:
256,192,10412,1,0,0:0:0:0:
256,192,10548,1,8,0:0:0:0:
256,192,10684,1,8,0:0:0:0:
256,192,10753,1,8,0:0:0:0:
256,192,10821,1,0,0:0:0:0:
256,192,10957,1,8,0:0:0:0:
256,192,11094,1,4,0:0:0:0:
256,192,11503,1,4,0:0:0:0:
256,192,11912,1,4,0:0:0:0:
256,192,12321,1,4,0:0:0:0:
256,192,12730,1,4,0:0:0:0:
256,192,13003,1,12,0:0:0:0:
256,192,13275,1,4,0:0:0:0:
256,192,13684,1,4,0:0:0:0:
256,192,14093,1,4,0:0:0:0:
256,192,14366,1,8,0:0:0:0:
256,192,14503,1,0,0:0:0:0:
256,192,14571,1,0,0:0:0:0:
256,192,14639,1,8,0:0:0:0:
256,192,14775,1,0,0:0:0:0:
256,192,14912,1,8,0:0:0:0:
256,192,14980,1,8,0:0:0:0:
256,192,15048,1,0,0:0:0:0:
256,192,15184,1,8,0:0:0:0:
256,192,15321,1,0,0:0:0:0:
256,192,15457,1,4,0:0:0:0:
256,192,15866,1,4,0:0:0:0:
256,192,16275,1,4,0:0:0:0:
256,192,16684,1,4,0:0:0:0:
256,192,17093,1,4,0:0:0:0:
256,192,17366,1,12,0:0:0:0:
256,192,17639,1,4,0:0:0:0:
256,192,17912,1,8,0:0:0:0:
256,192,18048,1,0,0:0:0:0:
256,192,18184,1,8,0:0:0:0:
256,192,18321,1,8,0:0:0:0:
256,192,18389,1,8,0:0:0:0:
256,192,18457,1,0,0:0:0:0:
256,192,18730,1,8,0:0:0:0:
256,192,18866,1,0,0:0:0:0:
256,192,19003,1,8,0:0:0:0:
256,192,19139,1,0,0:0:0:0:
256,192,19207,1,0,0:0:0:0:
256,192,19275,1,8,0:0:0:0:
256,192,19412,1,0,0:0:0:0:
256,192,19548,1,8,0:0:0:0:
256,192,19821,1,0,0:0:0:0:
256,192,19957,1,8,0:0:0:0:
256,192,20025,1,0,0:0:0:0:
256,192,20162,1,8,0:0:0:0:
256,192,20230,1,0,0:0:0:0:
256,192,20366,1,8,0:0:0:0:
256,192,20434,1,8,0:0:0:0:
256,192,20503,1,0,0:0:0:0:
256,192,20571,1,0,0:0:0:0:
256,192,20639,1,8,0:0:0:0:
256,192,20775,1,0,0:0:0:0:
256,192,20912,1,8,0:0:0:0:
256,192,21048,1,0,0:0:0:0:
256,192,21116,1,0,0:0:0:0:
256,192,21184,1,8,0:0:0:0:
256,192,21321,1,0,0:0:0:0:
256,192,21457,1,8,0:0:0:0:
256,192,21594,1,0,0:0:0:0:
256,192,21730,1,12,0:0:0:0:
256,192,22003,1,4,0:0:0:0:
256,192,22275,1,8,0:0:0:0:
256,192,22412,1,0,0:0:0:0:
256,192,22548,1,8,0:0:0:0:
256,192,22684,1,8,0:0:0:0:
256,192,22753,1,8,0:0:0:0:
256,192,22821,1,0,0:0:0:0:
256,192,23093,1,0,0:0:0:0:
256,192,23230,1,0,0:0:0:0:
256,192,23298,1,0,0:0:0:0:
256,192,23366,1,8,0:0:0:0:
256,192,23503,1,0,0:0:0:0:
256,192,23639,1,8,0:0:0:0:
256,192,23775,1,8,0:0:0:0:
256,192,23912,1,0,0:0:0:0:
256,192,24184,1,8,0:0:0:0:
256,192,24321,1,0,0:0:0:0:
256,192,24389,1,8,0:0:0:0:
256,192,24525,1,0,0:0:0:0:
256,192,24593,1,8,0:0:0:0:
256,192,24730,1,8,0:0:0:0:
256,192,24798,1,0,0:0:0:0:
256,192,24866,1,0,0:0:0:0:
256,192,24934,1,0,0:0:0:0:
256,192,25003,1,8,0:0:0:0:
256,192,25139,1,0,0:0:0:0:
256,192,25275,1,8,0:0:0:0:
256,192,25821,1,0,0:0:0:0:
256,192,26366,1,8,0:0:0:0:
256,192,26503,1,0,0:0:0:0:
256,192,26571,1,0,0:0:0:0:
256,192,26639,1,8,0:0:0:0:
256,192,26775,1,0,0:0:0:0:
256,192,26912,1,8,0:0:0:0:
256,192,27048,1,8,0:0:0:0:
256,192,27184,1,0,0:0:0:0:
256,192,27457,1,8,0:0:0:0:
256,192,27662,1,0,0:0:0:0:
256,192,27866,1,8,0:0:0:0:
256,192,28003,1,0,0:0:0:0:
256,192,28139,1,0,0:0:0:0:
256,192,28207,1,0,0:0:0:0:
256,192,28275,1,8,0:0:0:0:
256,192,28412,1,0,0:0:0:0:
256,192,28548,1,8,0:0:0:0:
256,192,28684,1,8,0:0:0:0:
256,192,28753,1,8,0:0:0:0:
256,192,28821,1,0,0:0:0:0:
256,192,28957,1,8,0:0:0:0:
256,192,29093,1,0,0:0:0:0:
256,192,29230,1,0,0:0:0:0:
256,192,29366,1,8,0:0:0:0:
256,192,29639,1,8,0:0:0:0:
256,192,29775,1,8,0:0:0:0:
256,192,29912,1,0,0:0:0:0:
256,192,29980,1,8,0:0:0:0:
256,192,30253,1,8,0:0:0:0:
256,192,30321,1,8,0:0:0:0:
256,192,30457,1,8,0:0:0:0:
256,192,30593,1,0,0:0:0:0:
256,192,30730,1,8,0:0:0:0:
256,192,31003,1,0,0:0:0:0:
256,192,31275,1,8,0:0:0:0:
256,192,31412,1,8,0:0:0:0:
256,192,31548,1,0,0:0:0:0:
256,192,31821,1,8,0:0:0:0:
256,192,31957,1,0,0:0:0:0:
256,192,32025,1,0,0:0:0:0:
256,192,32093,1,8,0:0:0:0:
256,192,32230,1,0,0:0:0:0:
256,192,32366,1,8,0:0:0:0:
256,192,32503,1,8,0:0:0:0:
256,192,32639,1,0,0:0:0:0:
256,192,32912,1,8,0:0:0:0:
256,192,33048,1,0,0:0:0:0:
256,192,33184,1,8,0:0:0:0:
256,192,33321,1,0,0:0:0:0:
256,192,33457,1,8,0:0:0:0:
256,192,33593,1,0,0:0:0:0:
256,192,33730,1,8,0:0:0:0:
256,192,33866,1,0,0:0:0:0:
256,192,34003,1,8,0:0:0:0:
256,192,34275,1,8,0:0:0:0:
256,192,34412,1,8,0:0:0:0:
256,192,34548,1,0,0:0:0:0:
256,192,34821,1,8,0:0:0:0:
256,192,35094,1,4,0:0:0:0:
256,192,35912,1,0,0:0:0:0:
256,192,36048,1,0,0:0:0:0:
256,192,36184,1,8,0:0:0:0:
256,192,36730,1,8,0:0:0:0:
256,192,37275,1,8,0:0:0:0:
256,192,37685,1,0,0:0:0:0:
256,192,38094,1,8,0:0:0:0:
256,192,38366,1,0,0:0:0:0:
256,192,38775,1,8,0:0:0:0:
256,192,38843,1,8,0:0:0:0:
256,192,38912,1,0,0:0:0:0:
256,192,39184,1,8,0:0:0:0:
256,192,39457,1,0,0:0:0:0:
256,192,39730,1,8,0:0:0:0:
256,192,40003,1,0,0:0:0:0:
256,192,40275,1,0,0:0:0:0:
256,192,40412,1,0,0:0:0:0:
256,192,40548,1,8,0:0:0:0:
256,192,40821,1,8,0:0:0:0:
256,192,41093,1,0,0:0:0:0:
256,192,41366,1,0,0:0:0:0:
256,192,41503,1,0,0:0:0:0:
256,192,41639,1,8,0:0:0:0:
256,192,41912,1,8,0:0:0:0:
256,192,42184,1,0,0:0:0:0:
256,192,42457,1,8,0:0:0:0:
256,192,42593,1,8,0:0:0:0:
256,192,42730,1,0,0:0:0:0:
256,192,43003,1,8,0:0:0:0:
256,192,43275,1,0,0:0:0:0:
256,192,43548,1,0,0:0:0:0:
256,192,43821,1,8,0:0:0:0:
256,192,45457,1,12,0:0:0:0:
256,192,45730,1,4,0:0:0:0:
256,192,46003,1,4,0:0:0:0:
256,192,46139,1,0,0:0:0:0:
256,192,46207,1,0,0:0:0:0:
256,192,46275,1,8,0:0:0:0:
256,192,46412,1,0,0:0:0:0:
256,192,46548,1,8,0:0:0:0:
256,192,46616,1,8,0:0:0:0:
256,192,46684,1,0,0:0:0:0:
256,192,46753,1,0,0:0:0:0:
256,192,46821,1,8,0:0:0:0:
256,192,46957,1,8,0:0:0:0:
256,192,47093,1,0,0:0:0:0:
256,192,47230,1,0,0:0:0:0:
256,192,47366,1,8,0:0:0:0:
256,192,47639,1,0,0:0:0:0:
256,192,47707,1,0,0:0:0:0:
256,192,47775,1,8,0:0:0:0:
256,192,47912,1,8,0:0:0:0:
256,192,48048,1,0,0:0:0:0:
256,192,48184,1,8,0:0:0:0:
256,192,48321,1,8,0:0:0:0:
256,192,48457,1,0,0:0:0:0:
256,192,48593,1,8,0:0:0:0:
256,192,48730,1,0,0:0:0:0:
256,192,48866,1,0,0:0:0:0:
256,192,49003,1,8,0:0:0:0:
256,192,49139,1,8,0:0:0:0:
256,192,49275,1,0,0:0:0:0:
256,192,49412,1,0,0:0:0:0:
256,192,49548,1,8,0:0:0:0:
256,192,49684,1,0,0:0:0:0:
256,192,49821,1,8,0:0:0:0:
256,192,49957,1,0,0:0:0:0:
256,192,50025,1,0,0:0:0:0:
256,192,50093,1,8,0:0:0:0:
256,192,50366,1,0,0:0:0:0:
256,192,50503,1,8,0:0:0:0:
256,192,50571,1,8,0:0:0:0:
256,192,50639,1,0,0:0:0:0:
256,192,50775,1,8,0:0:0:0:
256,192,50912,1,0,0:0:0:0:
256,192,50980,1,0,0:0:0:0:
256,192,51048,1,8,0:0:0:0:
256,192,51116,1,8,0:0:0:0:
256,192,51185,1,0,0:0:0:0:
256,192,51321,1,8,0:0:0:0:
256,192,51457,1,0,0:0:0:0:
256,192,51593,1,0,0:0:0:0:
256,192,51730,1,8,0:0:0:0:
256,192,52003,1,8,0:0:0:0:
256,192,52071,1,8,0:0:0:0:
256,192,52139,1,0,0:0:0:0:
256,192,52275,1,8,0:0:0:0:
256,192,52412,1,0,0:0:0:0:
256,192,52548,1,12,0:0:0:0:
256,192,52957,1,4,0:0:0:0:
256,192,53230,1,12,0:0:0:0:
256,192,53503,1,4,0:0:0:0:
256,192,53775,1,0,0:0:0:0:
256,192,53912,1,8,0:0:0:0:
256,192,54184,1,8,0:0:0:0:
256,192,54457,1,0,0:0:0:0:
256,192,54730,1,4,0:0:0:0:
256,192,54866,1,0,0:0:0:0:
256,192,54934,1,0,0:0:0:0:
256,192,55003,1,8,0:0:0:0:
256,192,55139,1,8,0:0:0:0:
256,192,55275,1,0,0:0:0:0:
256,192,55343,1,0,0:0:0:0:
256,192,55412,1,8,0:0:0:0:
256,192,55480,1,8,0:0:0:0:
256,192,55548,1,0,0:0:0:0:
256,192,55684,1,8,0:0:0:0:
256,192,55821,1,0,0:0:0:0:
256,192,55957,1,0,0:0:0:0:
256,192,56093,1,8,0:0:0:0:
256,192,56366,1,8,0:0:0:0:
256,192,56434,1,8,0:0:0:0:
256,192,56503,1,0,0:0:0:0:
256,192,56639,1,8,0:0:0:0:
256,192,56775,1,0,0:0:0:0:
256,192,56912,1,8,0:0:0:0:
256,192,57048,1,8,0:0:0:0:
256,192,57184,1,0,0:0:0:0:
256,192,57321,1,8,0:0:0:0:
256,192,57457,1,0,0:0:0:0:
256,192,57593,1,0,0:0:0:0:
256,192,57730,1,8,0:0:0:0:
256,192,57866,1,0,0:0:0:0:
256,192,58003,1,8,0:0:0:0:
256,192,58139,1,8,0:0:0:0:
256,192,58275,1,0,0:0:0:0:
256,192,58412,1,8,0:0:0:0:
256,192,58548,1,0,0:0:0:0:
256,192,58684,1,0,0:0:0:0:
256,192,58753,1,0,0:0:0:0:
256,192,58821,1,8,0:0:0:0:
256,192,59093,1,4,0:0:0:0:
256,192,59230,1,8,0:0:0:0:
256,192,59298,1,8,0:0:0:0:
256,192,59366,1,0,0:0:0:0:
256,192,59503,1,8,0:0:0:0:
256,192,59639,1,8,0:0:0:0:
256,192,59707,1,8,0:0:0:0:
256,192,59775,1,0,0:0:0:0:
256,192,59843,1,0,0:0:0:0:
256,192,59912,1,8,0:0:0:0:
256,192,60048,1,0,0:0:0:0:
256,192,60184,1,8,0:0:0:0:
256,192,60321,1,0,0:0:0:0:
256,192,60457,1,8,0:0:0:0:
256,192,60730,1,8,0:0:0:0:
256,192,60798,1,8,0:0:0:0:
256,192,60866,1,0,0:0:0:0:
256,192,61003,1,8,0:0:0:0:
256,192,61139,1,0,0:0:0:0:
256,192,61275,1,12,0:0:0:0:
256,192,61684,1,4,0:0:0:0:
256,192,61957,1,12,0:0:0:0:
256,192,62230,1,4,0:0:0:0:
256,192,62503,1,0,0:0:0:0:
256,192,62639,1,8,0:0:0:0:
256,192,62912,1,8,0:0:0:0:
256,192,63184,1,0,0:0:0:0:
256,192,63457,1,4,0:0:0:0:
256,192,63730,1,8,0:0:0:0:
256,192,64003,1,8,0:0:0:0:
256,192,64071,1,8,0:0:0:0:
256,192,64139,1,0,0:0:0:0:
256,192,64275,1,8,0:0:0:0:
256,192,64548,1,0,0:0:0:0:
256,192,64684,1,0,0:0:0:0:
256,192,64753,1,0,0:0:0:0:
256,192,64821,1,8,0:0:0:0:
256,192,64957,1,0,0:0:0:0:
256,192,65093,1,8,0:0:0:0:
256,192,65230,1,8,0:0:0:0:
256,192,65366,1,0,0:0:0:0:
256,192,65639,1,8,0:0:0:0:
256,192,65775,1,8,0:0:0:0:
256,192,65843,1,8,0:0:0:0:
256,192,65912,1,0,0:0:0:0:
256,192,66048,1,8,0:0:0:0:
256,192,66184,1,0,0:0:0:0:
256,192,66457,1,8,0:0:0:0:
256,192,66593,1,0,0:0:0:0:
256,192,66730,1,8,0:0:0:0:
256,192,66866,1,8,0:0:0:0:
256,192,67003,1,0,0:0:0:0:
256,192,67275,1,8,0:0:0:0:
256,192,67548,1,8,0:0:0:0:
256,192,67821,1,4,0:0:0:0:
256,192,68093,1,8,0:0:0:0:
256,192,68366,1,0,0:0:0:0:
256,192,68434,1,0,0:0:0:0:
256,192,68503,1,8,0:0:0:0:
256,192,68639,1,8,0:0:0:0:
256,192,68912,1,8,0:0:0:0:
256,192,69048,1,8,0:0:0:0:
256,192,69116,1,8,0:0:0:0:
256,192,69184,1,0,0:0:0:0:
256,192,69321,1,8,0:0:0:0:
256,192,69457,1,0,0:0:0:0:
256,192,69593,1,0,0:0:0:0:
256,192,69730,1,8,0:0:0:0:
256,192,70003,1,0,0:0:0:0:
256,192,70139,1,0,0:0:0:0:
256,192,70207,1,0,0:0:0:0:
256,192,70275,1,8,0:0:0:0:
256,192,70412,1,0,0:0:0:0:
256,192,70548,1,8,0:0:0:0:
256,192,70821,1,0,0:0:0:0:
256,192,70957,1,8,0:0:0:0:
256,192,71093,1,0,0:0:0:0:
256,192,71639,1,8,0:0:0:0:
256,192,72184,1,4,0:0:0:0:
256,192,72457,1,8,0:0:0:0:
256,192,72593,1,0,0:0:0:0:
256,192,72730,1,8,0:0:0:0:
256,192,72866,1,8,0:0:0:0:
256,192,72934,1,8,0:0:0:0:
256,192,73003,1,0,0:0:0:0:
256,192,73275,1,8,0:0:0:0:
256,192,73412,1,0,0:0:0:0:
256,192,73548,1,8,0:0:0:0:
256,192,73684,1,0,0:0:0:0:
256,192,73753,1,0,0:0:0:0:
256,192,73821,1,8,0:0:0:0:
256,192,73957,1,8,0:0:0:0:
256,192,74093,1,0,0:0:0:0:
256,192,74366,1,8,0:0:0:0:
256,192,74503,1,0,0:0:0:0:
256,192,74571,1,8,0:0:0:0:
256,192,74707,1,0,0:0:0:0:
256,192,74775,1,8,0:0:0:0:
256,192,74912,1,8,0:0:0:0:
256,192,74980,1,0,0:0:0:0:
256,192,75048,1,0,0:0:0:0:
256,192,75116,1,0,0:0:0:0:
256,192,75184,1,8,0:0:0:0:
256,192,75321,1,0,0:0:0:0:
256,192,75457,1,8,0:0:0:0:
256,192,75593,1,0,0:0:0:0:
256,192,75662,1,0,0:0:0:0:
256,192,75730,1,8,0:0:0:0:
256,192,75866,1,0,0:0:0:0:
256,192,76003,1,8,0:0:0:0:
256,192,76275,1,12,0:0:0:0:
256,192,76548,1,4,0:0:0:0:
256,192,76821,1,8,0:0:0:0:
256,192,76957,1,0,0:0:0:0:
256,192,77093,1,8,0:0:0:0:
256,192,77230,1,8,0:0:0:0:
256,192,77298,1,8,0:0:0:0:
256,192,77366,1,0,0:0:0:0:
256,192,77639,1,8,0:0:0:0:
256,192,77775,1,0,0:0:0:0:
256,192,77843,1,0,0:0:0:0:
256,192,77912,1,8,0:0:0:0:
256,192,78048,1,0,0:0:0:0:
256,192,78184,1,8,0:0:0:0:
256,192,78321,1,8,0:0:0:0:
256,192,78457,1,0,0:0:0:0:
256,192,78730,1,8,0:0:0:0:
256,192,78866,1,0,0:0:0:0:
256,192,79003,1,8,0:0:0:0:
256,192,79139,1,0,0:0:0:0:
256,192,79275,1,8,0:0:0:0:
256,192,79412,1,0,0:0:0:0:
256,192,79548,1,8,0:0:0:0:
256,192,79684,1,0,0:0:0:0:
256,192,79821,1,8,0:0:0:0:
256,192,80093,1,0,0:0:0:0:
256,192,80230,1,0,0:0:0:0:
256,192,80366,1,8,0:0:0:0:
256,192,80639,1,8,0:0:0:0:
256,192,80912,1,4,0:0:0:0:
256,192,81048,1,0,0:0:0:0:
256,192,81116,1,0,0:0:0:0:
256,192,81184,1,8,0:0:0:0:
256,192,81321,1,8,0:0:0:0:
256,192,81457,1,0,0:0:0:0:
256,192,81525,1,0,0:0:0:0:
256,192,81593,1,8,0:0:0:0:
256,192,81662,1,8,0:0:0:0:
256,192,81730,1,0,0:0:0:0:
256,192,81866,1,8,0:0:0:0:
256,192,82003,1,0,0:0:0:0:
256,192,82275,1,8,0:0:0:0:
256,192,82412,1,0,0:0:0:0:
256,192,82548,1,0,0:0:0:0:
256,192,82616,1,0,0:0:0:0:
256,192,82684,1,8,0:0:0:0:
256,192,82821,1,8,0:0:0:0:
256,192,82957,1,0,0:0:0:0:
256,192,83093,1,4,0:0:0:0:
256,192,83503,1,4,0:0:0:0:
256,192,83775,1,4,0:0:0:0:
256,192,84048,1,4,0:0:0:0:
256,192,84184,12,4,84730,0:0:0:0:
256,192,85003,5,8,0:0:0:0:
256,192,85275,5,4,0:0:0:0:
256,192,85412,1,0,0:0:0:0:
256,192,85480,1,0,0:0:0:0:
256,192,85548,1,8,0:0:0:0:
256,192,85684,1,0,0:0:0:0:
256,192,85821,1,8,0:0:0:0:
256,192,85889,1,8,0:0:0:0:
256,192,85957,1,0,0:0:0:0:
256,192,86025,1,0,0:0:0:0:
256,192,86093,1,8,0:0:0:0:
256,192,86230,1,8,0:0:0:0:
256,192,86366,1,0,0:0:0:0:
256,192,86503,1,0,0:0:0:0:
256,192,86571,1,0,0:0:0:0:
256,192,86639,1,8,0:0:0:0:
256,192,86912,1,8,0:0:0:0:
256,192,86980,1,8,0:0:0:0:
256,192,87048,1,0,0:0:0:0:
256,192,87184,1,8,0:0:0:0:
256,192,87321,1,0,0:0:0:0:
256,192,87457,1,0,0:0:0:0:
256,192,87593,1,8,0:0:0:0:
256,192,87730,1,8,0:0:0:0:
256,192,87866,1,0,0:0:0:0:
256,192,88003,1,8,0:0:0:0:
256,192,88139,1,8,0:0:0:0:
256,192,88275,1,0,0:0:0:0:
256,192,88412,1,8,0:0:0:0:
256,192,88548,1,0,0:0:0:0:
256,192,88684,1,0,0:0:0:0:
256,192,88821,1,8,0:0:0:0:
256,192,88957,1,0,0:0:0:0:
256,192,89093,1,8,0:0:0:0:
256,192,89230,1,0,0:0:0:0:
256,192,89298,1,0,0:0:0:0:
256,192,89366,1,8,0:0:0:0:
256,192,89639,1,8,0:0:0:0:
256,192,89775,1,0,0:0:0:0:
256,192,89843,1,0,0:0:0:0:
256,192,89912,1,8,0:0:0:0:
256,192,90048,1,0,0:0:0:0:
256,192,90184,1,0,0:0:0:0:
256,192,90253,1,0,0:0:0:0:
256,192,90321,1,8,0:0:0:0:
256,192,90389,1,8,0:0:0:0:
256,192,90457,1,0,0:0:0:0:
256,192,90593,1,8,0:0:0:0:
256,192,90730,1,0,0:0:0:0:
256,192,90866,1,0,0:0:0:0:
256,192,90934,1,0,0:0:0:0:
256,192,91003,1,8,0:0:0:0:
256,192,91275,1,8,0:0:0:0:
256,192,91343,1,8,0:0:0:0:
256,192,91412,1,8,0:0:0:0:
256,192,91548,1,0,0:0:0:0:
256,192,91684,1,8,0:0:0:0:
256,192,91821,1,4,0:0:0:0:
256,192,92230,1,4,0:0:0:0:
256,192,92503,1,12,0:0:0:0:
256,192,92775,1,4,0:0:0:0:
256,192,93048,1,0,0:0:0:0:
256,192,93184,1,8,0:0:0:0:
256,192,93457,1,8,0:0:0:0:
256,192,93730,1,0,0:0:0:0:
256,192,94003,1,0,0:0:0:0:
256,192,94071,1,0,0:0:0:0:
256,192,94139,1,8,0:0:0:0:
256,192,94207,1,8,0:0:0:0:
256,192,94275,1,0,0:0:0:0:
256,192,94412,1,8,0:0:0:0:
256,192,94548,1,8,0:0:0:0:
256,192,94684,1,8,0:0:0:0:
256,192,94753,1,8,0:0:0:0:
256,192,94821,1,0,0:0:0:0:
256,192,94957,1,8,0:0:0:0:
256,192,95093,1,0,0:0:0:0:
256,192,95230,1,0,0:0:0:0:
256,192,95298,1,0,0:0:0:0:
256,192,95366,1,8,0:0:0:0:
256,192,95503,1,0,0:0:0:0:
256,192,95639,1,8,0:0:0:0:
256,192,95707,1,8,0:0:0:0:
256,192,95775,1,0,0:0:0:0:
256,192,95843,1,0,0:0:0:0:
256,192,95912,1,8,0:0:0:0:
256,192,96048,1,0,0:0:0:0:
256,192,96184,1,8,0:0:0:0:
256,192,96389,1,0,0:0:0:0:
256,192,96593,1,8,0:0:0:0:
256,192,96730,1,0,0:0:0:0:
256,192,96934,1,8,0:0:0:0:
256,192,97139,1,0,0:0:0:0:
256,192,97275,1,8,0:0:0:0:
256,192,97412,1,8,0:0:0:0:
256,192,97548,1,0,0:0:0:0:
256,192,97684,1,8,0:0:0:0:
256,192,97753,1,8,0:0:0:0:
256,192,97821,1,0,0:0:0:0:
256,192,97957,1,0,0:0:0:0:
256,192,98093,1,8,0:0:0:0:
256,192,98366,1,8,0:0:0:0:
256,192,98435,1,8,0:0:0:0:
256,192,98503,1,0,0:0:0:0:
256,192,98571,1,0,0:0:0:0:
256,192,98639,1,8,0:0:0:0:
256,192,98775,1,0,0:0:0:0:
256,192,98912,1,8,0:0:0:0:
256,192,99048,1,0,0:0:0:0:
256,192,99116,1,0,0:0:0:0:
256,192,99184,1,8,0:0:0:0:
256,192,99321,1,8,0:0:0:0:
256,192,99457,1,0,0:0:0:0:
256,192,99525,1,0,0:0:0:0:
256,192,99593,1,8,0:0:0:0:
256,192,99662,1,8,0:0:0:0:
256,192,99730,1,0,0:0:0:0:
256,192,99866,1,8,0:0:0:0:
256,192,100003,1,0,0:0:0:0:
256,192,100139,1,0,0:0:0:0:
256,192,100207,1,0,0:0:0:0:
256,192,100275,1,8,0:0:0:0:
256,192,100548,1,12,0:0:0:0:
256,192,100957,1,4,0:0:0:0:
256,192,101230,1,12,0:0:0:0:
256,192,101503,1,4,0:0:0:0:
256,192,101775,12,0,102457,0:0:0:0:
256,192,102730,5,4,0:0:0:0:
256,192,103139,1,4,0:0:0:0:
256,192,103548,1,12,0:0:0:0:
256,192,103821,1,8,0:0:0:0:
256,192,103957,1,8,0:0:0:0:
256,192,104025,1,8,0:0:0:0:
256,192,104093,1,0,0:0:0:0:
256,192,104230,1,8,0:0:0:0:
256,192,104366,1,0,0:0:0:0:
256,192,104503,1,0,0:0:0:0:
256,192,104571,1,0,0:0:0:0:
256,192,104639,1,8,0:0:0:0:
256,192,104775,1,0,0:0:0:0:
256,192,104912,1,4,0:0:0:0:
256,192,105321,1,4,0:0:0:0:
256,192,105730,1,4,0:0:0:0:
256,192,106139,1,4,0:0:0:0:
256,192,106548,1,4,0:0:0:0:
256,192,106821,1,12,0:0:0:0:
256,192,107093,1,4,0:0:0:0:
256,192,107503,1,4,0:0:0:0:
256,192,107912,1,4,0:0:0:0:
256,192,108321,1,8,0:0:0:0:
256,192,108457,1,0,0:0:0:0:
256,192,108593,1,8,0:0:0:0:
256,192,108662,1,8,0:0:0:0:
256,192,108730,1,0,0:0:0:0:
256,192,108866,1,8,0:0:0:0:
256,192,109003,1,0,0:0:0:0:
256,192,109139,1,8,0:0:0:0:
256,192,109275,1,4,0:0:0:0:
256,192,109684,1,12,0:0:0:0:
256,192,109957,1,4,0:0:0:0:
256,192,110230,1,12,0:0:0:0:
256,192,110366,1,4,0:0:0:0:
256,192,110639,1,8,0:0:0:0:
256,192,110912,1,0,0:0:0:0:
