osu file format v14

[General]
AudioFilename: audio.mp3
AudioLeadIn: 0
PreviewTime: 46003
Countdown: 0
SampleSet: Normal
StackLeniency: 0.7
Mode: 1
LetterboxInBreaks: 0
WidescreenStoryboard: 0

[Editor]
Bookmarks: 8875,17602,26329,35057,45966,72148,78693,80875
DistanceSpacing: 0.8
BeatDivisor: 4
GridSize: 32
TimelineZoom: 1.9

[Metadata]
Title:TRICKL4SH 220
TitleUnicode:TRICKL4SH 220
Artist:Lite Show Magic
ArtistUnicode:Lite Show Magic
Creator:Taikocracy
Version:Kantan
Source:SOUND VOLTEX IV HEAVENLY HAVEN
Tags:SDVX KONAMI BEMANI Don't waste me! E.P. EP M3-36 M3 LSM C.H.S CHS Comiket 85 C85 CHSEP-0003 HARDCORE TANO*C Happy Hardcore Speedcore tpz Ayyri We are "LSM" LSMD-0001 Lick Dom Records C92 "Lite Show" TRICKLASH t+pazolite vs C-Show
BeatmapID:1350948
BeatmapSetID:635144

[Difficulty]
HPDrainRate:7
CircleSize:2
OverallDifficulty:3.5
ApproachRate:10
SliderMultiplier:1.4
SliderTickRate:1

[Events]
//Background and Video events
0,0,"anime_angel_w1.jpg",0,0
//Break Periods
//Storyboard Layer 0 (Background)
//Storyboard Layer 1 (Fail)
//Storyboard Layer 2 (Pass)
//Storyboard Layer 3 (Foreground)
//Storyboard Sound Samples

[TimingPoints]
185,272.727272727273,4,1,0,100,1,0
46003,-100,4,1,0,100,0,1
52548,-100,4,1,0,100,0,0
54730,-100,4,1,0,100,0,1
63457,-100,4,1,0,100,0,0
85275,-100,4,1,0,100,0,1
91821,-100,4,1,0,100,0,0
94003,-100,4,1,0,100,0,1
102730,-100,4,1,0,100,0,0

[HitObjects]
256,192,185,5,0,0:0:0:0:
256,192,1275,1,8,0:0:0:0:
256,192,1821,1,0,0:0:0:0:
256,192,2366,1,8,0:0:0:0:
256,192,3457,1,8,0:0:0:0:
256,192,4139,1,4,0:0:0:0:
256,192,4548,1,4,0:0:0:0:
256,192,5639,1,8,0:0:0:0:
256,192,6730,1,4,0:0:0:0:
256,192,7275,1,4,0:0:0:0:
256,192,7821,1,8,0:0:0:0:
256,192,8912,5,4,0:0:0:0:
256,192,9730,1,4,0:0:0:0:
256,192,10275,1,0,0:0:0:0:
256,192,10548,1,8,0:0:0:0:
256,192,11094,1,4,0:0:0:0:
256,192,11912,1,4,0:0:0:0:
256,192,12730,1,4,0:0:0:0:
256,192,13275,1,4,0:0:0:0:
256,192,14094,1,4,0:0:0:0:
256,192,14639,1,0,0:0:0:0:
256,192,14912,1,8,0:0:0:0:
256,192,15457,1,4,0:0:0:0:
256,192,16275,1,4,0:0:0:0:
256,192,17094,1,4,0:0:0:0:
256,192,17639,1,8,0:0:0:0:
256,192,18185,1,0,0:0:0:0:
256,192,18457,1,8,0:0:0:0:
256,192,18730,1,0,0:0:0:0:
256,192,19275,1,8,0:0:0:0:
256,192,19821,1,0,0:0:0:0:
256,192,20912,1,8,0:0:0:0:
256,192,21730,1,0,0:0:0:0:
256,192,22003,1,8,0:0:0:0:
256,192,22548,1,0,0:0:0:0:
256,192,22821,1,8,0:0:0:0:
256,192,23094,1,0,0:0:0:0:
256,192,23639,1,8,0:0:0:0:
256,192,23912,1,8,0:0:0:0:
256,192,24185,1,0,0:0:0:0:
256,192,24730,5,0,0:0:0:0:
256,192,25275,1,8,0:0:0:0:
256,192,26366,5,0,0:0:0:0:
256,192,26912,1,0,0:0:0:0:
256,192,27185,1,8,0:0:0:0:
256,192,27457,1,0,0:0:0:0:
256,192,28003,1,8,0:0:0:0:
256,192,28548,1,0,0:0:0:0:
256,192,28821,1,0,0:0:0:0:
256,192,29094,1,8,0:0:0:0:
256,192,29639,1,0,0:0:0:0:
256,192,30730,1,0,0:0:0:0:
256,192,31275,1,0,0:0:0:0:
256,192,31548,1,8,0:0:0:0:
256,192,31821,1,0,0:0:0:0:
256,192,32366,1,8,0:0:0:0:
256,192,32912,5,0,0:0:0:0:
256,192,33457,1,8,0:0:0:0:
256,192,34003,1,0,0:0:0:0:
256,192,34821,1,8,0:0:0:0:
256,192,35094,1,0,0:0:0:0:
256,192,36185,1,8,0:0:0:0:
256,192,36730,1,8,0:0:0:0:
256,192,37275,1,0,0:0:0:0:
256,192,38366,1,8,0:0:0:0:
256,192,38912,1,0,0:0:0:0:
256,192,39457,1,8,0:0:0:0:
256,192,40548,1,0,0:0:0:0:
256,192,41094,1,8,0:0:0:0:
256,192,41639,1,8,0:0:0:0:
256,192,42457,1,8,0:0:0:0:
256,192,42730,1,0,0:0:0:0:
256,192,43548,1,0,0:0:0:0:
256,192,43821,12,0,45730,0:0:0:0:
256,192,46003,5,4,0:0:0:0:
256,192,46548,1,0,0:0:0:0:
256,192,46821,1,8,0:0:0:0:
256,192,47094,1,0,0:0:0:0:
256,192,48185,1,8,0:0:0:0:
256,192,48730,1,0,0:0:0:0:
256,192,49275,1,8,0:0:0:0:
256,192,49821,1,0,0:0:0:0:
256,192,50094,1,8,0:0:0:0:
256,192,50366,1,0,0:0:0:0:
256,192,50912,1,0,0:0:0:0:
256,192,51457,1,0,0:0:0:0:
256,192,51730,1,8,0:0:0:0:
256,192,52548,1,4,0:0:0:0:
256,192,53503,1,12,0:0:0:0:
256,192,54730,1,4,0:0:0:0:
256,192,55275,1,8,0:0:0:0:
256,192,55548,1,8,0:0:0:0:
256,192,55821,1,0,0:0:0:0:
256,192,56912,1,0,0:0:0:0:
256,192,57457,1,8,0:0:0:0:
256,192,58003,1,0,0:0:0:0:
256,192,58548,1,0,0:0:0:0:
256,192,58821,1,8,0:0:0:0:
256,192,59094,1,0,0:0:0:0:
256,192,59639,1,8,0:0:0:0:
256,192,60185,1,0,0:0:0:0:
256,192,60457,1,8,0:0:0:0:
256,192,61275,1,4,0:0:0:0:
256,192,62230,1,12,0:0:0:0:
256,192,63457,1,0,0:0:0:0:
256,192,64003,1,0,0:0:0:0:
256,192,64275,1,8,0:0:0:0:
256,192,64548,1,0,0:0:0:0:
256,192,65094,1,8,0:0:0:0:
256,192,65639,1,0,0:0:0:0:
256,192,66730,1,8,0:0:0:0:
256,192,67275,1,8,0:0:0:0:
256,192,67821,1,0,0:0:0:0:
256,192,68366,1,0,0:0:0:0:
256,192,68639,1,8,0:0:0:0:
256,192,68912,1,0,0:0:0:0:
256,192,69457,1,8,0:0:0:0:
256,192,70003,1,0,0:0:0:0:
256,192,70548,5,0,0:0:0:0:
256,192,71094,5,8,0:0:0:0:
256,192,72185,5,0,0:0:0:0:
256,192,72730,1,0,0:0:0:0:
256,192,73003,1,8,0:0:0:0:
256,192,73275,1,0,0:0:0:0:
256,192,73821,1,8,0:0:0:0:
256,192,74366,1,0,0:0:0:0:
256,192,75457,1,8,0:0:0:0:
256,192,76275,1,8,0:0:0:0:
256,192,76548,1,0,0:0:0:0:
256,192,77094,1,0,0:0:0:0:
256,192,77366,1,8,0:0:0:0:
256,192,77639,1,0,0:0:0:0:
256,192,78185,5,8,0:0:0:0:
256,192,78730,5,0,0:0:0:0:
256,192,79275,1,0,0:0:0:0:
256,192,79821,1,0,0:0:0:0:
256,192,80639,1,8,0:0:0:0:
256,192,80912,1,4,0:0:0:0:
256,192,82003,1,8,0:0:0:0:
256,192,82548,1,0,0:0:0:0:
256,192,82821,1,8,0:0:0:0:
256,192,83094,1,4,0:0:0:0:
256,192,83503,1,4,0:0:0:0:
256,192,84185,1,12,0:0:0:0:
256,192,85275,5,4,0:0:0:0:
256,192,85821,1,8,0:0:0:0:
256,192,86094,1,8,0:0:0:0:
256,192,86366,1,0,0:0:0:0:
256,192,86639,1,8,0:0:0:0:
256,192,87185,1,8,0:0:0:0:
256,192,87457,1,0,0:0:0:0:
256,192,88003,1,8,0:0:0:0:
256,192,88548,1,0,0:0:0:0:
256,192,89094,1,0,0:0:0:0:
256,192,89366,1,8,0:0:0:0:
256,192,89639,1,0,0:0:0:0:
256,192,90185,1,8,0:0:0:0:
256,192,90457,1,8,0:0:0:0:
256,192,90730,1,0,0:0:0:0:
256,192,91003,1,8,0:0:0:0:
256,192,91548,1,8,0:0:0:0:
256,192,91821,1,4,0:0:0:0:
256,192,92775,1,12,0:0:0:0:
256,192,94003,1,0,0:0:0:0:
256,192,94548,1,8,0:0:0:0:
256,192,94821,1,8,0:0:0:0:
256,192,95094,1,0,0:0:0:0:
256,192,95366,1,8,0:0:0:0:
256,192,95912,1,8,0:0:0:0:
256,192,96185,1,0,0:0:0:0:
256,192,96730,1,8,0:0:0:0:
256,192,97275,1,0,0:0:0:0:
256,192,97821,1,0,0:0:0:0:
256,192,98094,1,8,0:0:0:0:
256,192,98366,1,0,0:0:0:0:
256,192,98912,1,8,0:0:0:0:
256,192,99185,1,8,0:0:0:0:
256,192,99457,1,0,0:0:0:0:
256,192,99730,1,8,0:0:0:0:
256,192,100275,1,8,0:0:0:0:
256,192,100548,1,4,0:0:0:0:
256,192,101503,1,12,0:0:0:0:
256,192,102730,1,4,0:0:0:0:
256,192,103548,1,4,0:0:0:0:
256,192,103821,1,0,0:0:0:0:
256,192,104366,1,8,0:0:0:0:
256,192,104912,1,4,0:0:0:0:
256,192,105730,1,4,0:0:0:0:
256,192,106548,1,4,0:0:0:0:
256,192,107094,1,4,0:0:0:0:
256,192,107912,1,4,0:0:0:0:
256,192,108457,1,0,0:0:0:0:
256,192,108730,1,8,0:0:0:0:
256,192,109275,1,4,0:0:0:0:
256,192,110366,1,4,0:0:0:0:
256,192,110639,1,8,0:0:0:0:
256,192,110912,1,0,0:0:0:0:
