osu file format v14

[General]
AudioFilename: mp3.mp3
AudioLeadIn: 0
PreviewTime: 46003
Countdown: 0
SampleSet: None
StackLeniency: 0.7
Mode: 0
LetterboxInBreaks: 0
WidescreenStoryboard: 1

[Editor]
DistanceSpacing: 1
BeatDivisor: 4
GridSize: 4
TimelineZoom: 2.7

[Metadata]
Title:TRICKL4SH 220
TitleUnicode:TRICKL4SH 220
Artist:Lite Show Magic
ArtistUnicode:Lite Show Magic
Creator:Regou
Version:NeoSL's NORM4L
Source:SOUND VOLTEX IV HEAVENLY HAVEN
Tags:sdvx konami bemani ep m3-36 m3 lsm c.h.s chs comiket chsep-0003 hardcore tano*c happy don't waste me! e.p. c85 t+pazolite c-show [ Drop ] toybot LowComboFC Neoskylove Gloria Guard Priti Avena IntellectualBoy tricklash
BeatmapID:1310615
BeatmapSetID:616696

[Difficulty]
HPDrainRate:3.6
CircleSize:3.3
OverallDifficulty:4.2
ApproachRate:5
SliderMultiplier:1
SliderTickRate:1

[Events]
//Background and Video events
0,0,"BG1.jpg",0,0
//Break Periods
//Storyboard Layer 0 (Background)
//Storyboard Layer 1 (Fail)
//Storyboard Layer 2 (Pass)
//Storyboard Layer 3 (Foreground)
//Storyboard Sound Samples

[TimingPoints]
185,272.727272727273,4,3,1,70,1,0
185,-100,4,3,1,70,0,0
8912,-100,4,2,1,80,0,0
10003,-100,4,3,1,80,0,0
10616,-100,4,3,1,55,0,0
11094,-100,4,2,1,80,0,0
14366,-100,4,3,1,80,0,0
14980,-100,4,3,1,55,0,0
15457,-100,4,2,1,80,0,0
17366,-100,4,3,1,100,0,0
17571,-100,4,3,1,40,0,0
17639,-100,4,3,1,80,0,0
25685,-100,4,3,1,5,0,0
25821,-100,4,3,1,80,0,0
26230,-100,4,3,1,5,0,0
26366,-100,4,3,1,80,0,0
27457,-100,4,3,1,100,0,0
28003,-100,4,3,1,60,0,0
28275,-100,4,3,1,100,0,0
28548,-100,4,3,1,80,0,0
29639,-100,4,3,1,100,0,0
30730,-100,4,3,1,80,0,0
32912,-100,4,2,1,100,0,0
34003,-100,4,3,1,80,0,0
35025,-100,4,3,1,20,0,0
35094,-100,4,2,1,60,0,0
39457,-100,4,3,1,60,0,0
43821,-100,4,2,1,40,0,0
45048,-100,4,2,1,20,0,0
45185,-100,4,2,1,40,0,0
45457,-100,4,2,1,60,0,0
46003,-100,4,3,1,90,0,1
48185,-100,4,1,1,70,0,1
50366,-100,4,3,1,90,0,1
52548,-100,4,2,1,70,0,0
54730,-100,4,3,1,90,0,1
56912,-100,4,1,1,70,0,1
59094,-100,4,3,1,90,0,1
61275,-100,4,2,1,70,0,1
63457,-100,4,3,1,70,0,0
71503,-100,4,3,1,5,0,0
71639,-100,4,3,1,70,0,0
72048,-100,4,3,1,5,0,0
72185,-100,4,3,1,80,0,0
84212,-100,4,2,1,35,0,0
85003,-100,4,2,1,70,0,0
85139,-100,4,2,1,20,0,0
85275,-100,4,3,1,90,0,1
87457,-100,4,1,1,70,0,1
89639,-100,4,3,1,90,0,1
91821,-100,4,2,1,70,0,0
94003,-100,4,2,1,90,0,1
102730,-100,4,2,1,80,0,0
110503,-100,4,2,1,10,0,0
110639,-100,4,2,1,80,0,0
110776,-100,4,2,1,10,0,0
110912,-100,4,2,1,80,0,0

[Colours]
Combo1 : 128,0,255
Combo2 : 252,226,48
Combo3 : 255,99,23
Combo4 : 255,58,130

[HitObjects]
90,213,185,6,0,P|87:286|136:341,2,150,4|0|0,1:0|0:0|0:0,0:0:0:0:
128,122,1275,2,0,P|54:119|0:168,2,150,0|0|0,0:0|0:0|0:0,0:0:0:0:
219,161,2366,6,0,P|221:87|172:32,2,150,0|0|0,0:0|0:0|0:0,0:0:0:0:
181,253,3457,2,0,P|254:255|309:206,1,150,0|0,0:0|0:0,0:0:0:0:
389,147,4139,2,0,P|407:192|401:241,1,100,4|0,1:0|1:0,0:0:0:0:
379,287,4548,6,0,L|478:295,1,100,4|0,1:0|0:0,0:0:0:0:
420,377,5094,2,0,L|320:368,1,100,0|0,0:0|0:0,0:0:0:0:
228,327,5639,2,0,L|128:335,2,100,0|0|0,0:0|0:0|0:0,0:0:0:0:
287,246,6457,1,0,0:0:0:0:
378,287,6730,6,0,P|386:238|370:191,1,100,4|4,1:0|1:0,0:0:0:0:
293,127,7275,2,0,P|277:80|284:31,1,100,4|4,1:0|1:0,0:0:0:0:
377,72,7820,1,0,0:0:0:0:
165,205,8503,6,0,L|65:202,1,100,4|4,1:0|1:0,0:0:0:0:
25,170,8912,2,0,L|29:319,2,150,4|4|4,1:0|1:0|1:0,0:0:0:0:
106,111,10003,6,0,L|205:113,1,100,4|8,0:0|0:2,0:0:0:0:
266,193,10548,2,0,L|365:191,1,100,12|10,0:2|0:2,0:0:0:0:
373,291,11094,6,0,L|223:294,1,150,4|4,1:0|1:0,0:0:0:0:
116,189,11912,2,0,L|265:192,1,150,4|4,1:0|1:0,0:0:0:0:
373,87,12730,2,0,L|273:89,1,100,4|4,1:0|1:0,0:0:0:0:
185,41,13275,6,0,L|35:37,2,150,4|4|4,1:0|1:0|1:0,0:0:0:0:
273,89,14366,2,0,L|373:87,1,100,4|8,0:0|0:2,0:0:0:0:
392,185,14912,2,0,L|292:187,1,100,12|10,0:2|0:2,0:0:0:0:
197,154,15457,6,0,P|128:127|61:155,1,150,4|4,1:0|1:0,0:0:0:0:
60,305,16275,2,0,P|128:331|195:303,1,150,4|4,1:0|1:0,0:0:0:0:
292,187,17094,2,0,L|392:185,1,100,4|2,1:0|3:1,0:0:0:0:
394,285,17639,6,0,L|294:287,1,100,4|12,1:0|1:0,0:0:0:0:
195,303,18185,2,0,L|95:300,1,100,4|12,1:0|1:0,0:0:0:0:
5,256,18730,2,0,P|-4:305|9:352,2,100,4|12|4,1:0|1:0|1:0,0:0:0:0:
81,192,19548,1,12,1:0:0:0:
5,127,19821,6,0,P|-4:78|9:31,1,100,2|12,1:0|1:0,0:0:0:0:
108,45,20366,2,0,B|155:60|155:60|204:47,1,100,6|12,1:0|1:0,0:0:0:0:
298,13,20912,2,0,B|347:0|347:0|394:15,1,100,4|12,1:0|1:0,0:0:0:0:
468,82,21457,2,0,L|464:131,2,50,4|2|12,1:0|0:2|1:0,0:0:0:0:
372,113,22003,6,0,L|364:212,1,100,4|12,1:0|1:0,0:0:0:0:
404,303,22548,2,0,P|355:311|309:294,1,100,4|12,1:0|1:0,0:0:0:0:
227,236,23094,2,0,P|180:218|132:226,2,100,4|12|4,1:0|1:0|1:0,0:0:0:0:
309,294,23912,1,12,1:0:0:0:
364,212,24185,6,0,L|372:113,1,100,6|12,1:0|1:0,0:0:0:0:
290,53,24730,2,0,L|282:152,1,100,6|12,1:0|1:0,0:0:0:0:
227,236,25275,2,0,B|179:251|179:251|131:237,1,100,2|0,0:0|0:0,0:0:0:0:
78,151,25821,2,0,B|126:136|126:136|173:149,1,100,4|0,0:0|0:0,0:0:0:0:
227,236,26366,6,0,L|234:335,1,100,4|12,1:0|1:0,0:0:0:0:
327,372,26912,2,0,L|334:272,1,100,4|12,1:0|1:0,0:0:0:0:
365,177,27457,2,0,P|401:189|438:188,2,75,6|6|6,1:0|1:0|1:0,0:0:0:0:
338,135,28003,2,0,L|341:85,2,50,2|4|4,0:0|0:0|0:2,0:0:0:0:
242,165,28548,6,0,P|198:142|150:152,1,100,4|12,1:0|1:0,0:0:0:0:
72,214,29094,2,0,L|75:313,1,100,4|12,1:0|1:0,0:0:0:0:
172,336,29639,1,6,1:0:0:0:
172,336,29775,2,0,L|169:261,2,75,6|6|0,1:0|1:0|0:0,0:0:0:0:
267,366,30457,2,0,L|316:364,1,50,4|6,1:0|1:0,0:0:0:0:
364,348,30730,6,0,P|377:301|363:254,1,100,4|12,1:0|1:0,0:0:0:0:
271,214,31275,2,0,P|256:166|270:119,1,100,4|12,1:0|1:0,0:0:0:0:
343,50,31821,2,0,P|390:35|437:49,2,100,4|12|4,1:0|1:0|1:0,0:0:0:0:
270,119,32639,1,12,1:0:0:0:
197,50,32912,6,0,P|149:35|102:49,1,100,4|4,1:0|1:0,0:0:0:0:
46,132,33457,2,0,L|48:231,1,100,4|4,1:0|1:0,0:0:0:0:
52,332,34003,2,0,B|102:292|190:340|190:340|231:262|319:291,1,300,4|2,1:0|1:3,0:0:0:0:
405,341,35094,5,0,0:0:0:0:
84,108,36185,1,0,0:0:0:0:
467,216,37275,6,0,P|495:148|464:83,2,150,0|0|0,0:0|0:0|0:0,0:0:0:0:
370,238,38366,2,0,L|170:226,1,200,0|0,0:0|0:0,0:0:0:0:
91,163,39185,1,0,0:0:0:0:
151,83,39457,6,0,P|106:65|56:69,2,100,0|2|8,1:0|0:1|1:0,0:0:0:0:
337,158,40548,2,0,P|355:112|351:62,2,100,8|2|8,0:0|0:1|1:0,0:0:0:0:
262,343,41639,2,0,P|307:361|357:357,2,100,8|2|8,0:0|0:1|1:0,0:0:0:0:
77,268,42730,2,0,P|58:313|62:363,1,100,8|2,0:0|0:1,0:0:0:0:
161,378,43275,2,0,P|179:332|175:282,1,100,8|4,1:0|0:0,0:0:0:0:
138,190,43821,5,0,0:1:0:0:
256,192,43957,12,0,44912,0:0:0:0:
368,327,46003,6,0,P|440:331|490:278,2,150,6|2|12,1:0|0:1|1:0,0:0:0:0:
280,278,47094,2,0,L|278:378,1,100,4|14,1:0|1:1,0:0:0:0:
185,340,47639,2,0,L|183:240,1,100,4|14,1:0|1:1,0:0:0:0:
90,199,48185,6,0,L|94:348,2,150,4|2|12,1:0|0:2|1:0,0:0:0:0:
100,99,49275,2,0,P|149:102|191:77,1,100,4|12,1:0|1:0,0:0:0:0:
270,16,49821,2,0,L|369:18,1,100,4|12,1:0|1:0,0:0:0:0:
444,85,50366,6,0,P|466:155|447:226,2,150,6|2|12,1:0|0:1|1:1,0:0:0:0:
346,109,51457,2,0,P|334:157|350:204,1,100,4|14,1:0|1:1,0:0:0:0:
284,280,52003,2,0,P|235:268|188:284,1,100,4|14,1:0|1:0,0:0:0:0:
115,352,52548,6,0,P|146:285|119:217,1,150,6|6,1:0|1:0,0:0:0:0:
44,151,53230,1,6,1:0:0:0:
97,66,53503,2,0,L|196:52,1,100,6|4,1:0|1:0,0:0:0:0:
346,65,54185,2,0,P|361:112|351:160,1,100,4|4,1:2|1:2,0:0:0:0:
281,231,54730,6,0,P|352:218|411:262,2,150,6|2|12,1:0|0:1|1:0,0:0:0:0:
214,305,55821,2,0,P|167:319|124:297,1,100,4|14,1:0|1:1,0:0:0:0:
92,202,56366,2,0,L|107:103,1,100,4|14,1:0|1:0,0:0:0:0:
202,72,56912,6,0,L|179:220,2,150,4|2|12,1:0|0:2|1:0,0:0:0:0:
300,52,58003,2,0,L|284:150,1,100,4|12,1:0|1:0,0:0:0:0:
375,193,58548,2,0,L|359:291,1,100,4|12,1:0|1:0,0:0:0:0:
295,368,59094,6,0,P|364:343|436:362,2,150,6|2|12,1:0|0:1|1:0,0:0:0:0:
195,359,60185,2,0,B|207:310|207:310|193:262,1,100,4|14,1:0|1:1,0:0:0:0:
102,221,60730,2,0,B|88:173|88:173|100:124,1,100,4|14,1:0|1:0,0:0:0:0:
187,75,61275,6,0,P|259:93|330:70,1,150,6|6,1:0|1:0,0:0:0:0:
417,21,61957,1,6,1:0:0:0:
478,99,62230,2,0,L|467:198,1,100,6|4,1:0|1:0,0:0:0:0:
319,170,62912,2,0,L|329:70,1,100,4|4,1:2|1:2,0:0:0:0:
234,37,63457,5,0,1:0:0:0:
141,77,63730,2,0,B|126:132|148:179|148:179|171:224|148:271,1,200,8|8,1:0|1:0,0:0:0:0:
89,352,64548,1,0,1:0:0:0:
188,363,64821,2,0,L|385:332,1,200,8|8,1:0|1:0,0:0:0:0:
448,254,65639,5,0,1:0:0:0:
424,155,65912,2,0,B|369:148|338:182|338:182|298:220|239:203,1,200,8|8,1:0|1:0,0:0:0:0:
153,153,66730,2,0,L|162:53,1,100,0|8,1:0|1:0,0:0:0:0:
64,76,67275,2,0,L|54:175,1,100,2|2,1:2|1:2,0:0:0:0:
41,275,67821,5,0,1:0:0:0:
137,246,68094,2,0,B|195:229|235:267|235:267|266:301|321:293,1,200,8|8,1:0|1:0,0:0:0:0:
400,231,68912,1,0,1:0:0:0:
450,317,69185,2,0,L|453:117,1,200,8|8,1:0|1:0,0:0:0:0:
354,128,70003,5,0,1:0:0:0:
283,57,70275,2,0,B|215:44|150:62|150:62|188:69|205:95,1,200,8|8,1:0|1:0,0:0:0:0:
192,194,71094,2,0,B|149:212|93:203|93:203|116:261|91:298|91:298|151:300|190:288,1,300,2|0,0:0|0:0,0:0:0:0:
289,274,72185,6,0,P|304:320|291:368,2,100,0|8|0,1:0|1:2|1:0,0:0:0:0:
217,202,73003,1,8,1:2:0:0:
161,119,73275,2,0,P|148:71|163:24,2,100,0|8|0,1:0|1:2|1:0,0:0:0:0:
217,202,74094,1,8,1:2:0:0:
285,129,74366,6,0,L|384:118,1,100,2|8,1:0|2:2,0:0:0:0:
414,214,74912,2,0,L|314:224,1,100,2|8,1:1|1:2,0:0:0:0:
217,202,75457,2,0,L|117:212,1,100,0|8,1:0|1:2,0:0:0:0:
19,191,76003,1,2,1:0:0:0:
50,286,76275,1,14,1:2:0:0:
147,308,76548,6,0,L|246:297,1,100,4|8,1:0|1:2,1:0:0:0:
314,224,77094,2,0,L|413:213,1,100,0|8,1:0|1:2,1:0:0:0:
494,154,77639,2,0,P|512:200|507:249,2,100,0|8|0,1:0|1:2|1:0,1:0:0:0:
418,88,78457,1,8,0:2:0:0:
330,135,78730,6,0,P|284:154|237:142,1,100,4|4,1:0|1:0,0:0:0:0:
157,82,79275,2,0,P|109:69|64:88,1,100,4|4,1:0|1:0,0:0:0:0:
27,182,79821,2,0,L|39:331,2,150,0|0|2,1:0|1:0|1:1,0:0:0:0:
120,217,80912,6,0,L|132:366,2,150,4|0|2,1:0|0:0|0:1,0:0:0:0:
214,184,82003,2,0,B|259:197|308:166|308:166|300:226|347:252|347:252|383:211|437:221,1,300,0|2,0:0|0:2,0:0:0:0:
442,121,83094,6,0,B|408:125|377:102|377:102|349:76|302:76,1,150,4|4,1:0|1:0,0:0:0:0:
222,17,83775,1,4,1:0:0:0:
131,58,84048,1,4,1:0:0:0:
131,58,84185,6,0,B|90:32|90:32|91:221|91:221|141:183,1,300,6|12,1:1|1:3,0:0:0:0:
213,115,85275,6,0,P|237:159|237:209,1,100,6|12,1:0|1:0,0:0:0:0:
205,304,85821,2,0,P|254:293|303:302,1,100,4|12,1:0|1:0,0:0:0:0:
394,343,86366,2,0,P|442:351|491:341,2,100,4|14|4,1:0|1:1|1:0,0:0:0:0:
303,302,87185,1,14,1:1:0:0:
341,209,87457,6,0,B|388:204|414:225|414:225|441:247|484:235,2,150,4|2|12,1:0|0:2|1:0,0:0:0:0:
242,225,88548,2,0,P|192:225|152:196,1,100,4|12,1:0|1:0,0:0:0:0:
149,96,89094,2,0,P|189:67|238:67,1,100,4|12,1:0|1:0,0:0:0:0:
329,109,89639,6,0,L|341:209,1,100,6|12,1:0|1:0,0:0:0:0:
242,225,90185,2,0,L|230:325,1,100,4|12,1:0|1:0,0:0:0:0:
137,285,90730,2,0,L|149:185,2,100,4|14|4,1:0|1:1|1:0,0:0:0:0:
56,344,91548,1,12,1:0:0:0:
43,245,91821,6,0,L|60:96,1,150,6|6,1:0|1:0,0:0:0:0:
142,37,92503,1,6,1:0:0:0:
216,104,92775,2,0,L|316:116,1,100,6|0,1:0|0:0,0:0:0:0:
217,229,93457,2,0,L|117:241,1,100,6|14,1:2|1:3,0:0:0:0:
176,322,94003,6,0,L|276:310,1,100,4|12,1:0|1:0,0:0:0:0:
369,351,94548,2,0,L|357:251,1,100,4|12,1:0|1:0,0:0:0:0:
398,158,95094,2,0,L|298:170,1,100,4|12,1:0|1:0,0:0:0:0:
205,129,95639,2,0,L|217:229,1,100,4|12,1:0|1:0,0:0:0:0:
149,302,96185,6,0,L|193:362,2,75,4|12|4,1:0|1:0|1:0,0:0:0:0:
130,253,96730,2,0,P|94:266|57:263,2,75,4|12|4,1:0|1:0|1:0,0:0:0:0:
120,205,97275,2,0,L|113:155,1,50,4|4,1:0|1:0,0:0:0:0:
106,106,97548,2,0,L|56:99,2,50,4|4|4,1:0|1:0|1:0,0:0:0:0:
198,65,98094,1,14,1:0:0:0:
254,147,98366,6,0,P|304:154|348:133,1,100,4|12,1:0|1:0,0:0:0:0:
446,108,98912,2,0,P|439:157|460:201,1,100,4|12,1:0|1:0,0:0:0:0:
485,299,99457,2,0,P|435:292|391:313,1,100,4|12,1:0|1:0,0:0:0:0:
294,338,100003,2,0,P|300:288|279:244,1,100,4|14,1:0|1:0,0:0:0:0:
183,214,100548,6,0,P|110:225|49:184,1,150,6|6,1:0|1:0,0:0:0:0:
132,128,101230,1,6,1:0:0:0:
97,33,101503,2,0,P|147:28|192:47,1,100,2|4,1:0|1:0,0:0:0:0:
298,154,102185,2,0,P|347:158|392:139,1,100,2|6,1:2|1:2,0:0:0:0:
391,38,102730,6,0,P|318:31|252:65,2,150,4|4|4,1:0|1:0|1:0,0:0:0:0:
392,139,103821,2,0,P|347:158|298:154,1,100,4|8,1:0|3:2,0:0:0:0:
199,170,104366,2,0,P|218:215|213:264,1,100,8|2,1:0|1:2,0:0:0:0:
146,339,104912,6,0,P|214:314|276:351,1,150,4|4,1:0|1:0,0:0:0:0:
426,349,105730,2,0,P|401:280|438:218,1,150,4|4,1:0|1:0,0:0:0:0:
391,76,106548,2,0,P|346:94|298:83,1,100,4|4,1:0|1:0,0:0:0:0:
212,31,107094,6,0,P|139:24|89:77,2,150,4|4|4,1:0|1:0|1:0,0:0:0:0:
210,132,108185,2,0,L|206:231,1,100,0|8,0:0|3:2,0:0:0:0:
302,203,108730,2,0,L|298:302,1,100,8|4,1:0|1:0,0:0:0:0:
389,344,109275,6,0,L|394:194,1,150,4|4,1:0|1:0,0:0:0:0:
339,110,109957,1,4,1:0:0:0:
302,203,110230,2,0,L|300:252,1,50,4|4,1:0|1:0,0:0:0:0:
