osu file format v14

[General]
AudioFilename: mp3.mp3
AudioLeadIn: 0
PreviewTime: 46003
Countdown: 0
SampleSet: None
StackLeniency: 0.7
Mode: 0
LetterboxInBreaks: 0
WidescreenStoryboard: 1

[Editor]
Bookmarks: 24878
DistanceSpacing: 1.3
BeatDivisor: 4
GridSize: 32
TimelineZoom: 2.7

[Metadata]
Title:TRICKL4SH 220
TitleUnicode:TRICKL4SH 220
Artist:Lite Show Magic
ArtistUnicode:Lite Show Magic
Creator:Regou
Version:H4RD
Source:SOUND VOLTEX IV HEAVENLY HAVEN
Tags:sdvx konami bemani ep m3-36 m3 lsm c.h.s chs comiket chsep-0003 hardcore tano*c happy don't waste me! e.p. c85 t+pazolite c-show [ Drop ] toybot LowComboFC Neoskylove Gloria Guard Priti Avena IntellectualBoy tricklash
BeatmapID:1306781
BeatmapSetID:616696

[Difficulty]
HPDrainRate:4
CircleSize:4
OverallDifficulty:5.5
ApproachRate:7.5
SliderMultiplier:1.2
SliderTickRate:1

[Events]
//Background and Video events
0,0,"BG1.jpg",0,0
//Break Periods
2,35293,38557
2,63657,66375
2,68021,71285
//Storyboard Layer 0 (Background)
//Storyboard Layer 1 (Fail)
//Storyboard Layer 2 (Pass)
//Storyboard Layer 3 (Foreground)
//Storyboard Sound Samples

[TimingPoints]
185,272.727272727273,4,3,1,70,1,0
185,-100,4,3,1,70,0,0
8912,-100,4,2,1,80,0,0
10003,-100,4,3,1,80,0,0
10616,-100,4,3,1,55,0,0
11094,-100,4,2,1,80,0,0
14366,-100,4,3,1,80,0,0
15321,-100,4,3,1,55,0,0
15457,-100,4,2,1,80,0,0
17366,-100,4,3,1,100,0,0
17571,-100,4,3,1,40,0,0
17639,-100,4,3,1,80,0,0
25685,-100,4,3,1,5,0,0
25821,-100,4,3,1,80,0,0
26230,-100,4,3,1,5,0,0
26366,-100,4,3,1,80,0,0
27457,-100,4,3,1,100,0,0
28003,-100,4,3,1,60,0,0
28275,-100,4,3,1,100,0,0
28548,-100,4,3,1,80,0,0
29639,-100,4,3,1,100,0,0
30730,-100,4,3,1,80,0,0
32912,-100,4,2,1,100,0,0
34003,-100,4,3,1,80,0,0
35025,-100,4,3,1,20,0,0
35094,-100,4,2,1,60,0,0
39457,-133.333333333333,4,3,1,60,0,0
43821,-133.333333333333,4,2,1,40,0,0
45048,-133.333333333333,4,2,1,20,0,0
45185,-133.333333333333,4,2,1,40,0,0
45457,-133.333333333333,4,2,1,60,0,0
46003,-100,4,3,1,90,0,1
48185,-100,4,1,1,70,0,1
50366,-100,4,3,1,90,0,1
52548,-100,4,2,1,70,0,1
54457,-100,4,2,1,70,0,0
54730,-100,4,3,1,90,0,1
56912,-100,4,1,1,70,0,1
59094,-100,4,3,1,90,0,1
61275,-100,4,2,1,70,0,1
63457,-100,4,3,1,70,0,0
71503,-100,4,3,1,5,0,0
71639,-100,4,3,1,70,0,0
72048,-100,4,3,1,5,0,0
72185,-100,4,3,1,80,0,0
84219,-100,4,2,1,35,0,0
85003,-100,4,2,1,70,0,0
85139,-100,4,2,1,20,0,0
85275,-100,4,3,1,90,0,1
87457,-100,4,1,1,70,0,1
89639,-100,4,3,1,90,0,1
91821,-100,4,2,1,70,0,0
94003,-100,4,2,1,90,0,1
102730,-100,4,2,1,80,0,0
110503,-100,4,2,1,10,0,0
110639,-100,4,2,1,80,0,0
110776,-100,4,2,1,10,0,0
110912,-100,4,2,1,80,0,0

[Colours]
Combo1 : 128,0,255
Combo2 : 252,226,48
Combo3 : 255,99,23
Combo4 : 255,58,130

[HitObjects]
28,159,185,6,0,P|16:102|54:35,2,120,4|0|0,1:0|0:0|0:0,0:0:0:0:
0,232,866,2,0,P|57:232|103:186,1,120,0|0,0:0|0:0,0:0:0:0:
138,73,1275,6,0,B|215:66|179:100|271:91,1,120,0|0,0:0|0:0,0:0:0:0:
324,63,1685,2,0,P|336:33|335:4,1,60,0|0,0:0|0:0,0:0:0:0:
317,138,1957,2,0,P|300:202|333:257,1,120,0|0,0:0|0:0,0:0:0:0:
320,372,2366,6,0,P|343:351|351:322,1,60,0|0,0:0|0:0,0:0:0:0:
275,311,2639,2,0,L|200:315,1,60,0|0,0:0|0:0,0:0:0:0:
399,257,2912,1,0,0:0:0:0:
399,257,3048,2,0,L|523:272,1,120,0|0,0:0|0:0,0:0:0:0:
477,67,3457,6,0,P|474:29|465:-9,1,60,0|0,0:0|0:0,0:0:0:0:
431,130,3730,2,0,P|459:146|489:154,1,60,0|0,0:0|0:0,0:0:0:0:
400,59,4003,1,0,0:0:0:0:
400,59,4139,2,0,P|338:66|269:76,1,120,4|0,1:0|1:0,0:0:0:0:
156,25,4548,5,4,1:0:0:0:
156,25,4821,2,0,P|187:17|219:24,1,60,0|0,0:0|0:0,0:0:0:0:
280,74,5094,1,0,0:0:0:0:
205,100,5230,2,0,B|195:169|227:149|213:232,1,120,0|0,0:0|0:0,0:0:0:0:
62,198,5639,6,0,P|106:191|125:189,1,60,0|0,0:0|0:0,0:0:0:0:
135,333,5912,2,0,P|91:340|72:342,1,60,0|0,0:0|0:0,0:0:0:0:
103,265,6185,1,0,0:0:0:0:
216,326,6321,2,0,P|279:343|332:301,1,120,0|0,0:0|0:0,0:0:0:0:
377,181,6730,6,0,P|372:215|372:245,1,60,4|0,1:0|0:0,0:0:0:0:
394,104,7003,2,0,P|399:67|399:40,1,60,4|0,1:0|0:0,0:0:0:0:
452,158,7275,2,0,L|516:163,1,60,4|0,1:0|0:0,0:0:0:0:
319,125,7548,2,0,L|255:120,1,60,4|0,1:0|0:0,0:0:0:0:
24,162,8503,6,0,L|26:117,5,30,4|4|4|4|4|4,1:0|1:0|1:0|1:0|1:0|1:0,0:0:0:0:
26,114,8912,5,4,1:0:0:0:
238,6,9321,1,4,1:0:0:0:
225,229,9730,1,4,1:0:0:0:
97,235,10003,6,0,P|94:205|92:169,1,60,4|4,0:0|0:0,0:0:0:0:
67,307,10275,2,0,P|46:337|14:368,1,60,8|4,0:2|0:0,0:0:0:0:
142,301,10548,2,0,B|252:292|213:344|343:333,1,180,12|10,0:2|0:2,0:0:0:0:
512,225,11094,5,4,1:0:0:0:
393,376,11503,1,4,1:0:0:0:
212,310,11912,1,4,1:0:0:0:
219,118,12321,1,4,1:0:0:0:
409,50,12730,6,0,P|405:82|387:112,1,60,4|0,1:0|0:0,0:0:0:0:
315,192,13003,2,0,P|344:179|379:180,1,60,4|0,1:0|0:0,0:0:0:0:
452,157,13275,5,4,1:0:0:0:
307,376,13685,1,4,1:0:0:0:
215,133,14094,1,4,1:0:0:0:
152,338,14366,6,0,P|155:302|159:267,1,60,4|4,0:0|0:0,0:0:0:0:
287,235,14639,2,0,P|258:251|226:262,1,60,8|4,0:2|0:0,0:0:0:0:
174,204,14912,2,0,B|67:187|115:255|-2:235,1,180,12|10,0:2|0:2,0:0:0:0:
48,11,15457,6,0,P|125:26|171:122,1,180,4|4,1:0|1:0,0:0:0:0:
293,337,16275,2,0,P|215:321|169:225,1,180,4|4,1:0|1:0,0:0:0:0:
247,44,17094,2,0,P|296:41|371:33,1,120,4|2,1:0|3:1,0:0:0:0:
492,266,17639,6,0,P|448:234|379:240,2,120,4|12|4,1:0|1:0|1:0,0:0:0:0:
423,303,18321,1,0,0:0:0:0:
383,366,18457,2,0,P|411:374|441:374,1,60,12|0,1:0|0:0,0:0:0:0:
272,285,18730,6,0,L|264:151,1,120,4|12,1:0|1:0,0:0:0:0:
259,90,19139,1,0,0:0:0:0:
327,54,19275,2,0,B|339:86|339:86|329:119,1,60,4|0,1:0|0:0,0:0:0:0:
189,119,19548,2,0,B|177:87|177:87|187:54,1,60,12|0,1:0|0:0,0:0:0:0:
176,239,19821,6,0,B|106:234|125:257|42:250,1,120,2|12,1:0|1:0,0:0:0:0:
11,178,20230,2,0,P|51:174|75:169,1,60,0|6,0:0|1:0,0:0:0:0:
76,331,20503,2,0,P|46:325|16:323,2,60,2|12|2,0:2|1:0|0:0,0:0:0:0:
154,351,20912,5,4,1:0:0:0:
358,351,21185,2,0,P|362:309|360:281,1,60,8|0,1:0|0:0,0:0:0:0:
295,244,21457,5,4,1:0:0:0:
256,315,21594,1,2,0:2:0:0:
216,244,21730,1,12,1:0:0:0:
495,131,22003,6,0,P|443:167|386:158,2,120,4|12|4,1:0|1:0|1:0,0:0:0:0:
426,94,22685,1,0,0:0:0:0:
383,31,22821,2,0,P|411:20|441:21,1,60,12|0,1:0|0:0,0:0:0:0:
446,248,23094,6,0,B|372:241|407:272|308:263,1,120,4|12,1:0|1:0,0:0:0:0:
251,273,23503,1,0,0:0:0:0:
251,273,23639,2,0,P|248:303|252:333,1,60,4|0,1:0|0:0,0:0:0:0:
277,197,23912,2,0,P|248:189|219:184,1,60,12|0,1:0|0:0,0:0:0:0:
98,153,24185,6,0,L|87:20,1,120,6|8,1:0|1:0,0:0:0:0:
10,22,24594,2,0,B|7:50|7:50|14:85,1,60,0|6,0:0|1:0,0:0:0:0:
171,73,24866,2,0,B|174:45|174:45|167:10,2,60,2|12|2,0:2|1:0|3:0,0:0:0:0:
184,152,25275,6,0,B|391:144|273:279|536:258,1,360,2|0,0:0|0:0,0:0:0:0:
455,65,26366,6,0,P|461:31|455:-12,1,60,4|0,1:0|0:0,0:0:0:0:
403,122,26639,2,0,P|462:142|522:106,1,120,12|4,1:0|1:0,0:0:0:0:
380,47,27048,1,0,0:0:0:0:
380,47,27185,2,0,P|341:41|304:30,1,60,12|0,1:0|0:0,0:0:0:0:
203,18,27457,6,4,L|199:118,2,90,6|6|6,1:0|1:0|1:0,0:0:0:0:
103,52,28003,2,0,L|114:121,1,60,2|4,0:0|0:0,0:0:0:0:
11,87,28275,2,0,L|35:150,1,60,4|2,0:2|0:1,0:0:0:0:
124,337,28548,6,0,P|134:306|131:270,1,60,4|0,1:0|0:0,0:0:0:0:
205,251,28821,2,0,P|173:215|100:210,1,120,12|4,1:0|1:0,0:0:0:0:
0,260,29230,1,0,0:0:0:0:
0,260,29366,2,0,L|64:271,1,60,12|0,1:0|0:0,0:0:0:0:
228,359,29639,5,6,1:0:0:0:
228,359,29775,2,0,P|284:353|333:344,1,90,6|6,1:0|1:0,0:0:0:0:
462,203,30253,2,0,L|464:167,3,30,4|6|0|4,1:0|1:0|0:0|1:0,0:0:0:0:
449,282,30594,1,6,1:0:0:0:
385,227,30730,6,0,B|305:172|305:172|334:9,1,240,4|4,1:0|1:0,0:0:0:0:
398,121,31412,1,0,0:0:0:0:
398,121,31548,2,0,P|402:81|410:33,1,60,12|0,1:0|0:0,0:0:0:0:
243,72,31821,6,0,B|175:65|209:107|112:92,1,120,4|12,1:0|1:0,0:0:0:0:
76,153,32230,1,0,0:0:0:0:
51,80,32366,2,0,P|45:46|53:17,1,60,4|0,1:0|0:0,0:0:0:0:
76,153,32639,2,0,P|76:189|58:226,1,60,12|0,1:0|0:0,0:0:0:0:
5,319,32912,6,0,L|0:251,1,60,4|4,1:0|1:0,0:0:0:0:
149,342,33185,6,0,L|154:274,1,60,4|4,1:0|1:0,0:0:0:0:
294,319,33457,6,0,L|289:251,1,60,4|4,1:0|1:0,0:0:0:0:
438,342,33730,6,0,L|443:274,1,60,4|4,1:0|1:0,0:0:0:0:
399,190,34003,6,0,B|444:167|523:115|528:23|462:-41|374:-31|327:40|362:135|422:165|485:182,1,480,4|0,1:0|0:0,0:0:0:0:
486,311,39457,6,0,B|429:330|377:300|349:227|349:227|343:303|303:342|233:353,1,360.000013732911,0|8,1:0|0:0,0:0:0:0:
224,276,40821,2,0,P|222:233|213:175,2,90.0000034332277,2|8|4,0:1|1:0|0:0,0:0:0:0:
164,331,41639,6,0,P|97:341|31:396,2,135.000005149841,8|0|4,0:0|0:0|0:0,0:0:0:0:
129,259,42730,2,0,P|84:228|5:217,2,135.000005149841,8|0|4,0:0|0:0|0:0,0:0:0:0:
152,182,43821,1,0,0:1:0:0:
256,192,43889,12,4,45457,1:2:0:0:
206,256,46003,6,0,B|134:249|159:278|62:263,1,120,6|12,1:0|1:0,0:0:0:0:
0,333,46412,2,0,B|72:326|47:355|144:340,1,120,2|0,0:1|0:0,0:0:0:0:
150,181,46821,2,0,P|183:176|213:172,1,60,12|2,1:0|0:1,0:0:0:0:
287,155,47094,5,4,1:0:0:0:
23,40,47366,1,14,1:1:0:0:
271,231,47639,6,0,P|310:231|339:215,1,60,4|0,1:0|0:0,0:0:0:0:
303,79,47912,2,0,P|274:77|246:88,1,60,14|0,1:0|0:0,0:0:0:0:
445,102,48185,6,0,L|452:33,2,60,4|2|12,1:0|0:2|1:0,0:0:0:0:
466,177,48594,2,0,L|515:222,2,60,2|4|2,0:2|1:0|0:2,0:0:0:0:
391,160,49003,1,12,1:0:0:0:
222,305,49275,6,0,L|229:374,2,60,4|2|12,1:0|0:2|1:0,0:0:0:0:
243,230,49684,2,0,L|292:185,2,60,2|4|2,0:2|1:0|0:2,0:0:0:0:
168,247,50093,1,12,1:0:0:0:
59,125,50366,6,0,P|39:73|66:6,1,120,6|12,1:0|1:0,0:0:0:0:
123,169,50775,2,0,P|56:200|-3:172,1,120,2|0,0:1|0:0,0:0:0:0:
131,94,51185,2,0,L|198:77,1,60,12|2,1:1|0:1,0:0:0:0:
264,58,51457,5,4,1:0:0:0:
219,331,51730,1,14,1:1:0:0:
398,36,52003,6,0,L|335:30,1,60,4|0,1:0|0:0,0:0:0:0:
336,142,52275,2,0,L|273:136,1,60,14|0,1:0|0:1,0:0:0:0:
506,120,52548,5,6,1:0:0:0:
506,120,52957,1,6,1:0:0:0:
257,275,53230,1,6,1:0:0:0:
6,120,53503,1,6,1:0:0:0:
6,120,53775,6,0,P|20:86|38:61,2,60,0|0|0,1:0|1:0|1:0,1:0:0:0:
84,133,54185,2,0,B|75:207|97:182|86:260,1,120,4|4,1:2|1:2,0:0:0:0:
45,365,54730,6,0,P|113:375|160:341,1,120,6|12,1:0|1:0,0:0:0:0:
285,187,55139,2,0,P|217:177|170:211,1,120,2|0,0:1|0:0,0:0:0:0:
238,315,55548,2,0,P|241:278|244:245,1,60,12|2,1:0|0:1,0:0:0:0:
165,276,55821,5,4,1:0:0:0:
490,215,56094,1,14,1:1:0:0:
249,5,56366,6,0,P|213:11|183:20,1,60,4|0,1:0|0:0,0:0:0:0:
145,94,56639,2,0,P|109:100|79:109,1,60,14|0,1:0|0:0,0:0:0:0:
71,247,56912,6,0,L|57:181,2,60,4|2|12,1:0|0:2|1:0,0:0:0:0:
45,321,57321,2,0,L|-4:378,2,60,2|4|2,0:2|1:0|0:2,0:0:0:0:
121,307,57730,1,12,1:0:0:0:
248,168,58003,6,0,L|234:234,2,60,4|2|12,1:0|0:2|1:0,0:0:0:0:
222,94,58412,2,0,L|173:37,2,60,2|4|2,0:2|1:0|0:2,0:0:0:0:
298,108,58821,1,12,1:0:0:0:
504,268,59094,6,0,B|425:258|456:289|376:276,1,120,6|12,1:0|1:0,0:0:0:0:
356,349,59503,2,0,P|316:312|320:234,1,120,2|0,0:1|0:0,0:0:0:0:
370,144,59912,2,0,L|380:217,1,60,12|2,1:0|0:1,0:0:0:0:
405,56,60185,5,4,1:0:0:0:
107,56,60457,1,14,1:1:0:0:
123,240,60730,6,0,P|127:210|126:175,1,60,4|0,1:0|0:0,0:0:0:0:
121,320,61003,2,0,P|143:342|168:355,1,60,14|0,1:0|0:0,0:0:0:0:
49,281,61275,5,6,1:0:0:0:
49,281,61685,1,6,1:0:0:0:
258,137,61957,1,6,1:0:0:0:
463,281,62230,1,6,1:0:0:0:
256,192,62298,12,0,63457,1:0:0:0:
195,189,67275,6,0,B|260:184|238:205|328:199,1,120,2|2,1:2|1:2,0:0:0:0:
314,199,67821,1,0,1:0:0:0:
0,254,72185,5,0,1:0:0:0:
0,254,72457,1,8,1:2:0:0:
0,254,72730,2,0,P|44:250|69:246,1,60,0|0,1:0|0:0,0:0:0:0:
99,314,73003,2,0,P|143:310|168:306,1,60,8|0,1:2|0:0,0:0:0:0:
231,351,73275,6,0,B|305:345|281:377|366:371,1,120,0|8,1:0|1:2,0:0:0:0:
368,299,73685,1,0,0:0:0:0:
425,360,73821,2,0,P|442:330|443:294,1,60,0|0,1:0|0:0,0:0:0:0:
408,235,74094,2,0,P|378:222|343:224,1,60,8|0,1:2|0:0,0:0:0:0:
362,34,74366,5,2,1:0:0:0:
362,34,74639,1,8,2:2:0:0:
362,34,74912,2,0,L|354:106,1,60,2|0,1:1|2:2,0:0:0:0:
280,121,75185,2,0,L|272:193,1,60,8|0,1:2|0:0,0:0:0:0:
210,231,75457,6,0,B|161:237|161:237|158:245|158:245|87:254,1,120,0|8,1:0|1:2,0:0:0:0:
6,196,75866,1,0,0:0:0:0:
6,196,76003,2,0,P|38:188|76:187,1,60,2|2,1:0|0:1,0:0:0:0:
141,325,76275,2,0,P|109:333|71:334,1,60,14|0,1:2|1:0,0:0:0:0:
2,347,76548,5,4,1:0:0:0:
255,371,76821,1,8,0:2:0:0:
510,347,77094,1,0,0:0:0:0:
510,347,77230,1,0,0:0:0:0:
510,347,77366,2,0,L|512:284,1,60,8|0,0:2|0:0,0:0:0:0:
463,188,77639,5,0,0:0:0:0:
255,192,77912,1,8,0:2:0:0:
49,188,78185,1,0,0:0:0:0:
49,188,78321,1,0,0:0:0:0:
49,188,78457,2,0,L|45:110,1,60,8|0,0:2|0:0,0:0:0:0:
40,24,78730,6,0,P|69:18|99:13,1,60,4|4,1:0|1:0,0:0:0:0:
140,104,79003,2,0,P|169:97|198:92,1,60,4|4,1:0|1:0,0:0:0:0:
248,184,79275,2,0,P|277:177|306:172,1,60,4|4,1:0|1:0,0:0:0:0:
355,266,79548,2,0,P|384:259|413:254,1,60,4|4,1:0|1:0,0:0:0:0:
326,372,79821,6,0,B|280:335|280:335|256:278|256:278|216:333|216:333|155:360,1,240,0|6,1:0|1:2,0:0:0:0:
172,355,80639,1,2,1:1:0:0:
17,192,80912,5,4,1:0:0:0:
273,235,82003,6,0,B|240:241|192:232|155:214|153:156|207:134|263:156|292:206|292:206|322:253|404:256|424:168,1,420,0|0,0:0|0:3,0:0:0:0:
496,177,83094,6,0,L|505:37,1,120,4|0,1:0|0:0,0:0:0:0:
495,201,83503,2,0,L|486:341,1,120,4|4,1:0|1:0,0:0:0:0:
486,321,84048,5,4,1:0:0:0:
416,358,84185,1,6,1:1:0:0:
416,358,85003,1,12,1:3:0:0:
293,281,85275,6,0,B|216:271|249:307|151:293,1,120,6|12,1:0|1:0,0:0:0:0:
271,203,85685,2,0,P|317:204|369:253,1,120,2|0,0:1|0:0,0:0:0:0:
190,219,86094,2,0,L|177:139,1,60,12|2,1:0|0:1,0:0:0:0:
165,85,86366,5,4,1:0:0:0:
214,370,86639,1,14,1:1:0:0:
91,119,86912,6,0,P|83:86|84:54,1,60,4|0,1:0|0:1,0:0:0:0:
236,38,87185,2,0,P|244:71|243:103,1,60,14|0,1:1|0:0,0:0:0:0:
103,267,87457,6,0,L|37:284,2,60,4|2|12,1:0|0:2|1:0,0:0:0:0:
171,219,87866,2,0,L|182:143,2,60,2|4|2,0:2|1:0|0:2,0:0:0:0:
179,299,88275,1,12,1:0:0:0:
421,144,88548,6,0,L|487:161,2,60,4|2|12,1:0|0:2|1:0,0:0:0:0:
353,96,88957,2,0,L|342:20,2,60,2|4|2,0:2|1:0|0:2,0:0:0:0:
345,176,89366,1,12,1:0:0:0:
194,33,89639,6,0,P|145:2|64:20,1,120,6|12,1:0|1:0,0:0:0:0:
127,82,90048,2,0,P|79:92|32:152,1,120,2|0,0:1|0:0,0:0:0:0:
105,222,90457,2,0,P|109:192|115:163,1,60,12|2,1:0|0:1,0:0:0:0:
24,228,90730,5,4,1:0:0:0:
298,354,91003,1,14,1:1:0:0:
56,358,91275,6,0,L|122:352,1,60,4|0,1:0|0:1,0:0:0:0:
178,297,91548,2,0,L|244:291,1,60,12|2,1:0|0:1,0:0:0:0:
456,358,91821,5,6,1:0:0:0:
456,358,92230,1,6,1:0:0:0:
257,188,92503,1,6,1:0:0:0:
56,357,92775,6,0,B|66:311|123:275|247:280|197:382|197:382|126:379|138:305|138:305|161:247|179:233,1,420,6|14,1:0|1:3,0:0:0:0:
286,59,94003,6,0,L|293:-5,1,60,4|4,1:0|1:0,0:0:0:0:
209,30,94275,2,0,L|145:23,1,60,12|4,1:0|1:0,0:0:0:0:
184,109,94548,2,0,L|177:173,1,60,4|4,1:0|1:0,0:0:0:0:
261,138,94820,2,0,L|325:145,1,60,12|4,1:0|1:0,0:0:0:0:
288,215,95094,6,0,P|351:220|396:170,1,120,4|12,1:0|1:0,0:0:0:0:
390,184,95503,1,4,1:0:0:0:
491,269,95639,2,0,P|457:263|409:258,1,60,4|4,1:0|1:0,0:0:0:0:
366,319,95912,2,0,P|332:313|284:308,1,60,12|4,1:0|1:0,0:0:0:0:
196,364,96185,6,0,P|190:329|182:267,2,90,4|12|4,1:0|1:0|1:0,0:0:0:0:
111,338,96730,2,0,P|105:303|97:241,2,90,4|12|4,1:0|1:0|1:0,0:0:0:0:
0,127,97275,5,4,1:0:0:0:
97,71,97412,1,4,1:0:0:0:
79,150,97548,5,4,1:0:0:0:
22,52,97685,1,4,1:0:0:0:
79,150,97821,2,0,B|159:139|128:173|216:160,1,120,4|14,1:0|1:0,0:0:0:0:
251,245,98366,6,0,L|187:238,1,60,4|4,1:0|1:0,0:0:0:0:
222,322,98638,2,0,L|215:386,1,60,12|4,1:0|1:0,0:0:0:0:
301,347,98911,2,0,L|365:354,1,60,4|4,1:0|1:0,0:0:0:0:
330,270,99185,2,0,L|337:206,1,60,12|4,1:0|1:0,0:0:0:0:
408,180,99457,6,0,P|371:142|288:151,1,120,4|12,1:0|1:0,0:0:0:0:
272,65,99866,2,0,L|276:35,2,30,4|0|4,1:0|0:0|1:0,0:0:0:0:
225,130,100139,2,0,P|196:129|163:111,1,60,4|14,1:0|1:0,0:0:0:0:
445,343,100548,5,6,1:0:0:0:
445,343,100957,1,6,1:0:0:0:
257,212,101230,1,6,1:0:0:0:
67,343,101503,1,2,1:0:0:0:
67,343,101775,5,4,1:0:0:0:
200,344,101912,2,0,B|247:312|257:211|257:211|265:312|317:346,1,300,0|0,1:0|0:0,0:0:0:0:
368,281,102730,5,4,1:0:0:0:
503,77,103139,1,4,1:0:0:0:
269,51,103548,1,4,1:0:0:0:
459,248,103821,6,0,P|439:222|420:202,1,60,4|2,1:0|3:0,0:0:0:0:
411,74,104094,2,0,P|394:110|383:146,1,60,8|2,3:2|3:2,0:0:0:0:
340,196,104366,2,0,B|235:180|280:251|144:233,1,180,8|2,1:0|1:2,0:0:0:0:
116,302,104912,5,4,1:0:0:0:
9,149,105321,1,4,1:0:0:0:
125,5,105730,1,4,1:0:0:0:
287,73,106139,1,4,1:0:0:0:
273,261,106548,6,0,P|244:251|222:224,1,60,4|0,1:0|0:0,0:0:0:0:
327,316,106821,2,0,P|338:344|334:377,1,60,4|0,1:0|0:0,0:0:0:0:
349,242,107094,5,4,1:0:0:0:
96,355,107503,1,4,1:0:0:0:
135,62,107912,1,4,1:0:0:0:
63,261,108321,6,0,L|-3:271,2,60,0|8|0,3:0|3:2|3:0,0:0:0:0:
123,210,108730,2,0,B|169:223|169:223|188:245|188:245|249:262,1,120,8|4,1:0|1:0,0:0:0:0:
395,359,109275,5,4,1:0:0:0:
395,359,109685,1,4,1:0:0:0:
422,200,109957,1,4,1:0:0:0:
451,35,110230,1,4,1:0:0:0:
451,35,110366,1,4,1:0:0:0:
