osu file format v14

[General]
AudioFilename: mp3.mp3
AudioLeadIn: 0
PreviewTime: 46003
Countdown: 0
SampleSet: Soft
StackLeniency: 0.7
Mode: 0
LetterboxInBreaks: 0
WidescreenStoryboard: 0

[Editor]
DistanceSpacing: 1
BeatDivisor: 4
GridSize: 32
TimelineZoom: 2.7

[Metadata]
Title:TRICKL4SH 220
TitleUnicode:TRICKL4SH 220
Artist:Lite Show Magic
ArtistUnicode:Lite Show Magic
Creator:Regou
Version:G.G's 4DV4NCED
Source:SOUND VOLTEX IV HEAVENLY HAVEN
Tags:sdvx konami bemani ep m3-36 m3 lsm c.h.s chs comiket chsep-0003 hardcore tano*c happy don't waste me! e.p. c85 t+pazolite c-show [ Drop ] toybot LowComboFC Neoskylove Gloria Guard Priti Avena IntellectualBoy tricklash
BeatmapID:1311530
BeatmapSetID:616696

[Difficulty]
HPDrainRate:5
CircleSize:3.5
OverallDifficulty:4.5
ApproachRate:5.5
SliderMultiplier:1.2
SliderTickRate:1

[Events]
//Background and Video events
0,0,"BG1.jpg",0,0
//Break Periods
2,35294,38332
//Storyboard Layer 0 (Background)
//Storyboard Layer 1 (Fail)
//Storyboard Layer 2 (Pass)
//Storyboard Layer 3 (Foreground)
//Storyboard Sound Samples

[TimingPoints]
185,272.727272727273,4,2,7,60,1,0
185,-100,4,2,1,60,0,0
4139,-100,4,2,7,60,0,0
5094,-100,4,2,1,60,0,0
6730,-100,4,2,7,60,0,0
7821,-100,4,2,1,60,0,0
8503,-100,4,2,7,60,0,0
8912,-100,4,2,6,60,0,0
17639,-100,4,2,7,70,0,0
25275,-100,4,2,1,70,0,0
26366,-100,4,2,6,70,0,0
28275,-100,4,2,6,70,0,0
39457,-100,4,2,5,60,0,0
46003,-100,4,2,7,60,0,1
52548,-100,4,2,7,60,0,0
54730,-100,4,2,7,60,0,1
63457,-100,4,2,5,60,0,0
72185,-100,4,2,7,60,0,0
72457,-100,4,2,1,60,0,0
76548,-100,4,2,7,60,0,0
76821,-100,4,2,1,60,0,0
79821,-100,4,2,5,60,0,0
80912,-100,4,2,7,60,0,0
82003,-100,4,2,1,60,0,0
84185,-100,4,2,7,60,0,0
85275,-100,4,2,7,60,0,1
91821,-100,4,2,7,60,0,0
94003,-100,4,2,7,60,0,1
101775,-100,4,2,7,60,0,1
101912,-100,4,2,1,60,0,1
102730,-100,4,2,6,60,0,0

[Colours]
Combo1 : 128,0,255
Combo2 : 252,226,48
Combo3 : 255,99,23
Combo4 : 255,58,130

[HitObjects]
72,276,185,6,0,L|196:272,1,120,6|2,0:0|0:0,0:0:0:0:
304,312,730,2,0,P|312:348|304:372,2,60,0|0|2,0:0|0:0|0:0,0:0:0:0:
284,256,1139,1,0,0:0:0:0:
288,196,1275,2,0,L|296:72,1,120,0|2,0:0|0:0,0:0:0:0:
184,32,1821,2,0,L|120:28,2,60,0|0|2,0:0|0:0|0:0,0:0:0:0:
132,140,2366,6,0,L|56:160,2,60,0|0|2,0:0|0:0|0:0,0:0:0:0:
192,136,2775,1,0,0:0:0:0:
244,164,2912,2,0,P|280:184|360:192,1,120,0|2,0:0|0:0,0:0:0:0:
412,164,3321,1,0,0:0:0:0:
440,112,3457,5,0,0:0:0:0:
324,84,3730,1,2,0:0:0:0:
228,156,4003,1,0,0:0:0:0:
228,156,4139,2,0,L|236:288,1,120,2|0,0:0|0:0,0:0:0:0:
240,336,4548,6,0,P|200:360|128:360,1,120,2|0,0:0|0:0,0:0:0:0:
68,256,5094,2,0,L|60:188,1,60,0|2,0:0|0:0,0:0:0:0:
100,152,5366,2,0,L|92:84,1,60,0|2,0:0|0:0,0:0:0:0:
152,76,5639,6,0,L|144:8,2,60,0|0|2,0:0|0:0|0:0,0:0:0:0:
200,112,6048,1,0,0:0:0:0:
260,112,6185,2,0,L|332:104,2,60,0|2|0,0:0|0:0|0:0,0:0:0:0:
176,200,6730,5,6,0:0:0:0:
204,316,7003,1,6,0:0:0:0:
316,352,7275,1,6,0:0:0:0:
420,292,7548,1,6,0:0:0:0:
460,180,7821,6,0,L|528:196,2,60,2|0|2,0:0|0:0|0:0,0:0:0:0:
448,120,8230,1,0,0:0:0:0:
340,168,8503,2,0,P|304:196|284:132,1,120,2|0,0:0|0:0,0:0:0:0:
256,88,8912,6,0,B|208:72|184:112|128:100,1,120,2|0,0:0|0:0,0:0:0:0:
96,60,9321,2,0,P|80:116|124:164,1,120,2|0,0:0|0:0,0:0:0:0:
164,196,9730,2,0,P|180:252|136:300,1,120,2|2,0:0|3:0,0:0:0:0:
100,336,10139,6,0,L|28:324,2,60,0|2|0,0:0|0:0|0:0,0:0:0:0:
152,368,10548,2,0,B|184:352|184:352|200:368|200:368|216:352|216:352|232:368|232:368|248:352|248:352|272:368|272:368|288:348,1,180,8|0,0:0|0:0,0:0:0:0:
344,364,11094,6,0,P|336:320|272:284,1,120,2|0,0:0|0:0,0:0:0:0:
220,256,11503,2,0,P|220:200|268:148,1,120,2|0,0:0|0:0,0:0:0:0:
320,144,11912,2,0,P|360:164|444:160,1,120,2|0,0:0|0:0,0:0:0:0:
464,112,12321,6,0,P|440:64|376:28,1,120,2|0,0:0|0:0,0:0:0:0:
324,20,12730,2,0,L|248:36,1,60,2|0,0:0|0:0,0:0:0:0:
256,92,13003,2,0,L|180:108,1,60,2|0,0:0|0:0,0:0:0:0:
136,108,13275,6,0,B|64:84|64:84|88:132,1,120,2|0,0:0|0:0,0:0:0:0:
96,184,13685,2,0,P|112:224|80:292,1,120,2|0,0:0|0:0,0:0:0:0:
44,336,14094,2,0,L|184:320,1,120,2|2,0:0|3:0,0:0:0:0:
224,316,14503,6,0,P|232:352|224:384,2,60,0|2|0,0:0|0:0|0:0,0:0:0:0:
236,256,14912,2,0,B|256:240|256:240|276:256|276:256|296:240|296:240|316:256|316:256|336:240|336:240|356:256|356:256|376:240,1,180,8|0,0:0|0:0,0:0:0:0:
388,180,15457,6,0,P|416:208|424:288,1,120,2|0,0:0|0:0,0:0:0:0:
464,332,15866,2,0,P|420:360|344:364,1,120,2|0,0:0|0:0,0:0:0:0:
320,316,16275,2,0,P|280:288|192:292,1,120,2|0,0:0|0:0,0:0:0:0:
172,332,16685,6,0,P|124:352|52:340,1,120,2|0,0:0|0:0,0:0:0:0:
28,292,17094,1,2,0:0:0:0:
64,180,17366,2,0,L|140:152,1,60
176,140,17639,6,0,P|220:176|292:180,1,120,6|2,0:0|0:0,0:0:0:0:
400,168,18185,2,0,P|428:152|448:116,1,60,2|0,0:0|0:0,0:0:0:0:
436,72,18457,2,0,P|412:48|380:40,1,60,2|0,0:0|0:0,0:0:0:0:
328,48,18730,6,0,L|256:40,1,60,2|0,0:0|0:0,0:0:0:0:
232,92,19003,2,0,L|160:84,1,60,2|0,0:0|0:0,0:0:0:0:
112,80,19275,2,0,P|72:112|64:196,1,120,2|2,0:0|0:0,0:0:0:0:
104,288,19821,6,0,L|88:360,2,60,2|0|2,0:0|0:0|0:0,0:0:0:0:
144,244,20230,1,0,0:0:0:0:
204,248,20366,2,0,P|240:260|268:260,1,60,2|0,0:0|0:0,0:0:0:0:
304,216,20639,2,0,P|308:176|292:148,1,60,2|0,0:0|0:0,0:0:0:0:
260,116,20912,6,0,P|200:124|140:100,1,120,2|2,0:0|0:0,0:0:0:0:
92,72,21321,1,0,0:0:0:0:
40,100,21457,2,0,P|24:136|28:168,2,60,2|0|2,0:0|0:0|0:0,0:0:0:0:
136,176,22003,6,0,L|144:312,1,120,2|2,0:0|0:0,0:0:0:0:
152,356,22412,1,0,0:0:0:0:
92,360,22548,2,0,P|48:356|36:340,2,60,2|0|2,0:0|0:0|0:0,0:0:0:0:
212,352,23094,6,0,L|288:344,1,60,2|0,0:0|0:0,0:0:0:0:
280,288,23366,2,0,L|356:280,1,60,2|0,0:0|0:0,0:0:0:0:
400,272,23639,2,0,B|448:204|448:204|400:220,1,120,2|2,0:0|0:0,0:0:0:0:
304,164,24185,6,0,L|236:172,2,60,2|0|2,0:0|0:0|0:0,0:0:0:0:
344,120,24594,1,0,0:0:0:0:
404,108,24730,2,0,P|440:112|468:132,1,60,2|0,0:0|0:0,0:0:0:0:
484,180,25003,2,0,P|472:220|440:248,1,60,2|0,0:0|0:0,0:0:0:0:
412,264,25275,6,0,P|360:240|340:340,1,180,2|0,0:0|0:0,0:0:0:0:
380,364,25821,2,0,B|324:320|264:384|204:360,1,180,2|0,0:0|0:0,0:0:0:0:
164,320,26366,6,0,P|144:344|136:384,2,60,6|0|2,0:0|0:0|0:0,0:0:0:0:
204,276,26775,1,0,0:0:0:0:
236,228,26912,2,0,P|248:168|228:112,1,120,2|2,0:0|0:0,0:0:0:0:
120,64,27457,6,0,L|12:48,2,90,2|2|2,0:0|0:0|0:0,0:0:0:0:
176,40,28003,2,0,P|180:80|156:108,1,60,2|0,0:0|0:0,0:0:0:0:
164,156,28275,2,0,P|200:164|244:152,1,60,2|0,0:0|0:0,0:0:0:0:
284,152,28548,6,0,P|328:128|408:136,1,120,6|2,0:0|0:0,0:0:0:0:
456,148,28957,1,0,0:0:0:0:
508,120,29094,2,0,P|524:88|516:60,2,60,2|0|2,0:0|0:0|0:0,0:0:0:0:
500,240,29639,6,0,B|452:268|392:232|392:232|368:264|368:264|316:228|316:228|296:268|296:268|256:236|192:264,1,360,2|2,0:0|0:0,0:0:0:0:
144,272,30594,1,2,0:0:0:0:
88,248,30730,6,0,P|60:216|60:128,1,120,6|2,0:0|0:0,0:0:0:0:
92,92,31139,1,0,0:0:0:0:
64,40,31275,2,0,L|-8:28,2,60,2|0|2,0:0|0:0|0:0,0:0:0:0:
184,48,31821,6,0,P|212:72|224:108,1,60,2|0,0:0|0:0,0:0:0:0:
264,136,32094,2,0,P|296:136|332:120,1,60,2|0,0:0|0:0,0:0:0:0:
376,100,32366,2,0,P|424:100|488:144,1,120,2|2,0:0|0:0,0:0:0:0:
472,256,32912,6,0,L|464:324,1,60,2|2,0:0|0:0,0:0:0:0:
404,308,33185,2,0,L|411:248,1,60,2|2,0:0|0:0,0:0:0:0:
352,244,33457,2,0,L|344:303,1,60,2|2,0:0|0:0,0:0:0:0:
284,296,33730,2,0,L|291:236,1,60,2|2,0:0|0:0,0:0:0:0:
232,232,34003,6,0,P|216:192|232:112,1,120,2|0,0:0|0:0,0:0:0:0:
200,64,34412,1,0,0:0:0:0:
140,52,34548,2,0,L|72:40,2,60
260,32,35094,5,0,0:0:0:0:
72,192,39457,5,2,0:0:0:0:
192,184,39730,2,0,L|316:176,2,120,0|8|2,0:0|0:0|0:0,0:0:0:0:
236,72,40548,5,2,0:0:0:0:
356,68,40821,2,0,L|475:60,2,120,2|8|2,0:0|0:0|0:0,0:0:0:0:
240,32,41639,6,0,B|204:24|204:24|240:120,1,120,2|0,0:0|0:0,0:0:0:0:
264,156,42048,1,0,0:0:0:0:
296,208,42185,2,0,L|424:200,1,120,8|2,0:0|0:0,0:0:0:0:
360,308,42730,6,0,L|240:315,1,120,2|2,0:0|0:0,0:0:0:0:
188,348,43139,1,0,0:0:0:0:
128,352,43275,2,0,P|84:328|60:248,1,120,8|0,0:0|0:0,0:0:0:0:
256,192,43821,12,0,45457,0:0:0:0:
400,160,46003,6,0,L|268:148,1,120,6|2,0:0|0:0,0:0:0:0:
220,140,46412,1,0,0:0:0:0:
160,128,46548,2,0,P|132:144|112:184,1,60,2|0,0:0|0:0,0:0:0:0:
124,228,46821,2,0,P|136:264|120:308,1,60,2|0,0:0|0:0,0:0:0:0:
116,344,47094,6,0,P|164:324|232:352,2,120,2|2|2,0:0|0:0|0:0,0:0:0:0:
60,360,47775,1,0,0:0:0:0:
20,316,47912,2,0,P|12:276|20:240,1,60,2|0,0:0|0:0,0:0:0:0:
28,200,48185,6,0,L|44:132,2,60,2|0|2,0:0|0:0|0:0,0:0:0:0:
84,180,48594,2,0,L|124:132,2,60,0|2|0,0:0|0:0|0:0,0:0:0:0:
144,192,49003,2,0,L|212:184,1,60,2|0,0:0|0:0,0:0:0:0:
264,176,49275,6,0,P|300:144|312:76,1,120,2|2,0:0|0:0,0:0:0:0:
364,44,49685,1,0,0:0:0:0:
420,60,49821,2,0,P|448:104|508:140,1,120,2|2,0:0|0:0,0:0:0:0:
484,256,50366,6,0,P|432:276|384:336,1,120,6|2,0:0|0:0,0:0:0:0:
344,364,50775,1,0,0:0:0:0:
284,356,50912,2,0,L|208:348,1,60,2|0,0:0|0:0,0:0:0:0:
212,292,51185,2,0,L|136:284,1,60,2|0,0:0|0:0,0:0:0:0:
92,280,51457,6,0,P|56:296|24:376,2,120,2|2|2,0:0|0:0|0:0,0:0:0:0:
128,232,52139,1,0,0:0:0:0:
168,188,52275,2,0,P|172:148|160:112,1,60,2|0,0:0|0:0,0:0:0:0:
128,84,52548,6,0,L|52:72,2,60,6|0|0,0:0|0:0|0:0,0:0:0:0:
188,72,52957,2,0,L|260:52,1,60,2|0,0:0|0:0,0:0:0:0:
284,104,53230,2,0,L|364:120,1,60,2|0,0:0|0:0,0:0:0:0:
404,128,53503,1,2,0:0:0:0:
484,220,53775,6,0,L|480:284,2,60,2|2|0,0:0|0:0|0:0,0:0:0:0:
428,244,54185,2,0,L|392:304,2,60
328,180,54730,6,0,P|284:204|216:204,1,120,6|2,0:0|0:0,0:0:0:0:
164,168,55139,1,0,0:0:0:0:
104,180,55275,2,0,P|80:212|80:248,1,60,2|0,0:0|0:0,0:0:0:0:
108,284,55548,2,0,P|148:300|184:292,1,60,2|0,0:0|0:0,0:0:0:0:
224,296,55821,6,0,P|264:252|256:172,2,120,2|2|2,0:0|0:0|0:0,0:0:0:0:
208,352,56503,1,0,0:0:0:0:
264,376,56639,2,0,P|300:376|336:352,1,60,2|0,0:0|0:0,0:0:0:0:
368,332,56912,6,0,L|424:364,2,60,2|0|2,0:0|0:0|0:0,0:0:0:0:
420,300,57321,2,0,L|488:304,2,60,0|2|0,0:0|0:0|0:0,0:0:0:0:
452,248,57730,2,0,L|516:224,1,60,2|0,0:0|0:0,0:0:0:0:
464,188,58003,6,0,P|432:152|424:76,1,120,2|2,0:0|0:0,0:0:0:0:
376,44,58412,1,0,0:0:0:0:
316,40,58548,2,0,P|252:44|200:96,1,120,2|2,0:0|0:0,0:0:0:0:
264,184,59094,6,0,P|280:224|260:300,1,120,2|2,0:0|0:0,0:0:0:0:
228,344,59503,1,0,0:0:0:0:
168,352,59639,2,0,P|132:348|96:328,1,60,2|0,0:0|0:0,0:0:0:0:
56,368,59912,2,0,P|36:340|32:296,1,60,2|0,0:0|0:0,0:0:0:0:
20,256,60185,6,0,L|16:128,2,120,2|2|2,0:0|0:0|0:0,0:0:0:0:
80,248,60866,1,0,0:0:0:0:
140,248,61003,2,0,P|184:248|216:272,1,60,2|0,0:0|0:0,0:0:0:0:
248,284,61275,6,0,P|260:320|252:356,2,60,6|0|0,0:0|0:0|0:0,0:0:0:0:
264,224,61685,2,0,L|284:160,1,60,2|0,0:0|0:0,0:0:0:0:
224,148,61957,2,0,L|212:76,1,60,2|0,0:0|0:0,0:0:0:0:
252,40,62230,1,2,0:0:0:0:
368,72,62503,6,0,L|444:68,2,60,2|0|0,0:0|0:0|0:0,0:0:0:0:
396,124,62912,2,0,L|448:152,2,60
344,232,63457,6,0,L|224:248,1,120,2|8,0:0|0:0,0:0:0:0:
104,256,64003,2,0,L|92:320,2,60,0|2|8,0:0|0:0|0:0,0:0:0:0:
44,152,64548,6,0,P|80:136|124:136,1,60,2|0,0:0|0:0,0:0:0:0:
144,92,64821,2,0,P|192:100|220:124,1,60,8|0,0:0|0:0,0:0:0:0:
256,132,65094,2,0,P|296:152|376:148,1,120,2|8,0:0|0:0,0:0:0:0:
452,236,65639,6,0,P|480:212|492:176,2,60,2|0|8,0:0|0:0|0:0,0:0:0:0:
404,272,66048,1,0,0:0:0:0:
344,284,66185,2,0,L|216:272,1,120,2|8,0:0|0:0,0:0:0:0:
164,264,66594,1,0,0:0:0:0:
104,252,66730,6,0,P|64:288|72:356,1,120,2|8,0:0|0:0,0:0:0:0:
188,336,67275,1,2,0:0:0:0:
224,220,67548,1,2,0:0:0:0:
344,216,67821,6,0,P|416:216|464:176,1,120,2|8,0:0|0:0,0:0:0:0:
480,72,68366,2,0,L|488:4,2,60,0|2|8,0:0|0:0|0:0,0:0:0:0:
360,56,68912,6,0,L|288:40,1,60,2|0,0:0|0:0,0:0:0:0:
260,84,69185,2,0,L|184:100,1,60,8|0,0:0|0:0,0:0:0:0:
140,92,69457,2,0,B|64:80|64:80|96:116,1,120,2|8,0:0|0:0,0:0:0:0:
104,232,70003,6,0,P|60:232|24:216,2,60,2|0|8,0:0|0:0|0:0,0:0:0:0:
160,208,70412,1,0,0:0:0:0:
220,196,70548,2,0,P|264:192|336:240,1,120,0|8,0:0|0:0,0:0:0:0:
336,288,70957,1,0,0:0:0:0:
312,344,71094,6,0,P|252:364|152:280,1,180
132,252,71639,2,0,P|92:200|184:196,1,180,8|0,0:0|0:0,0:0:0:0:
224,204,72185,5,6,0:0:0:0:
288,104,72457,1,2,0:0:0:0:
188,40,72730,2,0,L|124:32,2,60,0|0|2,0:0|0:0|0:0,0:0:0:0:
288,104,73275,6,0,L|408:96,1,120
468,92,73685,1,0,0:0:0:0:
504,140,73821,2,0,P|512:184|504:216,2,60,0|0|2,0:0|0:0|0:0,0:0:0:0:
396,196,74366,6,0,L|320:200,1,60,2|0,0:0|0:0,0:0:0:0:
288,236,74639,2,0,L|212:240,1,60,2|0,0:0|0:0,0:0:0:0:
168,240,74912,2,0,P|136:216|128:136,1,120,2|0,0:0|0:0,0:0:0:0:
152,88,75321,1,2,0:0:0:0:
116,40,75457,6,0,P|68:28|-4:64,2,120,2|2|0,0:0|0:0|0:0,0:0:0:0:
228,76,76275,2,0,L|304:72,1,60,2|0,0:0|0:0,0:0:0:0:
348,64,76548,6,0,P|384:40|460:72,1,120,12|2,0:0|0:0,0:0:0:0:
488,176,77094,2,0,L|480:248,2,60,0|0|2,0:0|0:0|0:0,0:0:0:0:
380,224,77639,6,0,L|392:296,1,60
392,344,77912,2,0,P|360:356|312:352,1,60,2|0,0:0|0:0,0:0:0:0:
284,324,78185,2,0,P|244:300|160:312,1,120,0|2,0:0|0:0,0:0:0:0:
76,236,78730,6,0,L|48:180,1,60,0|2,0:0|0:0,0:0:0:0:
108,180,79003,2,0,L|104:112,1,60,0|2,0:0|0:0,0:0:0:0:
152,156,79275,2,0,L|184:104,1,60,0|2,0:0|0:0,0:0:0:0:
212,156,79548,2,0,L|272:132,1,60,0|2,0:0|0:0,0:0:0:0:
328,124,79821,6,0,P|360:160|440:172,1,120,2|2,0:0|0:0,0:0:0:0:
488,160,80230,1,2,0:0:0:0:
500,220,80366,2,0,L|492:284,2,60,8|0|0,0:0|0:0|0:0,0:0:0:0:
504,100,80912,6,0,P|464:64|388:56,1,120,2|0,0:0|0:0,0:0:0:0:
340,64,81321,2,0,P|308:108|312:180,1,120
340,224,81730,2,0,P|352:260|344:296,1,60
316,328,82003,6,0,P|348:344|392:348,2,60,2|0|0,0:0|0:0|0:0,0:0:0:0:
196,316,82548,2,0,P|140:340|80:328,1,120,2|2,0:0|0:0,0:0:0:0:
44,284,82957,1,2,0:0:0:0:
24,228,83094,6,0,B|16:144|16:144|48:164,1,120,8|0,0:0|0:0,0:0:0:0:
104,176,83503,2,0,P|140:184|176:180,1,60,2|0,0:0|0:0,0:0:0:0:
216,156,83775,2,0,P|240:120|248:80,1,60,2|0,0:0|0:0,0:0:0:0:
236,44,84048,1,2,0:0:0:0:
176,32,84185,6,0,B|104:28|80:84|80:84|124:136|124:136|80:180|80:180|100:240|168:244,1,360,2|8,0:0|3:0,0:0:0:0:
276,200,85275,6,0,P|304:160|388:160,1,120,6|2,0:0|0:0,0:0:0:0:
432,164,85685,1,0,0:0:0:0:
484,192,85821,2,0,P|492:228|484:264,1,60,2|0,0:0|0:0,0:0:0:0:
484,312,86094,2,0,P|444:304|424:312,1,60,2|0,0:0|0:0,0:0:0:0:
372,332,86366,6,0,P|328:364|252:364,2,120,2|2|2,0:0|0:0|0:0,0:0:0:0:
384,272,87048,1,0,0:0:0:0:
388,212,87185,2,0,L|396:136,1,60,2|0,0:0|0:0,0:0:0:0:
452,136,87457,6,0,P|480:128|504:96,2,60,2|0|2,0:0|0:0|0:0,0:0:0:0:
408,96,87866,2,0,P|424:52|424:20,2,60,0|2|0,0:0|0:0|0:0,0:0:0:0:
348,108,88275,2,0,P|332:80|304:60,1,60,2|0,0:0|0:0,0:0:0:0:
252,72,88548,6,0,P|192:104|128:100,1,120,2|2,0:0|0:0,0:0:0:0:
84,88,88957,1,0,0:0:0:0:
28,108,89094,2,0,P|12:160|32:224,1,120,2|2,0:0|0:0,0:0:0:0:
108,312,89639,6,0,L|228:304,1,120,2|2,0:0|0:0,0:0:0:0:
280,332,90048,1,0,0:0:0:0:
340,328,90185,2,0,P|372:312|396:276,1,60,2|0,0:0|0:0,0:0:0:0:
448,292,90457,2,0,P|456:256|444:208,1,60,2|0,0:0|0:0,0:0:0:0:
440,176,90730,6,0,P|480:160|508:88,2,120,2|2|2,0:0|0:0|0:0,0:0:0:0:
392,144,91412,1,0,0:0:0:0:
332,140,91548,2,0,P|288:140|256:160,1,60,2|0,0:0|0:0,0:0:0:0:
216,128,91821,6,0,P|188:104|180:68,2,60,6|0|0,0:0|0:0|0:0,0:0:0:0:
232,184,92230,2,0,L|212:256,1,60,2|0,0:0|0:0,0:0:0:0:
276,256,92503,2,0,L|292:328,1,60,2|0,0:0|0:0,0:0:0:0:
344,292,92775,6,0,P|428:292|352:160,1,300,2|0,0:0|0:0,0:0:0:0:
268,92,93730,1,0,0:0:0:0:
152,120,94003,6,0,L|92:112,2,60,6|2|2,0:0|0:0|0:0,0:0:0:0:
204,148,94412,1,2,0:0:0:0:
248,188,94548,2,0,P|256:224|228:308,1,120,2|2,0:0|0:0,0:0:0:0:
188,344,94957,1,2,0:0:0:0:
128,340,95094,6,0,L|8:328,2,120,2|2|2,0:0|0:0|0:0,0:0:0:0:
188,344,95775,1,2,0:0:0:0:
248,344,95912,2,0,P|280:328|304:292,1,60,2|2,0:0|0:0,0:0:0:0:
312,252,96185,6,0,L|328:140,2,90,6|6|2,0:0|0:0|0:0,0:0:0:0:
260,224,96730,2,0,L|240:124,2,90,6|6|2,0:0|0:0|0:0,0:0:0:0:
200,232,97275,6,0,L|164:176,1,60,2|6,0:0|0:0,0:0:0:0:
108,180,97548,2,0,P|72:180|32:156,1,60,6|2,0:0|0:0,0:0:0:0:
20,120,97821,2,0,P|20:68|84:36,1,120,2|0,0:0|0:0,0:0:0:0:
180,92,98366,6,0,P|204:56|204:24,2,60,2|2|2,0:0|0:0|0:0,0:0:0:0:
160,148,98775,1,2,0:0:0:0:
196,196,98912,2,0,P|248:224|328:208,1,120,2|2,0:0|0:0,0:0:0:0:
368,224,99321,1,2,0:0:0:0:
416,192,99457,6,0,P|456:160|488:80,2,120,2|2|2,0:0|0:0|0:0,0:0:0:0:
368,224,100139,1,2,0:0:0:0:
372,284,100275,2,0,L|384:356,1,60,2|2,0:0|0:0,0:0:0:0:
324,360,100548,6,0,P|280:340|192:344,1,120,6|0,0:0|0:0,0:0:0:0:
148,340,100957,2,0,L|88:348,1,60,2|0,0:0|0:0,0:0:0:0:
100,288,101230,2,0,L|36:268,1,60,2|0,0:0|0:0,0:0:0:0:
20,212,101503,1,2,0:0:0:0:
104,124,101775,6,0,L|96:64,2,60,2|2|0,0:0|0:0|0:0,0:0:0:0:
116,184,102185,2,0,B|160:164|160:164|228:184,1,120,2|2,0:0|0:0,0:0:0:0:
328,116,102730,6,0,P|360:84|440:92,1,120,6|0,0:0|0:0,0:0:0:0:
472,132,103139,2,0,P|480:184|436:240,1,120,2|0,0:0|0:0,0:0:0:0:
384,252,103548,2,0,P|336:232|312:172,1,120,2|2,0:0|3:0,0:0:0:0:
252,180,103957,6,0,P|216:192|176:188,2,60,0|2|0,0:0|0:0|0:0,0:0:0:0:
268,120,104366,2,0,L|280:52,1,60,2|0,0:0|0:0,0:0:0:0:
220,72,104639,2,0,L|192:16,1,60
156,68,104912,6,0,P|104:100|24:84,1,120,2|0,0:0|0:0,0:0:0:0:
40,156,105321,2,0,P|92:172|136:236,1,120,2|0,0:0|0:0,0:0:0:0:
192,220,105730,2,0,P|232:184|312:184,1,120,2|0,0:0|0:0,0:0:0:0:
348,212,106139,2,0,P|372:264|348:336,1,120,2|0,0:0|0:0,0:0:0:0:
308,352,106548,2,0,L|244:344,1,60,2|0,0:0|0:0,0:0:0:0:
228,288,106821,2,0,L|164:280,1,60,2|0,0:0|0:0,0:0:0:0:
108,276,107094,6,0,B|24:268|24:268|60:244,1,120,2|0,0:0|0:0,0:0:0:0:
80,196,107503,2,0,B|84:152|84:152|68:136|68:136|72:72,1,120,2|0,0:0|0:0,0:0:0:0:
116,40,107912,2,0,P|140:72|228:80,1,120,2|0,0:0|0:0,0:0:0:0:
272,72,108321,6,0,P|304:48|336:44,2,60,0|2|0,0:0|0:0|0:0,0:0:0:0:
256,128,108730,2,0,L|264:196,1,60,8|0,0:0|0:0,0:0:0:0:
212,220,109003,2,0,L|220:288,1,60,2|0,0:0|0:0,0:0:0:0:
228,340,109275,6,0,P|272:312|352:328,1,120,2|0,0:0|0:0,0:0:0:0:
396,340,109685,1,2,0:0:0:0:
480,256,109957,1,2,0:0:0:0:
392,176,110230,2,0,L|320:184,1,60,2|2,0:0|0:0,0:0:0:0:
224,128,110639,6,0,P|208:176|216:212,2,60
