osu file format v14

[General]
AudioFilename: mp3.mp3
AudioLeadIn: 0
PreviewTime: 46003
Countdown: 0
SampleSet: None
StackLeniency: 0.2
Mode: 0
LetterboxInBreaks: 0
WidescreenStoryboard: 0

[Editor]
Bookmarks: 80912,94003
DistanceSpacing: 1.4
BeatDivisor: 8
GridSize: 4
TimelineZoom: 2.000001

[Metadata]
Title:TRICKL4SH 220
TitleUnicode:TRICKL4SH 220
Artist:Lite Show Magic
ArtistUnicode:Lite Show Magic
Creator:Regou
Version:Avena's ULTR4
Source:SOUND VOLTEX IV HEAVENLY HAVEN
Tags:sdvx konami bemani ep m3-36 m3 lsm c.h.s chs comiket chsep-0003 hardcore tano*c happy don't waste me! e.p. c85 t+pazolite c-show [ Drop ] toybot LowComboFC Neoskylove Gloria Guard Priti Avena IntellectualBoy tricklash
BeatmapID:1415290
BeatmapSetID:616696

[Difficulty]
HPDrainRate:7
CircleSize:4.2
OverallDifficulty:9
ApproachRate:9.6
SliderMultiplier:1.9
SliderTickRate:1

[Events]
//Background and Video events
0,0,"BG1.jpg",0,0
//Break Periods
//Storyboard Layer 0 (Background)
//Storyboard Layer 1 (Fail)
//Storyboard Layer 2 (Pass)
//Storyboard Layer 3 (Foreground)
//Storyboard Sound Samples

[TimingPoints]
185,272.727272727273,4,3,1,70,1,0
8912,-66.6666666666667,4,2,1,80,0,0
10003,-100,4,3,1,80,0,0
10548,-133.333333333333,4,3,1,80,0,0
10616,-133.333333333333,4,3,1,55,0,0
11094,-66.6666666666667,4,2,1,80,0,0
14366,-100,4,3,1,80,0,0
14912,-133.333333333333,4,3,1,80,0,0
14980,-133.333333333333,4,3,1,55,0,0
15457,-66.6666666666667,4,2,1,80,0,0
17366,-133.333333333333,4,3,1,100,0,0
17571,-133.333333333333,4,3,1,100,0,0
17637,-133.333333333333,4,3,1,40,0,0
17639,-74.0740740740741,4,3,1,80,0,0
21730,-57.1428571428571,4,3,1,80,0,0
22003,-74.0740740740741,4,3,1,80,0,0
25275,-153.846153846154,4,3,1,80,0,0
25685,-153.846153846154,4,3,1,5,0,0
25821,-153.846153846154,4,3,1,80,0,0
26230,-153.846153846154,4,3,1,5,0,0
26366,-74.0740740740741,4,3,1,80,0,0
27457,-57.1428571428571,4,3,1,100,0,0
28003,-100,4,3,1,60,0,0
28275,-74.0740740740741,4,3,1,100,0,0
28548,-74.0740740740741,4,3,1,80,0,0
29639,-57.1428571428571,4,3,1,100,0,0
30730,-74.0740740740741,4,3,1,80,0,0
32912,-66.6666666666667,4,2,1,100,0,0
34003,-133.333333333333,4,3,1,80,0,0
34821,-66.6666666666667,4,3,1,80,0,0
35025,-66.6666666666667,4,3,1,20,0,0
35094,-100,4,2,1,60,0,0
39457,-100,4,3,1,60,0,0
43821,-200,4,2,1,40,0,0
45048,-200,4,2,1,20,0,0
45185,-200,4,2,1,40,0,0
45457,-100,4,2,1,60,0,0
46003,-57.1428571428571,4,3,1,90,0,0
47094,-100,4,3,1,90,0,0
47366,-57.1428571428571,4,3,1,90,0,0
48185,-57.1428571428571,4,1,1,70,0,0
50366,-57.1428571428571,4,3,1,90,0,0
51457,-100,4,3,1,90,0,0
51730,-57.1428571428571,4,3,1,90,0,0
52548,-100,4,2,1,70,0,0
54730,-57.1428571428571,4,3,1,90,0,0
55821,-100,4,3,1,90,0,0
56094,-57.1428571428571,4,3,1,90,0,0
56912,-57.1428571428571,4,1,1,70,0,0
59094,-57.1428571428571,4,3,1,90,0,0
60185,-100,4,3,1,90,0,0
60457,-57.1428571428571,4,3,1,90,0,0
61275,-100,4,2,1,70,0,0
63457,-100,4,3,1,70,0,0
71094,-153.846153846154,4,3,1,70,0,0
71503,-153.846153846154,4,3,1,5,0,0
71639,-153.846153846154,4,3,1,70,0,0
72048,-153.846153846154,4,3,1,5,0,0
72185,-100,4,3,1,80,0,0
78730,-66.6666666666667,4,3,1,80,0,0
79821,-133.333333333333,4,3,1,80,0,0
80366,-66.6666666666667,4,3,1,80,0,0
80912,-100,4,3,1,80,0,0
83094,-100,4,3,1,80,0,0
84185,-25,4,3,1,80,0,0
84219,-25,4,2,1,35,0,0
85003,-100,4,2,1,70,0,0
85139,-100,4,2,1,20,0,0
85275,-57.1428571428571,4,3,1,90,0,0
86366,-100,4,3,1,90,0,0
86639,-57.1428571428571,4,3,1,90,0,0
87457,-57.1428571428571,4,1,1,70,0,0
89639,-57.1428571428571,4,3,1,90,0,0
90730,-100,4,3,1,90,0,0
91003,-57.1428571428571,4,3,1,90,0,0
91821,-100,4,2,1,70,0,0
94003,-50,4,2,1,90,0,1
102730,-66.6666666666667,4,2,1,80,0,0
103821,-100,4,2,1,80,0,0
104912,-66.6666666666667,4,2,1,80,0,0
108321,-100,4,2,1,80,0,0
109276,-66.6666666666667,4,2,1,80,0,0
110367,-133.333333333333,4,2,1,80,0,0
110503,-133.333333333333,4,2,1,10,0,0
110639,-133.333333333333,4,2,1,80,0,0
110776,-133.333333333333,4,2,1,10,0,0
110912,-133.333333333333,4,2,1,80,0,0

[Colours]
Combo1 : 238,227,153
Combo2 : 91,146,247
Combo3 : 244,185,104
Combo4 : 138,242,154

[HitObjects]
410,214,185,6,0,P|362:214|315:221,1,95,4|0,1:0|0:0,0:0:0:0:
238,272,457,1,0,0:0:0:0:
147,254,594,1,0,0:0:0:0:
93,179,730,1,0,0:0:0:0:
106,87,866,2,0,P|176:98|311:106,1,190,0|0,0:0|0:0,0:0:0:0:
456,28,1275,6,0,P|449:74|448:122,1,95,0|0,0:0|0:0,0:0:0:0:
417,308,1548,2,0,P|416:260|409:213,1,95,0|0,0:0|0:0,0:0:0:0:
294,106,1821,1,0,0:0:0:0:
272,254,1957,1,0,0:0:0:0:
107,99,2094,1,0,0:0:0:0:
130,97,2162,1,0,0:0:0:0:
154,95,2230,1,0,0:0:0:0:
178,94,2298,1,0,0:0:0:0:
201,92,2366,6,0,L|298:107,1,95,0|0,0:0|0:0,0:0:0:0:
300,129,2571,1,0,0:0:0:0:
305,152,2639,1,0,0:0:0:0:
395,136,2775,1,0,0:0:0:0:
469,192,2912,1,0,0:0:0:0:
477,284,3048,2,0,P|407:273|272:265,1,190,0|0,0:0|0:0,0:0:0:0:
136,313,3457,6,0,L|142:351,4,23.75,0|0|0|0|0,0:0|0:0|0:0|0:0|0:0,0:0:0:0:
122,218,3730,1,0,0:0:0:0:
288,265,3866,2,0,L|278:302,4,23.75,0|0|0|0|0,0:0|0:0|0:0|0:0|0:0,0:0:0:0:
311,171,4139,1,4,1:0:0:0:
126,123,4275,1,0,1:0:0:0:
120,147,4344,1,0,1:0:0:0:
118,170,4412,1,0,1:0:0:0:
118,194,4480,1,0,1:0:0:0:
122,218,4548,6,0,L|107:29,1,190,4|0,1:0|0:0,0:0:0:0:
106,28,4889,1,0,0:0:0:0:
106,28,4957,1,0,0:0:0:0:
305,90,5094,2,0,P|258:83|210:82,2,95,0|0|0,0:0|0:0|0:0,0:0:0:0:
380,148,5503,1,0,0:0:0:0:
273,378,5639,6,0,P|262:308|254:173,1,190,0|0,0:0|0:0,0:0:0:0:
339,231,6048,1,0,0:0:0:0:
380,148,6185,1,0,0:0:0:0:
295,106,6321,1,0,0:0:0:0:
339,231,6457,1,0,0:0:0:0:
362,232,6525,1,0,0:0:0:0:
386,234,6594,1,0,0:0:0:0:
410,235,6662,1,0,0:0:0:0:
433,237,6730,6,0,P|439:283|440:331,1,95,4|0,1:0|0:0,0:0:0:0:
251,274,6935,1,0,0:0:0:0:
251,274,7003,2,0,P|251:226|258:179,1,95,4|0,1:0|0:0,0:0:0:0:
329,32,7207,1,0,0:0:0:0:
329,32,7275,2,0,L|218:28,1,95,4|0,1:0|0:0,0:0:0:0:
62,120,7480,1,0,0:0:0:0:
62,120,7548,2,0,L|173:116,1,95,4|0,1:0|0:0,0:0:0:0:
48,26,7821,5,0,0:0:0:0:
62,120,7957,1,0,0:0:0:0:
76,214,8094,1,0,0:0:0:0:
157,117,8230,1,0,0:0:0:0:
157,117,8503,5,4,1:0:0:0:
180,117,8571,1,4,1:0:0:0:
204,116,8639,1,4,1:0:0:0:
228,115,8707,1,4,1:0:0:0:
251,114,8775,1,4,1:0:0:0:
275,113,8844,1,4,1:0:0:0:
299,112,8912,6,0,B|270:177|260:236|284:295|284:295|285:295|331:251|315:200,1,285.000010871888,4|0,1:0|2:0,0:0:0:0:
511,16,9321,2,0,B|486:1|462:-4|434:-8|410:1|387:14|381:17|371:19|365:22|342:34|318:44|289:39|267:35|237:18,1,285.000010871888,4|0,1:0|0:0,0:0:0:0:
57,153,9730,2,0,P|53:82|-7:38,1,142.500005435944,4|0,1:0|0:0,0:0:0:0:
149,334,10003,6,0,L|212:330,1,47.5,4|0,0:0|0:0,0:0:0:0:
272,356,10139,2,0,L|319:359,1,47.5,4|0,0:0|0:0,0:0:0:0:
400,368,10275,5,8,0:2:0:0:
402,332,10344,1,0,0:0:0:0:
404,297,10412,1,4,0:0:0:0:
406,261,10480,1,0,0:0:0:0:
408,226,10548,6,0,P|402:195|394:182,1,35.625001358986,12|0,0:2|0:0,0:0:0:0:
430,195,10685,2,0,P|413:167|401:158,1,35.625001358986,10|0,0:2|2:0,0:0:0:0:
440,158,10821,2,0,P|415:138|400:133,1,35.625001358986,10|0,0:2|2:0,0:0:0:0:
436,120,10957,2,0,P|406:109|390:110,1,35.625001358986,10|0,0:2|2:0,0:0:0:0:
420,85,11094,6,0,P|322:122|182:25,1,285.000010871888,4|0,1:0|0:0,0:0:0:0:
78,299,11503,2,0,P|176:336|316:239,1,285.000010871888,4|0,1:0|0:0,0:0:0:0:
28,16,11912,2,0,B|19:180|19:180|154:168,1,285.000010871888,4|0,1:0|0:0,0:0:0:0:
426,89,12321,2,0,B|435:253|435:253|300:241,1,285.000010871888,4|0,1:0|0:0,0:0:0:0:
222,59,12730,2,0,P|298:58|364:22,1,142.500005435944,4|0,1:0|0:0,0:0:0:0:
185,282,13003,2,0,P|121:251|50:251,1,142.500005435944,4|0,1:0|0:0,0:0:0:0:
353,373,13275,6,0,P|310:267|426:146,1,285.000010871888,4|0,1:0|0:0,0:0:0:0:
70,6,13685,2,0,P|167:101|128:231,1,285.000010871888,4|0,1:0|0:0,0:0:0:0:
319,52,14094,2,0,P|390:49|476:29,1,142.500005435944,4|0,1:0|0:0,0:0:0:0:
439,277,14366,6,0,L|376:273,1,47.5,4|0,0:0|0:0,0:0:0:0:
316,299,14503,2,0,L|269:302,1,47.5,4|0,0:0|0:0,0:0:0:0:
188,311,14639,5,8,0:2:0:0:
186,275,14707,1,0,0:0:0:0:
184,240,14775,1,4,0:0:0:0:
182,204,14844,1,0,0:0:0:0:
180,169,14912,6,0,P|186:138|194:125,1,35.625001358986,12|0,0:2|0:0,0:0:0:0:
158,138,15048,2,0,P|175:110|187:101,1,35.625001358986,10|0,0:2|2:0,0:0:0:0:
148,101,15185,2,0,P|173:81|188:76,1,35.625001358986,10|0,0:2|2:0,0:0:0:0:
152,63,15321,2,0,P|182:52|198:53,1,35.625001358986,10|0,0:2|2:0,0:0:0:0:
168,28,15457,6,0,P|244:57|452:52,1,285.000010871888,4|0,1:0|0:0,0:0:0:0:
454,329,15866,2,0,P|378:300|170:305,1,285.000010871888,4|0,1:0|0:0,0:0:0:0:
17,149,16275,2,0,B|214:131|214:131|249:210,1,285.000010871888,4|0,1:0|0:0,0:0:0:0:
509,62,16685,2,0,B|312:80|312:80|277:0,1,285.000010871888,4|0,1:0|0:0,0:0:0:0:
395,181,17094,2,0,L|387:328,1,142.500005435944,4|0,1:0|0:0,0:0:0:0:
167,370,17366,6,2,P|167:316|136:258,1,106.875004076958,2|0,3:1|0:0,0:0:0:0:
116,284,17639,6,0,L|128:140,1,128.250000489235,4|0,1:0|0:0,0:0:0:0:
347,132,17912,2,0,L|230:186,1,128.250000489235,12|0,1:0|0:0,0:0:0:0:
57,32,18185,5,4,1:0:0:0:
126,156,18322,1,0,0:0:0:0:
38,264,18457,2,8,P|4:213|10:123,1,128.250000489235,12|0,1:0|0:0,0:0:0:0:
199,311,18730,5,4,1:0:0:0:
231,186,18866,1,0,0:0:0:0:
231,186,18935,1,0,0:0:0:0:
231,186,19003,1,12,1:0:0:0:
347,132,19139,1,0,0:0:0:0:
462,186,19275,6,0,L|474:37,1,128.250000489235,4|0,1:0|0:0,0:0:0:0:
336,4,19480,1,0,0:0:0:0:
336,4,19548,2,0,L|346:131,1,128.250000489235,12|0,1:0|0:0,0:0:0:0:
199,311,19821,6,0,P|248:325|275:345,1,64.1250002446175,2|0,1:0|0:0,0:0:0:0:
79,342,19957,1,2,0:1:0:0:
71,310,20025,2,0,P|77:278|91:250,1,64.1250002446175,0|0,0:0|0:0,0:0:0:0:
231,186,20162,1,2,0:1:0:0:
239,154,20230,2,0,P|232:122|218:94,1,64.1250002446175,0|0,0:0|0:0,0:0:0:0:
80,58,20366,5,6,1:0:0:0:
82,106,20435,1,2,0:2:0:0:
85,154,20503,1,2,0:2:0:0:
88,202,20571,1,2,0:2:0:0:
91,250,20639,2,0,L|161:244,1,64.1250002446175,12|0,1:0|0:0,0:0:0:0:
343,332,20775,2,0,L|273:326,1,64.1250002446175,2|0,0:0|0:0,0:0:0:0:
344,181,20912,6,0,L|484:169,1,128.250000489235,4|0,1:0|0:0,0:0:0:0:
471,170,21116,1,0,0:0:0:0:
471,170,21185,1,12,1:0:0:0:
450,296,21321,1,0,0:0:0:0:
355,50,21457,2,0,P|306:60|282:62,1,64.1250002446175,4|0,1:0|0:0,0:0:0:0:
202,23,21594,2,0,P|153:13|129:11,1,64.1250002446175,2|0,0:2|0:0,0:0:0:0:
8,124,21730,6,2,P|103:90|52:182,1,249.375002378225,12|0,1:0|0:0,0:0:0:0:
35,259,22003,6,0,L|176:266,1,128.250000489235,4|0,1:0|0:0,0:0:0:0:
385,348,22275,2,0,L|244:355,1,128.250000489235,12|0,1:0|0:0,0:0:0:0:
185,157,22548,5,4,1:0:0:0:
299,205,22685,1,0,0:0:0:0:
412,152,22821,1,12,1:0:0:0:
449,33,22957,1,0,0:0:0:0:
294,77,23094,6,0,L|300:214,1,128.250000489235,4|0,1:0|0:0,0:0:0:0:
238,278,23298,1,0,0:0:0:0:
238,278,23366,2,0,B|176:258|176:258|123:300,1,128.250000489235,12|0,1:0|0:0,0:0:0:0:
0,113,23639,6,0,B|49:152|49:152|111:132,1,128.250000489235,4|0,1:0|0:0,0:0:0:0:
193,58,23844,1,0,0:0:0:0:
193,58,23912,2,0,L|64:63,1,128.250000489235,12|0,1:0|0:0,0:0:0:0:
24,284,24185,6,0,L|95:292,1,64.1250002446175,6|0,1:0|0:0,0:0:0:0:
276,176,24321,1,2,0:1:0:0:
244,179,24389,2,0,L|172:187,1,64.1250002446175,0|0,0:0|0:0,0:0:0:0:
288,340,24525,1,2,0:1:0:0:
320,343,24594,2,0,L|391:351,1,64.1250002446175,0|0,0:0|0:0,0:0:0:0:
456,264,24730,5,6,1:0:0:0:
422,229,24798,1,2,0:2:0:0:
401,186,24866,1,2,0:2:0:0:
394,138,24935,1,2,0:2:0:0:
402,91,25003,2,0,P|393:51|371:23,1,64.1250002446175,12|0,1:0|0:0,0:0:0:0:
214,0,25139,2,0,P|197:27|192:58,1,64.1250002446175,2|0,3:0|0:0,0:0:0:0:
276,176,25275,6,0,L|82:199,1,185.249991519928,2|0,0:0|0:0,0:0:0:0:
30,326,25821,2,0,B|115:360|115:360|194:304,1,185.249991519928,0|0,0:0|0:0,0:0:0:0:
265,48,26366,6,0,L|276:176,1,128.250000489235,4|0,1:0|0:0,0:0:0:0:
276,176,26571,1,0,0:0:0:0:
276,176,26639,1,12,1:0:0:0:
398,140,26775,1,0,0:0:0:0:
143,84,26912,1,4,1:0:0:0:
265,48,27048,1,0,0:0:0:0:
203,231,27185,2,0,P|145:256|82:265,1,128.250000489235,12|0,1:0|0:0,0:0:0:0:
433,233,27457,6,0,B|485:116|485:116|439:143,1,166.250001585484,6|0,1:0|2:0,0:0:0:0:
339,265,27662,2,0,B|413:368|413:368|413:315,1,166.250001585484,6|0,1:0|2:0,0:0:0:0:
358,167,27866,2,0,B|231:179,1,83.1250007927418,6|0,1:0|0:0,0:0:0:0:
229,19,28003,6,0,P|257:21|278:31,1,47.5,2|0,0:0|0:0,0:0:0:0:
288,48,28139,1,4,0:0:0:0:
96,256,28275,6,0,L|90:184,1,64.1250002446175,4|0,0:2|0:0,0:0:0:0:
84,94,28412,2,0,L|78:22,1,64.1250002446175,2|0,0:1|2:0,0:0:0:0:
212,102,28548,6,0,L|84:94,1,128.250000489235,4|0,1:0|0:0,0:0:0:0:
54,107,28753,1,0,0:0:0:0:
23,119,28821,2,0,P|16:148|0:181,1,64.1250002446175,12|0,1:0|0:0,0:0:0:0:
117,315,28957,2,0,P|103:286|95:255,1,64.1250002446175,2|0,0:0|0:0,0:0:0:0:
212,102,29094,1,4,1:0:0:0:
243,242,29230,1,0,0:0:0:0:
212,102,29366,2,0,L|340:110,1,128.250000489235,12|0,1:0|0:0,0:0:0:0:
410,252,29639,6,0,B|426:214|426:214|468:207,1,83.1250007927418,6|0,1:0|0:0,0:0:0:0:
482,290,29775,2,0,L|316:279,1,166.250001585484,6|2,1:0|0:0,0:0:0:0:
265,213,29980,2,0,B|184:237|184:237|121:182,1,166.250001585484,6|2,1:0|0:2,0:0:0:0:
399,6,30253,1,4,1:0:0:0:
399,6,30321,2,0,L|406:119,1,83.1250007927418,6|0,1:0|0:0,0:0:0:0:
250,88,30457,2,0,L|344:25,1,83.1250007927418,4|0,1:0|0:0,0:0:0:0:
396,177,30594,2,0,L|294:126,1,83.1250007927418,6|0,1:0|0:0,0:0:0:0:
193,33,30730,6,0,P|256:29|319:41,1,128.250000489235,4|0,1:0|0:0,0:0:0:0:
234,239,31003,2,0,P|171:251|107:247,1,128.250000489235,12|0,1:0|0:0,0:0:0:0:
396,177,31275,1,4,1:0:0:0:
388,319,31412,1,0,0:0:0:0:
245,311,31548,1,12,1:0:0:0:
251,169,31685,1,0,0:0:0:0:
396,177,31821,6,0,P|432:116|427:55,1,128.250000489235,4|0,1:0|0:0,0:0:0:0:
512,175,32094,1,12,1:0:0:0:
322,128,32230,1,0,0:0:0:0:
388,319,32366,2,0,L|252:335,1,128.250000489235,4|0,1:0|0:0,0:0:0:0:
260,333,32571,1,0,0:0:0:0:
260,333,32639,1,12,1:0:0:0:
321,212,32775,1,0,0:0:0:0:
457,256,32912,6,0,L|450:168,1,71.2500027179719,4|0,1:0|0:0,0:0:0:0:
441,27,33048,2,0,L|446:99,1,71.2500027179719,4|0,1:0|0:0,0:0:0:0:
325,283,33185,6,0,L|318:195,1,71.2500027179719,4|0,1:0|0:0,0:0:0:0:
309,54,33321,2,0,L|314:126,1,71.2500027179719,4|0,1:0|0:0,0:0:0:0:
194,248,33457,6,0,L|187:160,1,71.2500027179719,4|0,1:0|0:0,0:0:0:0:
178,19,33594,2,0,L|183:91,1,71.2500027179719,4|0,1:0|0:0,0:0:0:0:
62,275,33730,6,0,L|55:187,1,71.2500027179719,4|0,1:0|0:0,0:0:0:0:
46,46,33866,2,0,L|51:118,1,71.2500027179719,4|0,1:0|0:0,0:0:0:0:
198,319,34003,6,0,L|188:176,1,142.500005435944,0|0,0:0|0:0,0:0:0:0:
51,118,34412,2,0,B|29:155|22:204|43:227|43:227|61:213|58:188,1,142.500005435944,0|0,0:0|0:0,0:0:0:0:
439,80,34821,6,2,B|415:67|392:63|366:68|338:75|333:86|305:94|279:99|256:95|230:81,1,213.750008153916,2|0,1:3|0:0,0:0:0:0:
178,19,35094,1,0,0:0:0:0:
178,19,35912,5,0,0:0:0:0:
140,106,36048,1,0,0:0:0:0:
48,79,36185,5,0,0:0:0:0:
63,172,36730,1,0,0:0:0:0:
78,265,37275,5,0,0:0:0:0:
175,324,37685,1,0,0:0:0:0:
283,288,38094,1,0,0:0:0:0:
351,320,38366,1,0,0:0:0:0:
351,320,38775,1,0,0:0:0:0:
355,324,38844,1,0,0:0:0:0:
359,328,38912,1,0,0:0:0:0:
359,328,39185,5,0,0:0:0:0:
371,234,39321,1,2,3:0:0:0:
383,140,39457,5,0,1:0:0:0:
383,140,39730,2,0,L|265:145,1,95,0|0,0:0|0:0,0:0:0:0:
143,35,40003,2,0,P|237:36|332:44,1,190,8|4,1:0|0:0,0:0:0:0:
424,69,40412,1,0,0:0:0:0:
494,132,40548,5,8,0:0:0:0:
494,132,40821,2,0,P|486:188|484:228,1,95,2|0,0:1|0:0,0:0:0:0:
402,363,41094,2,0,P|393:297|385:159,1,190,8|4,1:0|0:0,0:0:0:0:
503,25,41639,6,0,P|437:16|299:8,1,190,8|0,0:0|0:0,0:0:0:0:
240,69,42048,1,0,0:0:0:0:
147,47,42185,1,0,0:0:0:0:
147,47,42457,2,0,L|157:148,1,95,0|0,0:0|0:0,0:0:0:0:
192,229,42730,6,0,B|212:240|233:243|256:239|281:232|285:222|310:216|334:211|354:215|375:226,1,190,8|0,0:0|0:0,0:0:0:0:
460,270,43139,1,0,0:0:0:0:
421,356,43275,1,0,0:0:0:0:
421,356,43548,2,0,P|443:293|461:269,1,95,0|0,0:0|0:0,0:0:0:0:
369,142,43821,6,2,B|325:167|273:177|231:168|231:168|256:203|256:238|220:280|220:280|260:269|286:285|308:310|306:349|290:378|258:375,1,427.5,0|0,0:1|0:0,0:0:0:0:
149,318,45185,2,0,P|140:282|140:264,1,47.5,0|0,0:0|0:0,0:0:0:0:
137,162,45457,6,0,L|240:169,1,95,4|0,1:2|0:0,0:0:0:0:
327,23,45730,2,0,L|232:29,1,95,4|0,1:2|0:0,0:0:0:0:
349,280,46003,6,0,B|402:218|402:218|368:141,1,166.250001585484,6|0,1:0|0:0,0:0:0:0:
137,162,46275,2,0,L|141:250,1,83.1250007927418,12|0,1:0|0:0,0:0:0:0:
208,364,46412,2,0,B|242:347|242:347|114:341,1,166.250001585484,2|4,0:1|1:0,0:0:0:0:
114,341,46616,1,0,0:0:0:0:
114,341,46685,1,0,0:0:0:0:
43,184,46821,2,0,B|171:177|171:177|136:161,1,166.250001585484,12|2,1:0|0:1,0:0:0:0:
14,42,47094,6,0,P|-23:78|26:63,1,142.5,4|0,1:0|2:0,0:0:0:0:
99,11,47366,6,2,B|178:40|178:40|355:23,1,249.375002378225,14|0,1:1|2:0,0:0:0:0:
450,89,47639,1,4,1:0:0:0:
450,89,47707,1,0,0:0:0:0:
450,89,47775,2,0,L|459:-6,1,83.1250007927418,0|0,0:0|2:0,0:0:0:0:
294,140,47912,2,0,B|270:220|270:220|323:286,1,166.250001585484,14|0,1:0|0:0,0:0:0:0:
475,169,48185,5,4,1:0:0:0:
450,89,48321,1,2,0:2:0:0:
394,151,48457,1,12,1:0:0:0:
473,157,48594,1,2,0:2:0:0:
444,78,48730,1,4,1:0:0:0:
391,143,48866,1,2,0:2:0:0:
471,146,49003,1,12,1:0:0:0:
438,69,49139,1,2,0:2:0:0:
234,114,49275,5,4,1:0:0:0:
259,34,49412,1,2,0:2:0:0:
315,96,49548,1,12,1:0:0:0:
235,102,49685,1,2,0:2:0:0:
264,23,49821,1,4,1:0:0:0:
317,88,49957,1,2,0:2:0:0:
237,91,50094,1,12,1:0:0:0:
270,14,50230,1,0,0:0:0:0:
320,81,50366,6,0,B|311:206|311:206|284:169,1,166.250001585484,6|0,1:0|0:0,0:0:0:0:
208,311,50639,2,0,L|302:306,1,83.1250007927418,12|0,1:0|0:0,0:0:0:0:
428,135,50775,2,0,B|367:192|367:192|287:173,1,166.250001585484,2|4,0:1|1:0,0:0:0:0:
287,173,50980,1,0,0:0:0:0:
287,173,51048,1,0,0:0:0:0:
66,273,51185,2,0,B|127:330|127:330|207:311,1,166.250001585484,12|2,1:1|0:1,0:0:0:0:
64,23,51457,6,0,P|41:91|81:161,1,142.5,4|0,1:0|2:0,0:0:0:0:
133,218,51730,6,2,B|162:32|162:32|131:84,1,249.375002378225,14|0,1:1|2:1,0:0:0:0:
246,148,52003,1,4,1:0:0:0:
246,148,52071,1,0,0:0:0:0:
246,148,52139,2,0,L|343:144,1,83.1250007927418,0|0,0:0|0:0,0:0:0:0:
321,311,52275,2,0,L|330:130,1,166.250001585484,14|0,1:0|0:1,0:0:0:0:
456,12,52548,6,0,P|440:81|505:178,1,190,6|0,1:0|0:0,0:0:0:0:
399,347,52957,2,0,P|415:266|414:241,1,95,6|0,1:0|0:0,0:0:0:0:
246,148,53230,2,0,P|249:195|261:240,1,95,6|0,1:0|0:0,0:0:0:0:
325,43,53503,2,0,P|224:46|111:13,1,190,6|4,1:0|1:0,0:0:0:0:
17,118,53912,2,0,L|21:144,4,23.75,4|0|0|0|0,1:0|0:0|3:0|0:0|3:0,0:0:0:0:
165,169,54185,1,4,1:2:0:0:
183,173,54457,1,4,1:2:0:0:
201,177,54730,6,0,B|326:158|326:158|277:196,1,166.250001585484,6|0,1:0|0:0,0:0:0:0:
144,41,55003,2,0,L|226:53,1,83.1250007927418,12|0,1:0|0:0,0:0:0:0:
469,58,55139,2,0,B|344:39|344:39|393:77,1,166.250001585484,2|4,0:1|1:0,0:0:0:0:
375,63,55344,1,0,0:0:0:0:
375,63,55412,1,0,0:0:0:0:
445,201,55548,2,0,B|496:136|496:136|468:57,1,166.250001585484,12|2,1:0|0:1,0:0:0:0:
499,285,55821,6,0,P|437:279|342:278,1,142.5,4|0,1:0|2:0,0:0:0:0:
243,248,56094,6,2,B|329:157|329:157|445:201,1,249.375002378225,14|0,1:1|2:1,0:0:0:0:
374,359,56366,1,4,1:0:0:0:
374,359,56435,1,0,0:0:0:0:
374,359,56503,2,0,L|357:278,1,83.1250007927418,0|0,0:0|0:0,0:0:0:0:
430,105,56639,2,0,B|459:76|459:76|445:200,1,166.250001585484,14|0,1:0|0:0,0:0:0:0:
243,248,56912,5,4,1:0:0:0:
186,186,57048,1,2,0:2:0:0:
267,168,57185,1,12,1:0:0:0:
233,240,57321,1,2,0:2:0:0:
179,175,57457,1,4,1:0:0:0:
262,162,57594,1,2,0:2:0:0:
225,233,57730,1,12,1:0:0:0:
174,165,57866,1,2,0:2:0:0:
351,170,58003,5,4,1:0:0:0:
408,108,58139,1,2,0:2:0:0:
327,90,58275,1,12,1:0:0:0:
361,162,58412,1,2,0:2:0:0:
415,97,58548,1,4,1:0:0:0:
332,84,58685,1,2,0:2:0:0:
369,155,58821,1,12,1:0:0:0:
420,87,58957,1,0,0:0:0:0:
105,277,59094,6,0,B|170:328|170:328|249:300,1,166.250001585484,6|0,1:0|0:0,0:0:0:0:
421,232,59366,2,0,B|388:257|388:257|349:243,1,83.1250007927418,12|0,1:0|0:0,0:0:0:0:
318,360,59503,2,0,L|499:353,1,166.250001585484,2|4,0:1|1:0,0:0:0:0:
484,353,59707,1,0,2:0:0:0:
484,353,59775,1,0,0:0:0:0:
372,99,59912,2,0,B|321:164|321:164|349:243,1,166.250001585484,12|2,1:0|0:1,0:0:0:0:
459,6,60185,6,0,P|394:18|306:19,1,142.5,4|0,1:0|0:0,0:0:0:0:
143,39,60457,6,2,B|242:49|242:49|274:89|274:89|372:99,1,249.375002378225,14|0,1:1|2:1,0:0:0:0:
308,254,60730,1,4,1:0:0:0:
308,254,60798,1,0,0:0:0:0:
308,254,60866,2,0,L|299:162,1,83.1250007927418,0|0,0:0|0:0,0:0:0:0:
450,139,61003,2,0,B|401:181|401:181|300:171,1,166.250001585484,14|0,1:0|0:0,0:0:0:0:
236,300,61275,6,0,P|291:303|430:323,1,190,6|0,1:0|0:0,0:0:0:0:
506,209,61685,2,0,P|459:211|412:219,1,95,6|0,1:0|0:0,0:0:0:0:
269,107,61957,2,0,P|316:109|363:117,1,95,6|0,1:0|0:0,0:0:0:0:
165,215,62230,2,0,P|175:111|150:16,1,190,6|0,1:0|0:0,0:0:0:0:
156,29,62912,1,0,0:0:0:0:
249,13,63185,1,0,0:0:0:0:
326,66,63457,6,0,L|313:161,1,95,0|0,1:0|0:0,0:0:0:0:
301,254,63730,2,0,L|203:261,1,95,0|0,0:0|0:0,0:0:0:0:
96,99,64003,1,0,0:0:0:0:
205,129,64139,1,0,0:0:0:0:
313,161,64275,2,0,L|327:61,1,95,0|0,0:0|0:0,0:0:0:0:
512,235,64548,5,0,0:0:0:0:
498,326,64685,1,0,0:0:0:0:
425,154,64821,5,0,0:0:0:0:
412,59,64958,1,0,0:0:0:0:
353,279,65094,5,0,0:0:0:0:
257,262,65230,1,0,0:0:0:0:
257,262,65298,1,0,0:0:0:0:
257,262,65366,2,0,L|249:367,1,95
221,38,65639,5,0,1:0:0:0:
126,28,65775,1,0,0:0:0:0:
126,28,65844,1,0,0:0:0:0:
126,28,65912,1,8,1:0:0:0:
276,136,66048,1,2,0:0:0:0:
12,46,66185,2,0,L|16:100,1,47.5,2|0,1:1|0:0,0:0:0:0:
54,179,66321,2,0,L|58:233,1,47.5,2|0,0:1|0:0,0:0:0:0:
127,373,66457,2,0,L|131:319,1,47.5,8|0,1:0|0:0,0:0:0:0:
168,238,66593,2,0,L|172:184,1,47.5,2|0,0:1|0:0,0:0:0:0:
211,107,66730,6,0,P|270:100|317:70,1,95,0|2,1:0|0:0,0:0:0:0:
126,28,67003,2,0,P|135:72|144:88,1,47.5,8|0,1:0|0:0,0:0:0:0:
223,183,67139,2,0,P|258:210|275:217,1,47.5,2|0,0:1|0:0,0:0:0:0:
396,239,67275,5,2,1:2:0:0:
370,49,67412,1,0,0:0:0:0:
396,239,67548,5,2,1:2:0:0:
370,49,67685,1,0,0:0:0:0:
396,239,67821,6,0,P|397:292|373:336,1,95,0|0,1:0|0:0,0:0:0:0:
285,311,68094,2,0,L|186:293,1,95,0|0,0:0|0:0,0:0:0:0:
225,91,68367,1,0,0:0:0:0:
255,201,68503,1,0,0:0:0:0:
285,311,68639,2,0,L|186:293,1,95,0|0,0:0|0:0,0:0:0:0:
309,14,68912,5,0,0:0:0:0:
319,129,69048,1,0,0:0:0:0:
512,92,69185,5,0,0:0:0:0:
412,54,69321,1,0,0:0:0:0:
441,277,69457,5,0,0:0:0:0:
510,197,69594,1,0,0:0:0:0:
510,197,69662,1,0,0:0:0:0:
510,197,69730,2,0,L|411:170,1,95,0|0,0:0|0:0,0:0:0:0:
144,176,70003,5,0,1:0:0:0:
204,96,70139,1,0,0:0:0:0:
204,96,70207,1,0,0:0:0:0:
204,96,70275,1,8,1:0:0:0:
240,292,70412,1,2,0:0:0:0:
64,25,70548,2,0,L|69:86,1,47.5,2|0,1:0|0:0,0:0:0:0:
57,163,70685,2,0,L|62:224,1,47.5,2|0,0:1|0:0,0:0:0:0:
137,312,70821,2,0,L|134:265,1,47.5,8|0,1:0|0:0,0:0:0:0:
144,174,70957,2,0,L|141:127,1,47.5,2|0,0:1|0:0,0:0:0:0:
225,91,71094,6,0,P|272:108|394:27,1,185.249991519928,2|0,0:0|2:0,0:0:0:0:
512,241,71639,2,0,P|465:258|343:177,1,185.249991519928,4|0,0:0|2:0,0:0:0:0:
384,49,72185,6,0,L|479:57,1,95,0|0,1:0|0:0,0:0:0:0:
257,207,72457,2,0,L|352:199,1,95,8|0,1:2|0:0,0:0:0:0:
138,3,72730,1,0,1:0:0:0:
114,236,72866,1,0,0:0:0:0:
328,116,73002,2,0,L|233:108,1,95,8|0,1:2|0:0,0:0:0:0:
114,236,73275,5,0,1:0:0:0:
140,356,73412,1,0,0:0:0:0:
290,212,73548,1,8,1:2:0:0:
296,343,73685,1,0,0:0:0:0:
499,236,73821,1,0,1:0:0:0:
476,369,73957,1,0,0:0:0:0:
476,369,74025,1,0,0:0:0:0:
476,369,74094,2,0,L|376:353,1,95,8|0,1:2|0:0,0:0:0:0:
422,167,74366,5,2,1:0:0:0:
262,43,74503,1,2,0:2:0:0:
266,47,74571,2,2,L|205:52,1,47.5,2|0,0:1|0:0,0:0:0:0:
340,182,74707,1,2,0:2:0:0:
340,182,74775,2,2,L|279:187,1,47.5,2|0,0:1|0:0,0:0:0:0:
460,57,74912,1,2,1:1:0:0:
464,61,74980,2,2,L|403:66,2,47.5,2|0|0,0:2|2:2|2:2,0:0:0:0:
502,149,75185,2,0,L|496:258,1,95,8|0,1:2|0:0,0:0:0:0:
300,351,75457,5,0,1:0:0:0:
290,256,75593,1,0,0:0:0:0:
280,162,75729,1,8,1:2:0:0:
270,67,75866,1,0,0:0:0:0:
0,205,76003,6,0,P|5:170|17:152,1,47.5,2|0,1:0|0:0,0:0:0:0:
78,198,76139,2,0,P|99:170|118:161,1,47.5,2|0,0:1|0:0,0:0:0:0:
149,232,76276,2,0,P|181:219|202:220,1,47.5,14|0,1:2|0:0,0:0:0:0:
194,297,76412,1,0,0:0:0:0:
198,301,76480,1,0,1:0:0:0:
202,305,76548,6,0,L|199:361,7,47.5,4|0|0|0|8|0|0|0,1:0|0:0|0:0|0:0|0:2|0:0|0:0|0:0,0:0:0:0:
105,372,77094,2,0,L|102:316,7,47.5,0|0|0|0|8|0|0|0,0:0|0:0|0:0|0:0|0:2|0:0|0:0|0:0,0:0:0:0:
71,238,77639,5,0,0:0:0:0:
80,241,77707,1,0,0:0:0:0:
88,242,77775,1,0,0:0:0:0:
97,243,77843,1,0,0:0:0:0:
106,244,77911,1,8,0:2:0:0:
115,243,77979,1,0,0:0:0:0:
124,241,78048,1,0,0:0:0:0:
132,239,78116,1,0,0:0:0:0:
141,236,78184,1,0,0:0:0:0:
149,232,78252,1,0,0:0:0:0:
156,228,78320,1,0,0:0:0:0:
164,222,78389,1,0,0:0:0:0:
170,216,78457,1,8,0:2:0:0:
176,210,78525,1,0,0:0:0:0:
182,203,78593,1,0,0:0:0:0:
186,195,78661,1,0,0:0:0:0:
190,188,78730,6,0,L|195:116,1,71.2500027179719,4|0,1:0|0:0,0:0:0:0:
63,89,78866,2,0,L|58:161,1,71.2500027179719,4|0,1:0|0:0,0:0:0:0:
43,245,79002,6,0,L|37:316,1,71.2500027179719,4|0,1:0|0:0,0:0:0:0:
179,345,79139,2,0,L|184:273,1,71.2500027179719,4|0,1:0|0:0,0:0:0:0:
326,81,79276,6,0,L|321:153,1,71.2500027179719,4|0,1:0|0:0,0:0:0:0:
315,238,79412,2,0,L|310:310,1,71.2500027179719,4|0,1:0|0:0,0:0:0:0:
442,337,79548,6,0,L|449:249,1,71.2500027179719,4|0,1:0|0:0,0:0:0:0:
453,180,79685,2,0,L|458:108,1,71.2500027179719,4|0,1:0|0:0,0:0:0:0:
326,81,79821,6,0,P|252:87|176:107,1,142.500005435944,0|0,1:0|0:0,0:0:0:0:
180,113,80230,1,0,0:0:0:0:
26,11,80366,6,0,L|16:181,1,142.500005435944,6|0,1:2|0:0,0:0:0:0:
114,270,80639,2,2,P|172:193|182:265,1,213.750008153916,2|0,1:1|0:0,0:0:0:0:
164,327,80912,5,4,1:0:0:0:
240,347,81048,1,0,0:0:0:0:
312,316,81185,1,0,0:0:0:0:
389,302,81321,1,0,0:0:0:0:
470,338,81457,1,0,0:0:0:0:
470,338,81525,1,0,0:0:0:0:
470,338,81594,1,0,0:0:0:0:
359,97,81730,2,0,P|341:140|343:187,1,95,2|2,0:1|0:2,0:0:0:0:
389,302,82003,5,0,0:0:0:0:
240,347,82139,1,0,0:0:0:0:
127,238,82275,1,0,0:0:0:0:
367,323,82412,5,0,0:0:0:0:
240,262,82549,1,0,0:0:0:0:
224,241,82617,1,0,0:0:0:0:
209,220,82685,1,0,0:0:0:0:
194,198,82753,1,0,0:0:0:0:
178,177,82821,5,0,0:0:0:0:
343,340,82957,1,0,0:0:0:0:
187,332,83094,6,0,P|121:308|30:373,1,190,4|0,1:0|0:0,0:0:0:0:
0,151,83503,2,0,P|42:171|90:172,1,95,4|0,1:0|0:0,0:0:0:0:
242,28,83775,2,0,P|194:29|152:49,1,95,4|0,1:0|0:0,0:0:0:0:
347,158,84048,1,4,1:0:0:0:
476,24,84185,5,6,1:1:0:0:
256,192,84253,12,0,84935,0:0:0:0:
325,255,85003,6,0,P|335:280|331:245,1,95,12|0,1:3|0:0,0:0:0:0:
252,188,85276,6,0,B|183:191|183:191|162:176|162:176|90:180,1,166.250001585484,6|0,1:0|0:0,0:0:0:0:
99,346,85548,1,12,1:0:0:0:
91,180,85685,2,0,B|95:266,1,83.1250007927418,2|0,0:1|0:0,0:0:0:0:
9,344,85821,1,4,1:0:0:0:
12,347,85889,1,0,0:0:0:0:
15,350,85957,2,0,B|98:346,1,83.1250007927418,0|0,0:0|0:0,0:0:0:0:
389,161,86094,2,0,B|329:218|329:218|251:187,1,166.250001585484,12|2,1:0|0:1,0:0:0:0:
286,42,86366,6,0,P|323:78|274:63,1,142.5,4|0,1:0|2:0,0:0:0:0:
142,4,86639,6,2,B|92:134|193:107|139:248,1,249.375002378225,14|0,1:1|0:1,0:0:0:0:
0,181,86912,1,4,1:0:0:0:
0,181,86980,1,0,0:0:0:0:
0,181,87048,2,0,L|82:176,1,83.1250007927418,0|0,0:1|0:0,0:0:0:0:
306,236,87185,2,0,L|140:245,1,166.250001585484,14|0,1:1|0:0,0:0:0:0:
134,91,87457,5,4,1:0:0:0:
184,24,87593,1,2,0:2:0:0:
216,101,87729,1,12,1:0:0:0:
139,80,87866,1,2,0:2:0:0:
194,16,88002,1,4,1:0:0:0:
221,95,88138,1,2,0:2:0:0:
145,70,88275,1,12,1:0:0:0:
202,9,88411,1,2,0:2:0:0:
379,183,88548,5,4,1:0:0:0:
329,116,88684,1,2,0:2:0:0:
297,193,88820,1,12,1:0:0:0:
374,172,88957,1,2,0:2:0:0:
319,108,89093,1,4,1:0:0:0:
292,187,89229,1,2,0:2:0:0:
368,162,89366,1,12,1:0:0:0:
311,101,89502,1,0,0:0:0:0:
47,207,89639,6,0,B|125:176|125:176|185:233,1,166.250001585484,6|0,1:0|0:0,0:0:0:0:
110,365,89912,2,0,L|104:283,1,83.1250007927418,12|0,1:0|0:0,0:0:0:0:
176,91,90048,2,0,B|236:148|236:148|314:117,1,166.250001585484,2|4,0:1|1:0,0:0:0:0:
313,117,90253,1,0,0:0:0:0:
313,117,90321,1,0,0:0:0:0:
85,33,90457,2,0,L|78:115,1,83.1250007927418,12|0,1:0|0:0,0:0:0:0:
47,207,90594,2,0,L|82:281,1,83.1250007927418,2|0,0:1|0:0,0:0:0:0:
189,360,90730,6,0,P|193:288|210:220,1,142.5,4|0,1:0|2:0,0:0:0:0:
285,154,91003,6,2,B|168:200|168:200|78:115,1,249.375002378225,14|0,1:1|2:0,0:0:0:0:
185,5,91275,1,4,1:0:0:0:
185,5,91344,1,0,0:0:0:0:
185,5,91412,2,0,L|191:88,1,83.1250007927418,0|0,0:1|0:0,0:0:0:0:
274,319,91548,2,0,L|285:153,1,166.250001585484,12|2,1:0|0:1,0:0:0:0:
28,30,91821,6,0,P|83:89|58:202,1,190,6|0,1:0|0:0,0:0:0:0:
107,356,92230,2,0,P|163:341|223:345,1,95,6|0,1:0|0:0,0:0:0:0:
294,189,92503,2,0,P|350:204|410:200,1,95,6|0,1:0|0:0,0:0:0:0:
476,340,92775,2,2,B|300:283|375:386|198:340,1,285,6|0,1:0|0:0,0:0:0:0:
145,287,93321,1,0,0:0:0:0:
152,211,93457,2,0,L|159:113,1,95,0|0,0:0|0:0,0:0:0:0:
406,22,93730,2,0,L|412:116,1,95,14|0,1:3|0:0,0:0:0:0:
212,48,94003,5,4,1:0:0:0:
236,276,94139,1,4,1:0:0:0:
413,117,94275,1,12,1:0:0:0:
132,148,94412,1,4,1:0:0:0:
340,312,94548,1,4,1:0:0:0:
312,80,94684,1,4,1:0:0:0:
112,264,94820,1,12,1:0:0:0:
348,220,94957,1,4,1:0:0:0:
180,20,95094,5,4,1:0:0:0:
236,276,95230,1,4,1:0:0:0:
460,0,95366,1,12,1:0:0:0:
440,272,95502,1,4,1:0:0:0:
440,272,95571,1,4,1:0:0:0:
440,272,95639,1,4,1:0:0:0:
180,20,95775,1,4,1:0:0:0:
99,267,95912,1,12,1:0:0:0:
404,132,96048,1,4,1:0:0:0:
83,143,96185,6,0,B|65:291|65:291|99:267,1,190,4|0,1:0|0:0,0:0:0:0:
167,100,96389,2,0,B|99:34|99:34|3:82,1,190,12|0,1:0|0:0,0:0:0:0:
99,267,96594,2,0,L|177:209,1,95,4|0,1:0|0:0,0:0:0:0:
428,143,96730,6,0,B|446:291|446:291|413:267,1,190,4|0,1:0|0:0,0:0:0:0:
345,100,96934,2,0,B|412:34|412:34|508:82,1,190,12|0,1:0|0:0,0:0:0:0:
413,267,97139,2,0,L|335:209,1,95,4|0,1:0|0:0,0:0:0:0:
224,90,97275,5,4,1:0:0:0:
44,204,97412,1,4,1:0:0:0:
124,7,97548,1,4,1:0:0:0:
176,220,97685,1,4,1:0:0:0:
14,77,97821,1,4,1:0:0:0:
500,272,98094,6,0,B|441:284|441:284|409:348|409:348|347:361,1,190,14|0,1:0|0:0,0:0:0:0:
196,32,98366,5,4,1:0:0:0:
416,204,98503,1,4,1:0:0:0:
192,286,98639,1,12,1:0:0:0:
328,84,98775,1,4,1:0:0:0:
308,340,98912,1,4,1:0:0:0:
192,120,99048,1,4,1:0:0:0:
150,348,99185,1,12,1:0:0:0:
336,240,99322,1,4,1:0:0:0:
104,188,99458,5,4,1:0:0:0:
328,84,99594,1,4,1:0:0:0:
310,340,99730,1,12,1:0:0:0:
203,85,99866,1,4,1:0:0:0:
210,93,99934,1,0,0:0:0:0:
210,93,100003,1,4,1:0:0:0:
369,199,100139,1,4,1:0:0:0:
192,286,100275,1,14,1:0:0:0:
192,286,100412,1,0,0:0:0:0:
389,89,100548,6,0,B|329:112|278:125|229:118|183:98|228:79|182:59|133:52|82:65|22:89,1,380,6|0,1:0|0:0,0:0:0:0:
133,362,100957,2,0,P|228:362|298:261,1,190,6|0,1:0|0:0,0:0:0:0:
329,16,101230,2,0,P|422:14|487:81,1,190,6|0,1:0|0:0,0:0:0:0:
192,286,101503,2,2,P|73:271|66:48,1,380,2|4,1:0|1:0,0:0:0:0:
329,16,101912,1,0,1:0:0:0:
144,160,102048,1,0,1:0:0:0:
254,369,102185,2,0,L|444:355,1,190,2|0,1:2|0:0,0:0:0:0:
493,207,102457,2,0,L|303:192,1,190,6|0,1:2|0:0,0:0:0:0:
328,61,102730,6,0,B|382:83|428:82|468:55|486:25|486:25|463:76|482:141,1,285.000010871888,4|0,1:0|0:0,0:0:0:0:
424,283,103139,2,0,B|383:266|345:261|271:263|302:305|228:307|190:302|146:284,1,285.000010871888,4|0,1:0|0:0,0:0:0:0:
36,71,103548,2,0,P|120:70|165:24,1,142.500005435944,4|0,1:0|0:0,0:0:0:0:
303,184,103821,5,4,1:0:0:0:
216,148,103958,1,2,3:0:0:0:
124,166,104094,1,8,3:2:0:0:
124,166,104162,1,0,0:0:0:0:
124,166,104230,1,2,3:2:0:0:
56,231,104367,6,0,P|70:260|72:278,1,47.5,8|0,1:0|0:0,0:0:0:0:
109,246,104503,2,0,P|106:278|99:294,1,47.5,2|0,1:2|0:0,0:0:0:0:
147,285,104639,2,0,P|128:311|114:322,1,47.5,2|0,1:2|0:0,0:0:0:0:
160,338,104776,2,0,P|130:352|113:354,1,47.5,2|0,1:2|0:0,0:0:0:0:
56,231,104912,6,0,P|155:245|291:131,1,285.000010871888,4|0,1:0|0:0,0:0:0:0:
448,300,105321,2,0,B|470:258|480:218|467:147|425:178|418:105|422:63|446:22,1,285.000010871888,4|0,1:0|0:0,0:0:0:0:
220,52,105730,2,0,B|22:67|22:67|125:87,1,285.000010871888,4|0,1:0|0:0,0:0:0:0:
275,180,106139,2,0,B|473:195|473:195|370:215,1,285.000010871888,4|0,1:0|0:0,0:0:0:0:
100,326,106548,2,0,B|122:257|122:257|80:197,1,142.500005435944,4|0,1:0|0:0,0:0:0:0:
224,2,106821,2,0,B|183:59|183:59|205:128,1,142.500005435944,4|0,1:0|0:0,0:0:0:0:
333,263,107094,6,0,P|428:213|434:346,1,285.000010871888,4|0,1:0|0:0,0:0:0:0:
229,67,107503,2,0,B|269:50|307:45|381:47|350:89|424:91|462:86|506:68,1,285.000010871888,4|0,1:0|0:0,0:0:0:0:
223,201,107912,2,0,B|96:136|96:136|-2:256,1,285.000010871888,4|0,1:0|0:0,0:0:0:0:
133,311,108321,5,0,3:0:0:0:
97,137,108458,1,8,3:2:0:0:
100,140,108526,1,0,0:0:0:0:
103,143,108594,1,0,3:0:0:0:
223,201,108730,1,8,1:0:0:0:
5,246,108867,1,2,3:0:0:0:
216,60,109003,6,0,L|270:65,2,47.5,4|2|2,1:0|3:0|3:0,0:0:0:0:
422,240,109276,6,0,P|381:165|522:51,1,285.000010871888,4|0,1:0|0:0,0:0:0:0:
468,355,109685,2,0,P|376:326|326:333,1,142.500005435944,4|0,1:0|0:0,0:0:0:0:
86,224,109957,2,0,P|156:226|222:200,1,142.500005435944,4|0,1:0|0:0,0:0:0:0:
505,47,110230,1,4,1:0:0:0:
509,51,110367,6,0,L|414:46,1,71.2500027179719,4|0,1:0|0:0,0:0:0:0:
280,110,110639,2,0,L|374:105,1,71.2500027179719,0|0,0:0|0:0,0:0:0:0:
218,18,110912,1,0,0:0:0:0:
